osu file format v14

[General]
AudioFilename: audio.mp3
AudioLeadIn: 0
PreviewTime: 132
Countdown: 0
SampleSet: Normal
StackLeniency: 0.2
Mode: 0
LetterboxInBreaks: 0
SkinPreference:Default
WidescreenStoryboard: 1

[Editor]
DistanceSpacing: 1
BeatDivisor: 4
GridSize: 4
TimelineZoom: 1.9

[Metadata]
Title:Hachamecha Music
TitleUnicode:ハチャメチャMusic
Artist:Yoko Shimomura
ArtistUnicode:下村陽子
Creator:Apo11o
Version:Extra
Source:マリオ&ルイージRPG3!!!
Tags:Mario & and Luigi Bowser's Inside Story RPG 3 Nintendo DS Video Game Electronic Instrumental Danger! Rumpus Music Panic Bloxi
BeatmapID:3390244
BeatmapSetID:1660540

[Difficulty]
HPDrainRate:5
CircleSize:3.6
OverallDifficulty:8.6
ApproachRate:9
SliderMultiplier:1.8
SliderTickRate:1

[Events]
//Background and Video events
0,0,"minigame.jpg",0,0
//Break Periods
//Storyboard Layer 0 (Background)
//Storyboard Layer 1 (Fail)
//Storyboard Layer 2 (Pass)
//Storyboard Layer 3 (Foreground)
//Storyboard Layer 4 (Overlay)
//Storyboard Sound Samples

[TimingPoints]
222,357.244927122035,4,1,1,40,1,0
2008,-80,4,1,1,40,0,0
2365,-100,4,1,1,40,0,0
2722,-80,4,1,1,40,0,0
3079,-100,4,1,1,40,0,0
3794,-80,4,1,1,40,0,0
5937,-100,4,1,1,40,0,0
7724,-80,4,1,1,40,0,0
8081,-100,4,1,1,40,0,0
8438,-80,4,1,1,40,0,0
8795,-100,4,1,1,40,0,0
9510,-80,4,1,1,40,0,0
11832,-100,4,1,1,40,0,0
24871,-80,4,1,1,40,0,0
25228,-100,4,1,1,40,0,0
25585,-80,4,1,1,40,0,0
25942,-100,4,1,1,40,0,0
26657,-80,4,1,1,40,0,0
28800,-100,4,1,1,40,0,0
30587,-80,4,1,1,40,0,0
30944,-100,4,1,1,40,0,0
31301,-80,4,1,1,40,0,0
31658,-100,4,1,1,40,0,0
32373,-80,4,1,1,40,0,0
34695,-100,4,1,1,40,0,0

[Colours]
Combo1 : 164,231,154
Combo2 : 97,169,228
Combo3 : 249,113,113
Combo4 : 249,208,132
SliderBorder : 255,255,255

[HitObjects]
259,361,43,5,0,0:0:0:0:
259,361,102,1,0,0:0:0:0:
259,361,162,1,0,0:0:0:0:
259,361,222,6,0,L|252:257,1,90,4|0,0:0|0:0,0:0:0:0:
249,196,489,1,0,0:0:0:0:
249,196,579,1,8,0:0:0:0:
349,272,757,1,0,0:0:0:0:
174,339,936,5,2,0:0:0:0:
323,203,1115,1,0,0:0:0:0:
140,115,1293,1,8,0:0:0:0:
202,257,1472,1,0,0:0:0:0:
202,257,1561,1,0,0:0:0:0:
202,257,1650,6,0,P|140:264|107:249,1,90,2|8,0:0|0:0,0:0:0:0:
0,185,2008,2,0,P|18:248|7:311,1,112.5,8|8,0:0|0:0,0:0:0:0:
53,117,2365,6,0,P|115:124|148:109,1,90,2|8,0:0|0:0,0:0:0:0:
257,47,2723,2,0,P|239:110|250:173,1,112.5,8|8,0:0|0:0,0:0:0:0:
286,226,2990,5,0,0:0:0:0:
286,226,3079,1,2,0:0:0:0:
409,139,3258,1,0,0:0:0:0:
405,118,3347,1,0,0:0:0:0:
401,97,3437,1,8,0:0:0:0:
257,47,3615,1,0,0:0:0:0:
396,223,3794,5,4,0:0:0:0:
205,172,3973,1,8,0:0:0:0:
345,22,4151,1,0,0:0:0:0:
383,4,4240,1,0,0:0:0:0:
424,5,4329,1,8,0:0:0:0:
462,24,4418,1,0,0:0:0:0:
488,57,4508,2,0,P|494:68|498:112,1,56.25
396,223,4687,5,8,0:0:0:0:
358,240,4776,1,0,0:0:0:0:
316,239,4865,1,0,0:0:0:0:
278,220,4954,1,0,0:0:0:0:
253,188,5044,2,0,P|248:164|227:131,1,56.25
182,63,5223,5,10,0:0:0:0:
146,20,5312,1,8,0:0:0:0:
92,10,5401,1,8,0:0:0:0:
44,37,5490,1,8,0:0:0:0:
24,89,5580,1,10,0:0:0:0:
37,143,5669,1,8,0:0:0:0:
74,184,5758,1,8,0:0:0:0:
124,209,5848,1,8,0:0:0:0:
143,261,5937,1,12,0:0:0:0:
62,365,6116,5,0,0:0:0:0:
62,365,6205,1,0,0:0:0:0:
62,365,6295,2,0,P|112:342|171:343,1,90,8|0,0:0|0:0,0:0:0:0:
312,194,6652,1,2,0:0:0:0:
388,373,6831,1,0,0:0:0:0:
216,360,7009,1,8,0:0:0:0:
393,246,7188,1,0,0:0:0:0:
393,246,7277,1,0,0:0:0:0:
393,246,7366,6,0,L|495:242,1,90,2|8,0:0|0:0,0:0:0:0:
312,194,7724,2,0,P|296:261|323:311,1,112.5,8|8,0:0|0:0,0:0:0:0:
313,109,8081,6,0,L|211:105,1,90,2|8,0:0|0:0,0:0:0:0:
394,57,8439,2,0,P|410:124|383:174,1,112.5,8|8,0:0|0:0,0:0:0:0:
312,194,8706,5,0,0:0:0:0:
312,194,8795,1,2,0:0:0:0:
405,319,8974,1,0,0:0:0:0:
427,316,9063,1,0,0:0:0:0:
449,313,9153,1,8,0:0:0:0:
489,165,9331,1,2,0:0:0:0:
312,299,9510,5,4,0:0:0:0:
280,326,9599,1,0,0:0:0:0:
239,336,9688,1,8,0:0:0:0:
198,327,9777,1,0,0:0:0:0:
166,301,9867,1,0,0:0:0:0:
133,276,9956,1,0,0:0:0:0:
92,267,10045,1,8,0:0:0:0:
52,277,10134,1,0,0:0:0:0:
20,305,10224,2,0,P|50:331|86:338,1,56.25
198,327,10403,5,8,0:0:0:0:
221,292,10492,1,0,0:0:0:0:
230,251,10581,1,2,0:0:0:0:
226,209,10670,1,0,0:0:0:0:
207,172,10760,2,0,P|191:149|186:109,1,56.25,8|0,0:0|0:0,0:0:0:0:
301,46,10939,5,8,0:0:0:0:
352,64,11028,1,8,0:0:0:0:
378,113,11117,1,8,0:0:0:0:
363,166,11206,1,8,0:0:0:0:
317,195,11296,1,8,0:0:0:0:
262,184,11385,1,8,0:0:0:0:
207,172,11474,1,8,0:0:0:0:
151,161,11563,1,8,0:0:0:0:
96,150,11653,1,12,0:0:0:0:
16,22,11832,5,2,0:0:0:0:
16,22,11921,1,2,0:0:0:0:
16,22,12011,2,0,P|71:16|127:38,1,90,2|10,0:0|0:0,0:0:0:0:
151,161,12368,2,0,L|167:327,1,135,2|0,0:0|0:0,0:0:0:0:
163,295,12725,2,0,P|140:265|80:243,1,90,0|8,0:0|0:0,0:0:0:0:
2,373,13082,5,2,0:0:0:0:
125,360,13261,1,2,0:0:0:0:
248,347,13440,2,0,L|347:337,1,90,10|0,0:0|0:0,0:0:0:0:
417,331,13707,1,0,0:0:0:0:
417,331,13797,1,8,0:0:0:0:
295,172,13975,1,0,0:0:0:0:
337,337,14154,5,8,0:0:0:0:
384,124,14333,1,0,0:0:0:0:
206,259,14511,1,4,0:0:0:0:
237,31,14690,5,2,0:0:0:0:
237,31,14779,1,2,0:0:0:0:
237,31,14869,2,0,P|282:17|345:24,1,90,2|10,0:0|0:0,0:0:0:0:
457,142,15226,2,0,L|441:308,1,135,2|0,0:0|0:0,0:0:0:0:
444,276,15583,2,0,P|421:246|361:224,1,90,0|10,0:0|0:0,0:0:0:0:
236,126,15940,5,10,0:0:0:0:
202,126,16029,1,0,0:0:0:0:
170,137,16118,1,0,0:0:0:0:
145,159,16207,1,0,0:0:0:0:
128,188,16298,2,0,L|137:298,1,90,10|0,0:0|0:0,0:0:0:0:
146,358,16565,1,0,0:0:0:0:
146,358,16655,1,8,0:0:0:0:
12,256,16833,1,0,0:0:0:0:
242,238,17012,5,8,0:0:0:0:
16,289,17191,1,0,0:0:0:0:
88,50,17369,5,4,0:0:0:0:
106,46,17459,1,0,0:0:0:0:
124,42,17548,1,0,0:0:0:0:
142,38,17638,1,0,0:0:0:0:
160,34,17727,1,8,0:0:0:0:
294,11,17905,1,10,0:0:0:0:
148,136,18084,5,2,0:0:0:0:
350,89,18352,1,2,0:0:0:0:
368,85,18441,1,0,0:0:0:0:
125,141,18620,1,2,0:0:0:0:
271,302,18798,5,4,0:0:0:0:
298,309,18888,1,0,0:0:0:0:
325,316,18977,1,0,0:0:0:0:
352,323,19066,1,0,0:0:0:0:
379,330,19155,1,8,0:0:0:0:
194,281,19334,1,10,0:0:0:0:
210,379,19513,5,2,0:0:0:0:
265,170,19780,1,2,0:0:0:0:
272,143,19869,1,0,0:0:0:0:
214,368,20049,1,2,0:0:0:0:
329,255,20227,5,4,0:0:0:0:
363,226,20316,1,0,0:0:0:0:
379,184,20405,1,0,0:0:0:0:
374,140,20494,1,0,0:0:0:0:
349,103,20584,1,8,0:0:0:0:
195,153,20763,1,10,0:0:0:0:
451,199,20942,5,2,0:0:0:0:
116,141,21210,1,2,0:0:0:0:
71,134,21299,1,0,0:0:0:0:
308,175,21478,1,2,0:0:0:0:
173,41,21656,5,12,0:0:0:0:
167,94,21745,1,8,0:0:0:0:
161,148,21834,1,8,0:0:0:0:
155,202,21923,1,8,0:0:0:0:
149,255,22013,1,8,0:0:0:0:
21,128,22192,1,10,0:0:0:0:
372,63,22371,6,0,L|443:44,1,45,14|0,0:0|0:0,0:0:0:0:
454,161,22639,6,0,L|515:161,1,45,14|0,0:0|0:0,0:0:0:0:
380,263,22907,6,0,L|451:282,1,45,14|0,0:0|0:0,0:0:0:0:
300,239,23085,6,0,L|293:135,1,90,4|0,0:0|0:0,0:0:0:0:
294,76,23352,1,0,0:0:0:0:
294,76,23442,1,8,0:0:0:0:
299,270,23620,1,0,0:0:0:0:
195,142,23799,5,2,0:0:0:0:
221,326,23978,1,0,0:0:0:0:
293,149,24156,1,8,0:0:0:0:
365,343,24335,1,0,0:0:0:0:
365,343,24424,1,0,0:0:0:0:
365,343,24514,6,0,P|427:350|460:335,1,90,2|8,0:0|0:0,0:0:0:0:
416,160,24871,2,0,P|398:223|409:286,1,112.5,8|8,0:0|0:0,0:0:0:0:
221,326,25229,6,0,P|159:333|126:318,1,90,2|8,0:0|0:0,0:0:0:0:
170,143,25587,2,0,P|188:206|177:269,1,112.5,8|8,0:0|0:0,0:0:0:0:
134,323,25853,5,0,0:0:0:0:
134,323,25942,1,2,0:0:0:0:
0,241,26121,1,0,0:0:0:0:
21,237,26210,1,0,0:0:0:0:
42,233,26300,1,8,0:0:0:0:
4,370,26478,1,0,0:0:0:0:
114,182,26657,5,4,0:0:0:0:
205,356,26836,1,8,0:0:0:0:
291,171,27014,1,0,0:0:0:0:
309,133,27103,1,0,0:0:0:0:
308,92,27192,1,8,0:0:0:0:
289,54,27283,1,0,0:0:0:0:
256,28,27372,2,0,P|237:59|232:98,1,56.25
291,171,27551,5,8,0:0:0:0:
314,205,27640,1,0,0:0:0:0:
350,225,27729,1,0,0:0:0:0:
393,227,27818,1,0,0:0:0:0:
432,212,27908,2,0,P|416:178|384:154,1,56.25,8|0,0:0|0:0,0:0:0:0:
291,171,28087,5,10,0:0:0:0:
239,191,28176,1,8,0:0:0:0:
203,234,28265,1,8,0:0:0:0:
191,288,28354,1,8,0:0:0:0:
207,341,28444,1,10,0:0:0:0:
256,363,28533,1,8,0:0:0:0:
306,341,28622,1,8,0:0:0:0:
322,288,28712,1,8,0:0:0:0:
292,242,28801,1,12,0:0:0:0:
182,142,28979,5,0,0:0:0:0:
182,142,29068,1,0,0:0:0:0:
182,142,29158,2,0,P|132:119|73:120,1,90,8|0,0:0|0:0,0:0:0:0:
17,338,29515,1,2,0:0:0:0:
194,245,29694,1,0,0:0:0:0:
14,205,29872,1,8,0:0:0:0:
132,363,30051,1,0,0:0:0:0:
132,363,30140,1,0,0:0:0:0:
132,363,30230,6,0,L|234:359,1,90,2|8,0:0|0:0,0:0:0:0:
369,354,30587,2,0,P|385:287|358:237,1,112.5,8|8,0:0|0:0,0:0:0:0:
131,257,30945,6,0,L|233:253,1,90,2|8,0:0|0:0,0:0:0:0:
368,248,31303,2,0,P|384:181|357:131,1,112.5,8|8,0:0|0:0,0:0:0:0:
317,87,31569,5,0,0:0:0:0:
317,87,31658,1,2,0:0:0:0:
209,11,31837,1,0,0:0:0:0:
212,33,31926,1,0,0:0:0:0:
215,55,32016,1,8,0:0:0:0:
130,114,32194,1,2,0:0:0:0:
0,0,32374,5,4,0:0:0:0:
2,42,32463,1,0,0:0:0:0:
4,84,32552,1,8,0:0:0:0:
6,126,32641,1,0,0:0:0:0:
8,168,32731,1,0,0:0:0:0:
11,210,32820,1,0,0:0:0:0:
13,252,32909,1,8,0:0:0:0:
15,294,32999,1,0,0:0:0:0:
17,337,33088,2,0,P|25:367|40:387,1,56.25
126,244,33267,5,8,0:0:0:0:
162,223,33356,1,0,0:0:0:0:
204,219,33445,1,2,0:0:0:0:
243,234,33534,1,0,0:0:0:0:
272,263,33624,2,0,P|288:278|311:318,1,56.25,8|0,0:0|0:0,0:0:0:0:
402,373,33803,5,8,0:0:0:0:
456,368,33892,1,8,0:0:0:0:
492,326,33981,1,8,0:0:0:0:
489,272,34070,1,8,0:0:0:0:
448,235,34160,1,8,0:0:0:0:
394,237,34249,1,8,0:0:0:0:
358,197,34338,1,8,0:0:0:0:
367,143,34427,1,8,0:0:0:0:
415,117,34517,1,12,0:0:0:0:
339,337,34695,5,2,0:0:0:0:
339,337,34784,1,2,0:0:0:0:
339,337,34874,2,0,P|284:343|228:321,1,90,2|10,0:0|0:0,0:0:0:0:
193,141,35232,2,0,P|163:199|163:296,1,135,2|0,0:0|0:0,0:0:0:0:
158,268,35589,2,0,P|153:208|127:176,1,90,0|8,0:0|0:0,0:0:0:0:
35,28,35945,5,2,0:0:0:0:
173,42,36124,1,2,0:0:0:0:
311,56,36303,2,0,L|414:66,1,90,10|0,0:0|0:0,0:0:0:0:
478,76,36571,1,0,0:0:0:0:
478,76,36660,1,8,0:0:0:0:
369,240,36838,1,0,0:0:0:0:
311,56,37017,5,8,0:0:0:0:
370,269,37196,1,0,0:0:0:0:
478,76,37374,1,4,0:0:0:0:
287,241,37553,5,2,0:0:0:0:
287,241,37642,1,2,0:0:0:0:
287,241,37732,2,0,P|242:255|179:248,1,90,2|10,0:0|0:0,0:0:0:0:
36,157,38089,6,0,P|67:199|83:309,1,135,2|0,0:0|0:0,0:0:0:0:
86,278,38447,2,0,P|67:223|87:178,1,90,0|10,0:0|0:0,0:0:0:0:
144,64,38804,1,10,0:0:0:0:
177,65,38893,1,0,0:0:0:0:
211,66,38982,1,0,0:0:0:0:
245,67,39071,1,0,0:0:0:0:
278,68,39161,2,0,L|383:70,1,90,10|0,0:0|0:0,0:0:0:0:
453,74,39428,1,0,0:0:0:0:
453,74,39518,1,8,0:0:0:0:
353,248,39696,1,0,0:0:0:0:
472,171,39875,5,8,0:0:0:0:
241,159,40054,1,0,0:0:0:0:
427,253,40232,5,4,0:0:0:0:
408,251,40322,1,0,0:0:0:0:
390,250,40411,1,0,0:0:0:0:
371,249,40501,1,0,0:0:0:0:
353,248,40590,1,8,0:0:0:0:
216,238,40768,1,10,0:0:0:0:
381,347,40947,5,2,0:0:0:0:
174,332,41215,1,2,0:0:0:0:
155,331,41304,1,0,0:0:0:0:
404,348,41483,1,2,0:0:0:0:
216,238,41662,5,4,0:0:0:0:
197,212,41751,1,0,0:0:0:0:
187,183,41840,1,0,0:0:0:0:
186,151,41929,1,0,0:0:0:0:
195,121,42019,1,8,0:0:0:0:
310,164,42198,1,10,0:0:0:0:
291,264,42376,5,2,0:0:0:0:
250,44,42644,1,2,0:0:0:0:
246,15,42734,1,0,0:0:0:0:
294,281,42912,1,2,0:0:0:0:
153,271,43090,5,4,0:0:0:0:
119,242,43179,1,0,0:0:0:0:
103,200,43270,1,0,0:0:0:0:
108,156,43359,1,0,0:0:0:0:
133,119,43447,1,8,0:0:0:0:
287,169,43626,1,10,0:0:0:0:
31,215,43805,5,2,0:0:0:0:
366,157,44073,1,2,0:0:0:0:
411,150,44162,1,0,0:0:0:0:
174,191,44341,1,2,0:0:0:0:
422,295,44519,5,12,0:0:0:0:
369,289,44608,1,8,0:0:0:0:
315,283,44697,1,8,0:0:0:0:
261,277,44788,1,8,0:0:0:0:
208,269,44876,1,8,0:0:0:0:
36,249,45055,1,10,0:0:0:0:
157,97,45234,6,0,L|176:26,1,45,14|0,0:0|0:0,0:0:0:0:
282,74,45502,6,0,L|312:21,1,45,14|0,0:0|0:0,0:0:0:0:
335,191,45770,6,0,L|386:139,1,45,14|0,0:0|0:0,0:0:0:0:
465,259,45949,5,4,0:0:0:0:
