osu file format v14

[General]
AudioFilename: audio.mp3
AudioLeadIn: 0
PreviewTime: 405
Countdown: 0
SampleSet: Soft
StackLeniency: 0.7
Mode: 0
LetterboxInBreaks: 0
SkinPreference:Default
WidescreenStoryboard: 0

[Editor]
DistanceSpacing: 0.8
BeatDivisor: 4
GridSize: 8
TimelineZoom: 2.5

[Metadata]
Title:Doctor Kokino
TitleUnicode:ドクター・コキノ
Artist:Yoko Shimomura
ArtistUnicode:下村陽子
Creator:Aranel
Version:Miracle Cure
Source:マリオ&ルイージRPG3!!!
Tags:Mario & and Luigi Bowser's Inside Story RPG 3 Nintendo DS Video Game Electronic Instrumental Dr.Toadley Dr Toadley bloxi vgm
BeatmapID:3408472
BeatmapSetID:1669033

[Difficulty]
HPDrainRate:5
CircleSize:4
OverallDifficulty:8
ApproachRate:8.5
SliderMultiplier:2
SliderTickRate:1

[Events]
//Background and Video events
0,0,"bg.jpg",0,0
//Break Periods
//Storyboard Layer 0 (Background)
//Storyboard Layer 1 (Fail)
//Storyboard Layer 2 (Pass)
//Storyboard Layer 3 (Foreground)
//Storyboard Layer 4 (Overlay)
//Storyboard Sound Samples

[TimingPoints]
499,375.117224132541,4,2,1,40,1,0
6500,-100,4,2,1,50,0,0
24506,-100,4,2,1,60,0,0
30508,-100,4,2,1,70,0,1
36510,-100,4,2,1,50,0,0
54515,-100,4,2,1,60,0,0
60517,-100,4,2,1,70,0,1
66519,-100,4,2,1,50,0,0

[Colours]
Combo1 : 164,231,154
Combo2 : 97,169,228
Combo3 : 249,113,113
Combo4 : 249,208,132
SliderBorder : 255,255,255

[HitObjects]
424,32,499,5,2,0:0:0:0:
464,120,686,1,2,0:0:0:0:
376,160,874,1,2,0:0:0:0:
336,72,1061,1,2,0:0:0:0:
424,32,1249,1,2,0:0:0:0:
376,160,1624,1,2,0:0:0:0:
336,72,1999,1,2,0:0:0:0:
464,120,2374,1,2,0:0:0:0:
464,120,2561,1,2,0:0:0:0:
376,160,2749,1,2,0:0:0:0:
256,0,3124,1,2,0:0:0:0:
88,32,3499,5,2,0:0:0:0:
48,120,3686,1,2,0:0:0:0:
136,160,3874,1,2,0:0:0:0:
176,72,4061,1,2,0:0:0:0:
88,32,4249,1,2,0:0:0:0:
136,160,4624,1,2,0:0:0:0:
176,72,4999,1,2,0:0:0:0:
176,72,5186,1,2,0:0:0:0:
48,120,5374,1,2,0:0:0:0:
48,120,5563,1,2,0:0:0:0:
136,160,5750,1,2,0:0:0:0:
256,0,6125,1,2,0:0:0:0:
376,160,6500,6,0,B|408:216|368:264|368:264,1,100,6|4,1:2|1:3,0:0:0:0:
336,280,6782,1,8,0:3:0:0:
336,280,6875,1,8,0:0:0:0:
256,336,7063,1,0,0:0:0:0:
344,384,7251,1,0,1:2:0:0:
424,328,7438,1,4,0:3:0:0:
424,328,7532,1,8,0:3:0:0:
424,328,7626,2,0,B|336:280|336:280,1,100,8|0,0:0|0:0,0:0:0:0:
256,192,8001,5,0,1:0:0:0:
256,192,8188,1,0,1:0:0:0:
208,80,8376,2,0,B|256:56|304:80,1,100,8|0,0:0|0:0,0:0:0:0:
256,192,8751,1,0,1:0:0:0:
352,16,8939,2,0,B|255:-32|159:16,1,200,8|8,0:0|0:0,0:0:0:0:
136,160,9501,6,0,B|104:216|144:264|144:264,1,100,2|4,1:2|1:3,0:0:0:0:
176,280,9783,1,8,0:3:0:0:
176,280,9876,1,8,0:0:0:0:
256,336,10064,1,0,0:0:0:0:
168,384,10252,1,0,1:2:0:0:
88,328,10439,1,4,0:3:0:0:
88,328,10533,1,8,0:3:0:0:
88,328,10627,2,0,B|176:280|176:280,1,100,8|0,0:0|0:0,0:0:0:0:
256,192,11002,5,0,1:0:0:0:
256,192,11189,1,0,1:0:0:0:
304,80,11377,2,0,B|256:56|208:80,1,100,8|0,0:0|0:0,0:0:0:0:
256,192,11752,1,0,1:0:0:0:
256,0,11940,1,8,0:0:0:0:
256,0,12033,1,4,0:3:0:0:
256,0,12127,1,8,0:3:0:0:
432,224,12502,5,4,1:2:0:0:
432,224,12690,1,8,1:3:0:0:
320,344,12877,2,0,B|359:304|351:248,1,100,10|0,0:1|0:0,0:0:0:0:
351,252,13252,1,0,1:0:0:0:
503,167,13440,2,0,B|463:127|407:135,1,100,2|8,0:1|0:1,0:0:0:0:
412,134,13815,1,0,0:0:0:0:
256,48,14003,6,0,B|295:8|351:16,1,100,2|0,1:1|0:0,0:0:0:0:
346,15,14378,1,8,0:1:0:0:
308,168,14565,2,0,L|208:168,1,100,2|0,0:1|1:0,0:0:0:0:
164,16,14941,1,6,0:3:0:0:
164,16,15034,1,8,0:3:0:0:
164,16,15128,2,0,B|216:8|256:48,1,100,8|0,0:1|0:0,0:0:0:0:
80,224,15503,5,0,1:2:0:0:
80,224,15691,1,8,1:3:0:0:
192,344,15878,2,0,B|152:304|160:248,1,100,10|0,0:1|0:0,0:0:0:0:
159,253,16253,1,0,1:0:0:0:
9,167,16441,2,0,B|48:127|104:135,1,100,2|8,0:1|0:1,0:0:0:0:
99,134,16816,1,0,0:0:0:0:
256,48,17004,6,0,B|216:8|164:16,1,100,2|0,1:1|0:0,0:0:0:0:
200,168,17379,1,10,0:1:0:0:
347,16,17566,1,2,0:1:0:0:
312,168,17754,1,0,1:0:0:0:
347,16,17941,2,0,B|295:8|256:48,2,100,2|8|0,0:3|0:1|0:0,0:0:0:0:
472,144,18504,5,4,1:2:0:0:
448,240,18692,1,2,1:1:0:0:
424,336,18879,1,10,0:1:0:0:
448,240,19067,1,2,0:1:0:0:
368,160,19254,1,2,1:1:0:0:
344,256,19442,1,2,0:1:0:0:
320,352,19629,1,10,0:1:0:0:
344,256,19817,1,2,0:1:0:0:
448,240,20005,1,2,1:1:0:0:
256,0,20380,5,10,0:1:0:0:
256,0,20567,2,0,B|208:48|256:80|216:144|344:120|272:192|304:232|256:272,1,300,2|10,0:1|0:1,0:0:0:0:
40,144,21505,5,2,1:1:0:0:
64,240,21693,1,2,1:1:0:0:
88,336,21880,1,10,0:1:0:0:
144,160,22068,1,2,0:1:0:0:
168,256,22255,1,2,1:1:0:0:
192,352,22443,1,2,0:1:0:0:
64,240,22630,1,10,0:1:0:0:
472,144,23006,5,2,1:1:0:0:
448,240,23193,1,2,1:1:0:0:
424,336,23381,1,10,0:1:0:0:
368,160,23568,1,2,0:1:0:0:
344,256,23756,1,2,1:1:0:0:
320,352,23943,1,10,0:1:0:0:
320,352,24037,1,8,0:1:0:0:
320,352,24131,1,8,0:1:0:0:
168,48,24506,6,0,B|208:0|256:8|304:0|344:48,1,200,6|8,1:2|0:2,0:0:0:0:
304,144,25069,2,0,B|256:168|208:144|208:144,1,100,2|0,0:3|1:2,0:0:0:0:
344,48,25444,1,4,0:3:0:0:
424,112,25631,2,0,B|448:160|424:208|424:208,1,100,8|0,0:2|0:0,0:0:0:0:
344,336,26006,2,0,B|304:384|256:376|208:384|168:336,1,200,2|8,1:2|0:2,0:0:0:0:
208,240,26569,2,0,B|256:216|304:240|304:240,1,100,2|0,0:3|1:2,0:0:0:0:
168,336,26944,1,8,0:3:0:0:
88,272,27132,2,0,B|64:224|88:176|88:176,1,100,8|0,0:2|0:0,0:0:0:0:
192,32,27507,6,0,B|80:8|8:88|8:88,1,200,2|8,1:2|0:2,0:0:0:0:
88,176,28070,2,0,B|144:176|176:136|176:136,1,100,2|0,0:3|1:2,0:0:0:0:
320,32,28445,1,4,0:3:0:0:
256,192,28632,1,8,0:2:0:0:
192,32,28820,1,0,0:0:0:0:
336,136,29007,6,0,B|368:176|424:176,1,100,2|0,1:2|1:0,0:0:0:0:
503,87,29383,1,8,0:2:0:0:
320,32,29570,2,0,B|432:8|504:88|504:88,1,200,2|8,0:3|0:3,0:0:0:0:
503,87,30039,1,8,0:3:0:0:
503,87,30133,1,8,0:2:0:0:
302,352,30508,5,4,1:1:0:0:
256,240,30695,1,2,1:1:0:0:
329,146,30883,1,10,0:1:0:0:
447,161,31071,1,2,0:1:0:0:
492,274,31258,1,2,1:1:0:0:
329,146,31446,1,2,2:3:0:0:
419,368,31633,1,10,0:1:0:0:
447,161,31821,1,2,2:3:0:0:
302,352,32008,1,2,1:1:0:0:
120,64,32383,5,10,0:1:0:0:
120,64,32571,2,0,B|256:-48|392:64,1,300,2|10,0:3|0:1,0:0:0:0:
210,352,33509,5,2,1:1:0:0:
256,240,33696,1,2,1:1:0:0:
183,146,33884,1,10,0:1:0:0:
20,274,34071,1,2,0:1:0:0:
93,368,34259,1,2,1:1:0:0:
210,352,34447,1,2,0:1:0:0:
65,161,34634,1,10,0:1:0:0:
302,352,35009,5,2,1:1:0:0:
256,240,35197,1,2,1:1:0:0:
329,146,35384,1,10,0:1:0:0:
492,274,35572,1,2,0:1:0:0:
419,368,35760,1,2,1:1:0:0:
302,352,35947,1,10,0:1:0:0:
302,352,36041,1,8,0:1:0:0:
302,352,36135,1,8,0:1:0:0:
65,161,36510,6,0,B|50:56|50:56,1,100,6|4,1:2|1:3,0:0:0:0:
45,26,36791,1,8,0:3:0:0:
45,26,36885,1,8,0:0:0:0:
152,160,37072,1,0,0:0:0:0:
136,64,37260,1,0,1:2:0:0:
88,240,37448,1,4,0:3:0:0:
88,240,37541,1,8,0:3:0:0:
88,240,37635,2,0,B|32:264|0:216|0:216,1,100,8|0,0:0|0:0,0:0:0:0:
152,160,38010,5,0,1:0:0:0:
152,160,38198,1,0,1:0:0:0:
256,192,38385,2,0,P|272:304|272:304,1,100,8|0,0:0|0:0,0:0:0:0:
319,127,38760,1,0,1:0:0:0:
348,325,38948,2,0,L|319:127,1,200,8|8,0:0|0:0,0:0:0:0:
447,161,39511,6,0,B|462:56|462:56,1,100,2|4,1:2|1:3,0:0:0:0:
467,26,39792,1,8,0:3:0:0:
467,26,39886,1,8,0:0:0:0:
360,160,40073,1,0,0:0:0:0:
376,64,40261,1,0,1:2:0:0:
424,240,40448,1,4,0:3:0:0:
424,240,40542,1,8,0:3:0:0:
424,240,40636,2,0,B|480:264|512:216|512:216,1,100,8|0,0:0|0:0,0:0:0:0:
360,160,41011,5,0,1:0:0:0:
360,160,41199,1,0,1:0:0:0:
256,192,41386,2,0,P|240:304|240:304,1,100,8|0,0:0|0:0,0:0:0:0:
192,128,41761,1,0,1:0:0:0:
164,325,41949,1,8,0:0:0:0:
164,325,42043,1,4,0:3:0:0:
164,325,42137,1,8,0:3:0:0:
456,176,42512,5,4,1:2:0:0:
456,176,42699,1,8,1:3:0:0:
392,288,42887,2,0,B|361:248|368:192,1,100,10|0,0:1|0:0,0:0:0:0:
367,193,43262,1,0,1:0:0:0:
256,92,43449,2,0,B|256:192,1,100,2|8,0:1|0:1,0:0:0:0:
256,192,43825,1,0,0:0:0:0:
120,288,44012,6,0,B|151:248|144:192,1,100,2|0,1:1|0:0,0:0:0:0:
145,193,44387,1,8,0:1:0:0:
256,92,44575,2,0,B|256:192,1,100,2|0,0:1|1:0,0:0:0:0:
296,304,44950,1,6,0:3:0:0:
296,304,45044,1,8,0:3:0:0:
296,304,45137,2,0,B|256:360|216:304,1,100,8|0,0:1|0:0,0:0:0:0:
56,176,45513,5,0,1:2:0:0:
56,176,45700,1,8,1:3:0:0:
120,288,45888,2,0,B|151:248|144:192,1,100,10|0,0:1|0:0,0:0:0:0:
144,193,46263,1,0,1:0:0:0:
256,92,46450,2,0,B|256:192,1,100,2|8,0:1|0:1,0:0:0:0:
256,192,46825,1,0,0:0:0:0:
392,288,47013,6,0,B|361:248|368:192,1,100,2|0,1:1|0:0,0:0:0:0:
256,92,47388,1,10,0:1:0:0:
145,193,47576,1,2,0:1:0:0:
256,292,47763,1,0,1:0:0:0:
367,193,47951,2,0,B|361:248|392:288,2,100,2|8|0,0:3|0:1|0:0,0:0:0:0:
481,0,48514,5,4,1:2:0:0:
382,23,48701,1,2,1:1:0:0:
285,45,48889,1,10,0:1:0:0:
382,23,49076,1,2,0:1:0:0:
452,100,49264,1,2,1:1:0:0:
354,123,49451,1,2,0:1:0:0:
256,146,49639,1,10,0:1:0:0:
354,123,49826,1,2,0:1:0:0:
382,23,50014,1,2,1:1:0:0:
376,328,50389,5,10,0:1:0:0:
376,328,50577,2,0,B|344:392|240:344|272:256|168:200|136:264,1,300,2|10,0:1|0:1,0:0:0:0:
31,0,51514,5,2,1:1:0:0:
130,23,51702,1,2,1:1:0:0:
227,45,51890,1,10,0:1:0:0:
60,100,52077,1,2,0:1:0:0:
158,123,52265,1,2,1:1:0:0:
256,146,52452,1,2,0:1:0:0:
130,23,52640,1,10,0:1:0:0:
481,0,53015,5,2,1:1:0:0:
382,23,53202,1,2,1:1:0:0:
285,45,53390,1,10,0:1:0:0:
452,100,53578,1,2,0:1:0:0:
354,123,53765,1,2,1:1:0:0:
256,146,53953,1,10,0:1:0:0:
256,146,54046,1,8,0:1:0:0:
256,146,54140,1,8,0:1:0:0:
32,384,54515,6,0,B|32:320|88:320|88:320|88:256|152:256,1,200,6|8,1:2|0:2,0:0:0:0:
208,344,55078,2,0,B|256:368|304:344|304:344,1,100,2|0,0:3|1:2,0:0:0:0:
150,256,55453,1,4,0:3:0:0:
208,168,55641,2,0,B|256:144|304:168|304:168,1,100,8|0,0:2|0:0,0:0:0:0:
480,384,56016,6,0,B|480:320|424:320|424:320|424:256|360:256,1,200,2|8,1:2|0:2,0:0:0:0:
304,344,56579,2,0,B|256:368|208:344|208:344,1,100,2|0,0:3|1:2,0:0:0:0:
362,256,56954,1,8,0:3:0:0:
304,168,57142,2,0,B|256:144|208:168|208:168,1,100,8|0,0:2|0:0,0:0:0:0:
32,256,57516,6,0,B|128:256|128:320|224:312,1,200,2|8,1:2|0:2,0:0:0:0:
384,284,58079,2,0,B|364:312|288:312,1,100,2|0,0:3|1:2,0:0:0:0:
152,376,58454,1,4,0:3:0:0:
256,232,58641,1,8,0:2:0:0:
360,376,58829,1,0,0:0:0:0:
128,284,59017,6,0,B|148:312|224:312,1,100,2|0,1:2|1:0,0:0:0:0:
360,376,59392,1,8,0:2:0:0:
480,256,59579,2,0,B|384:256|384:320|288:312,1,200,2|8,0:3|0:3,0:0:0:0:
292,312,60048,1,8,0:3:0:0:
292,312,60142,1,8,0:2:0:0:
210,16,60517,5,4,1:1:0:0:
256,128,60704,1,2,1:1:0:0:
93,0,60892,1,10,0:1:0:0:
183,222,61080,1,2,0:1:0:0:
20,94,61267,1,2,1:1:0:0:
210,16,61454,1,2,2:3:0:0:
65,207,61642,1,10,0:1:0:0:
256,128,61830,1,2,2:3:0:0:
93,0,62017,1,2,1:1:0:0:
120,320,62392,5,10,0:1:0:0:
120,320,62580,2,0,B|256:432|392:320,1,300,2|10,0:3|0:1,0:0:0:0:
302,16,63518,5,2,1:1:0:0:
447,207,63705,1,2,1:1:0:0:
419,0,63893,1,10,0:1:0:0:
329,222,64081,1,2,0:1:0:0:
492,94,64268,1,2,1:1:0:0:
256,128,64455,1,2,0:1:0:0:
492,94,64643,1,10,0:1:0:0:
210,16,65019,5,2,1:1:0:0:
65,207,65206,1,2,1:1:0:0:
93,0,65394,1,10,0:1:0:0:
183,222,65582,1,2,0:1:0:0:
20,94,65769,1,2,1:1:0:0:
256,128,65956,1,10,0:1:0:0:
256,128,66050,1,8,0:1:0:0:
256,128,66144,1,8,0:1:0:0:
447,223,66519,6,0,B|462:328|462:328,1,100,6|4,1:2|1:3,0:0:0:0:
467,358,66800,1,8,0:3:0:0:
467,358,66894,1,8,0:0:0:0:
360,224,67081,1,0,0:0:0:0:
376,320,67269,1,0,1:2:0:0:
424,144,67457,1,4,0:3:0:0:
424,144,67550,1,8,0:3:0:0:
424,144,67644,2,0,B|480:120|512:168|512:168,1,100,8|0,0:0|0:0,0:0:0:0:
360,224,68019,5,0,1:0:0:0:
360,224,68207,1,0,1:0:0:0:
256,192,68394,2,0,P|240:80|240:80,1,100,8|0,0:0|0:0,0:0:0:0:
193,257,68769,1,0,1:0:0:0:
164,59,68957,2,0,L|193:257,1,200,8|8,0:0|0:0,0:0:0:0:
65,223,69520,6,0,B|50:328|50:328,1,100,2|4,1:2|1:3,0:0:0:0:
45,358,69801,1,8,0:3:0:0:
45,358,69895,1,8,0:0:0:0:
152,224,70082,1,0,0:0:0:0:
136,320,70270,1,0,1:2:0:0:
88,144,70457,1,4,0:3:0:0:
88,144,70551,1,8,0:3:0:0:
88,144,70645,2,0,B|32:120|0:168|0:168,1,100,8|0,0:0|0:0,0:0:0:0:
152,224,71020,5,0,1:0:0:0:
152,224,71208,1,0,1:0:0:0:
256,192,71395,2,0,P|272:80|272:80,1,100,8|0,0:0|0:0,0:0:0:0:
320,256,71770,1,0,1:0:0:0:
348,59,71958,1,8,0:0:0:0:
348,59,72052,1,4,0:3:0:0:
348,59,72146,1,8,0:3:0:0:
