osu file format v14

[General]
AudioFilename: audio.mp3
AudioLeadIn: 0
PreviewTime: 405
Countdown: 0
SampleSet: Soft
StackLeniency: 0.7
Mode: 0
LetterboxInBreaks: 0
SkinPreference:Default
WidescreenStoryboard: 1

[Editor]
Bookmarks: 15124
DistanceSpacing: 0.8
BeatDivisor: 4
GridSize: 4
TimelineZoom: 2.5

[Metadata]
Title:Doctor Kokino
TitleUnicode:ドクター・コキノ
Artist:Yoko Shimomura
ArtistUnicode:下村陽子
Creator:Aranel
Version:Insane
Source:マリオ&ルイージRPG3!!!
Tags:Mario & and Luigi Bowser's Inside Story RPG 3 Nintendo DS Video Game Electronic Instrumental Dr.Toadley Dr Toadley bloxi vgm
BeatmapID:3408471
BeatmapSetID:1669033

[Difficulty]
HPDrainRate:5
CircleSize:4.2
OverallDifficulty:7
ApproachRate:8
SliderMultiplier:1.8
SliderTickRate:1

[Events]
//Background and Video events
0,0,"bg.jpg",0,0
//Break Periods
//Storyboard Layer 0 (Background)
//Storyboard Layer 1 (Fail)
//Storyboard Layer 2 (Pass)
//Storyboard Layer 3 (Foreground)
//Storyboard Layer 4 (Overlay)
//Storyboard Sound Samples

[TimingPoints]
499,375.117224132541,4,2,1,40,1,0
6500,-100,4,2,1,50,0,0
24506,-100,4,2,1,60,0,0
25538,-100,4,2,1,60,0,0
25631,-100,4,2,1,60,0,0
27038,-100,4,2,1,60,0,0
27131,-100,4,2,1,60,0,0
28539,-100,4,2,1,60,0,0
28632,-100,4,2,1,60,0,0
30508,-100,4,2,1,70,0,1
36510,-100,4,2,1,50,0,0
38948,-80,4,2,1,50,0,0
39511,-100,4,2,1,50,0,0
54515,-100,4,2,1,60,0,0
55548,-100,4,2,1,60,0,0
55641,-100,4,2,1,60,0,0
57048,-100,4,2,1,60,0,0
57141,-100,4,2,1,60,0,0
58548,-100,4,2,1,60,0,0
58641,-100,4,2,1,60,0,0
60517,-100,4,2,1,70,0,1
66519,-100,4,2,1,50,0,0

[Colours]
Combo1 : 164,231,154
Combo2 : 97,169,228
Combo3 : 249,113,113
Combo4 : 249,208,132
SliderBorder : 255,255,255

[HitObjects]
420,44,499,5,2,0:0:0:0:
453,117,686,1,2,0:0:0:0:
380,150,874,1,2,0:0:0:0:
347,77,1061,1,2,0:0:0:0:
420,44,1249,1,2,0:0:0:0:
380,150,1624,1,2,0:0:0:0:
347,77,1999,1,2,0:0:0:0:
453,117,2374,1,2,0:0:0:0:
453,117,2561,1,2,0:0:0:0:
380,150,2749,1,2,0:0:0:0:
256,0,3124,1,2,0:0:0:0:
91,44,3499,5,2,0:0:0:0:
58,117,3686,1,2,0:0:0:0:
131,150,3874,1,2,0:0:0:0:
164,77,4061,1,2,0:0:0:0:
91,44,4249,1,2,0:0:0:0:
131,150,4624,1,2,0:0:0:0:
164,77,4999,1,2,0:0:0:0:
164,77,5187,1,2,0:0:0:0:
58,117,5374,1,2,0:0:0:0:
58,117,5563,1,2,0:0:0:0:
131,150,5749,1,2,0:0:0:0:
256,0,6125,1,2,0:0:0:0:
256,0,6500,6,0,L|256:112,1,90,6|4,1:2|1:3,0:0:0:0:
212,192,6875,2,0,L|302:192,1,90,8|0,0:0|0:0,0:0:0:0:
403,236,7251,2,0,L|403:146,1,90,0|4,1:2|0:3,0:0:0:0:
447,45,7626,1,8,0:0:0:0:
447,45,7814,1,0,0:0:0:0:
346,0,8002,6,0,L|346:96,1,90,0|0,1:0|1:0,0:0:0:0:
300,192,8376,2,0,P|256:184|210:192,1,90,8|0,0:0|0:0,0:0:0:0:
166,90,8751,1,0,1:0:0:0:
166,90,8939,2,0,B|256:108|352:88,1,180,8|8,0:0|0:0,0:0:0:0:
256,0,9501,6,0,L|256:112,1,90,2|4,1:2|1:3,0:0:0:0:
300,192,9876,2,0,L|210:192,1,90,8|0,0:0|0:0,0:0:0:0:
109,236,10252,2,0,L|109:146,1,90,0|4,1:2|0:3,0:0:0:0:
65,45,10627,1,8,0:0:0:0:
65,45,10815,1,0,0:0:0:0:
166,0,11003,6,0,L|166:96,1,90,0|0,1:0|1:0,0:0:0:0:
212,192,11377,2,0,P|256:184|302:192,1,90,8|0,0:0|0:0,0:0:0:0:
346,90,11752,1,0,1:0:0:0:
166,90,11940,1,8,0:0:0:0:
166,90,12033,1,4,0:3:0:0:
166,90,12127,1,8,0:3:0:0:
440,384,12502,6,0,L|336:384,1,90,4|8,1:2|1:3,0:0:0:0:
296,280,12877,2,0,L|476:280,1,180,10|0,0:1|1:0,0:0:0:0:
384,192,13440,1,2,0:1:0:0:
296,280,13628,1,8,0:1:0:0:
476,104,14003,2,0,L|296:104,1,180,2|8,1:1|0:1,0:0:0:0:
384,192,14565,1,2,0:1:0:0:
476,104,14753,1,0,1:0:0:0:
384,16,14941,1,2,0:3:0:0:
384,16,15128,1,8,0:1:0:0:
72,384,15503,6,0,L|176:384,1,90,0|8,1:2|1:3,0:0:0:0:
216,280,15878,2,0,L|36:280,1,180,10|0,0:1|1:0,0:0:0:0:
128,192,16441,1,2,0:1:0:0:
216,280,16629,1,8,0:1:0:0:
36,104,17004,1,2,1:1:0:0:
224,96,17379,1,10,0:1:0:0:
128,192,17566,1,2,0:1:0:0:
40,104,17754,1,0,1:0:0:0:
128,16,17942,1,2,0:3:0:0:
128,16,18129,1,8,0:1:0:0:
256,304,18504,5,4,1:2:0:0:
335,271,18692,1,2,1:1:0:0:
368,192,18879,1,10,0:1:0:0:
335,112,19067,1,2,0:1:0:0:
256,80,19254,1,2,1:1:0:0:
176,112,19442,1,2,0:1:0:0:
144,192,19629,1,10,0:1:0:0:
176,271,19817,1,2,0:1:0:0:
256,304,20005,1,2,1:1:0:0:
384,32,20380,1,10,0:1:0:0:
384,32,20567,2,0,B|256:-56|128:32|128:32,1,270,2|10,0:1|0:1,0:0:0:0:
256,304,21505,5,2,1:1:0:0:
336,271,21693,1,2,1:1:0:0:
368,192,21880,1,10,0:1:0:0:
256,304,22068,1,2,0:1:0:0:
176,272,22256,1,2,1:1:0:0:
144,192,22443,1,2,0:1:0:0:
256,192,22630,1,10,0:1:0:0:
256,80,23006,5,2,1:1:0:0:
177,113,23194,1,2,1:1:0:0:
144,192,23381,1,10,0:1:0:0:
256,80,23569,1,2,0:1:0:0:
335,112,23757,1,2,1:1:0:0:
368,192,23944,1,10,0:1:0:0:
368,192,24037,1,8,0:1:0:0:
368,192,24131,1,8,0:1:0:0:
72,360,24506,6,0,B|72:304|120:304|120:304|120:264|195:264,1,180,6|8,1:2|0:2,0:0:0:0:
316,264,25069,2,0,B|392:264|392:304|392:304|440:304|440:360,1,180,2|4,0:3|0:3,0:0:0:0:
439,359,25538,1,8,0:3:0:0:
439,359,25631,1,8,0:2:0:0:
381,151,26006,6,0,B|381:55|256:56,1,180,2|8,1:2|0:2,0:0:0:0:
130,151,26569,2,0,B|130:55|256:56,1,180,2|8,0:3|0:3,0:0:0:0:
255,56,27038,1,4,0:3:0:0:
255,56,27131,1,8,0:2:0:0:
440,360,27507,6,0,B|440:304|392:304|392:304|392:264|316:265,1,180,2|8,1:2|0:2,0:0:0:0:
195,265,28070,2,0,B|120:264|120:304|120:304|72:304|72:360,1,180,2|4,0:3|0:3,0:0:0:0:
72,360,28539,1,8,0:3:0:0:
71,361,28632,1,8,0:2:0:0:
130,151,29007,5,2,1:2:0:0:
382,151,29383,1,8,0:2:0:0:
382,151,29570,2,0,B|496:151|497:311,1,180,2|8,0:3|0:3,0:0:0:0:
441,360,30132,1,8,0:2:0:0:
256,73,30508,5,4,1:1:0:0:
171,108,30696,1,2,1:1:0:0:
135,193,30883,1,10,0:1:0:0:
171,276,31071,1,2,0:1:0:0:
256,311,31258,1,2,1:1:0:0:
341,276,31446,1,2,2:3:0:0:
377,193,31633,1,10,0:1:0:0:
341,108,31821,1,2,2:3:0:0:
256,73,32009,1,2,1:1:0:0:
128,344,32383,1,10,0:1:0:0:
128,344,32571,2,0,B|256:388|256:388|384:344|384:344,1,270,2|10,0:3|0:1,0:0:0:0:
256,72,33509,5,2,1:1:0:0:
171,108,33697,1,2,1:1:0:0:
136,192,33884,1,10,0:1:0:0:
256,72,34071,1,2,0:1:0:0:
341,108,34259,1,2,1:1:0:0:
376,192,34446,1,2,0:1:0:0:
256,192,34634,1,10,0:1:0:0:
256,312,35009,5,2,1:1:0:0:
171,276,35197,1,2,1:1:0:0:
136,192,35384,1,10,0:1:0:0:
256,312,35571,1,2,0:1:0:0:
341,276,35759,1,2,1:1:0:0:
376,192,35946,1,10,0:1:0:0:
376,192,36041,1,8,0:1:0:0:
376,192,36134,1,8,0:1:0:0:
40,32,36510,6,0,B|16:80|40:128|40:128,1,90,6|4,1:2|1:3,0:0:0:0:
144,120,36885,2,0,B|168:72|144:24|144:24,1,90,8|0,0:0|0:0,0:0:0:0:
40,32,37260,2,0,B|16:80|40:128|40:128,1,90,0|4,1:2|0:3,0:0:0:0:
96,216,37636,1,8,0:0:0:0:
96,216,37824,1,0,0:0:0:0:
200,216,38010,2,0,L|200:306,1,90,0|0,1:0|1:0,0:0:0:0:
312,306,38385,2,0,L|312:216,1,90,8|0,0:0|0:0,0:0:0:0:
200,216,38760,1,0,1:0:0:0:
143,120,38948,2,0,L|368:120,1,225,8|8,0:0|0:0,0:0:0:0:
472,32,39511,6,0,B|496:80|472:128|472:128,1,90,2|4,1:2|1:3,0:0:0:0:
368,120,39886,2,0,B|344:72|368:24|368:24,1,90,8|0,0:0|0:0,0:0:0:0:
472,32,40261,2,0,B|496:80|472:128|472:128,1,90,0|4,1:2|0:3,0:0:0:0:
416,216,40637,1,8,0:0:0:0:
416,216,40825,1,0,0:0:0:0:
312,216,41011,2,0,L|312:306,1,90,0|0,1:0|1:0,0:0:0:0:
200,306,41386,2,0,L|200:216,1,90,8|0,0:0|0:0,0:0:0:0:
346,111,41761,1,0,1:0:0:0:
166,111,41950,1,8,0:0:0:0:
166,111,42043,1,4,0:3:0:0:
166,111,42137,1,8,0:3:0:0:
166,111,42512,6,0,L|54:111,1,90,4|8,1:2|1:3,0:0:0:0:
0,192,42887,2,0,B|0:288|96:352|96:352,1,180,10|0,0:1|1:0,0:0:0:0:
192,384,43450,1,2,0:1:0:0:
256,288,43638,1,8,0:1:0:0:
512,192,44012,2,0,B|512:288|416:352|416:352,1,180,2|8,1:1|0:1,0:0:0:0:
320,384,44575,1,2,0:1:0:0:
256,288,44763,1,0,1:0:0:0:
192,384,44951,1,2,0:3:0:0:
192,384,45138,1,8,0:1:0:0:
346,111,45513,6,0,L|458:111,1,90,0|8,1:2|1:3,0:0:0:0:
512,192,45888,2,0,B|512:288|416:352|416:352,1,180,10|0,0:1|1:0,0:0:0:0:
320,384,46451,1,2,0:1:0:0:
256,288,46639,1,8,0:1:0:0:
0,192,47013,2,0,B|0:288|96:352|96:352,1,180,2|10,1:1|0:1,0:0:0:0:
192,384,47576,1,2,0:1:0:0:
256,288,47764,1,0,1:0:0:0:
320,384,47952,1,2,0:3:0:0:
320,384,48139,1,8,0:1:0:0:
256,80,48514,5,4,1:2:0:0:
335,113,48702,1,2,1:1:0:0:
144,192,48889,1,10,0:1:0:0:
177,112,49077,1,2,0:1:0:0:
256,304,49264,1,2,1:1:0:0:
176,272,49452,1,2,0:1:0:0:
368,192,49639,1,10,0:1:0:0:
335,272,49827,1,2,0:1:0:0:
256,192,50015,1,2,1:1:0:0:
120,368,50390,1,10,0:1:0:0:
120,368,50577,2,0,B|390:368,1,270,2|10,0:1|0:1,0:0:0:0:
256,80,51514,5,2,1:1:0:0:
335,113,51702,1,2,1:1:0:0:
368,192,51889,1,10,0:1:0:0:
256,304,52077,1,2,0:1:0:0:
177,271,52264,1,2,1:1:0:0:
144,192,52452,1,2,0:1:0:0:
256,192,52640,1,10,0:1:0:0:
256,304,53015,5,2,1:1:0:0:
335,271,53203,1,2,1:1:0:0:
368,192,53390,1,10,0:1:0:0:
256,80,53578,1,2,0:1:0:0:
177,113,53765,1,2,1:1:0:0:
144,192,53953,1,10,0:1:0:0:
144,192,54046,1,8,0:1:0:0:
144,192,54140,1,8,0:1:0:0:
480,104,54516,6,0,B|512:192|480:280,1,180,6|8,1:2|0:2,0:0:0:0:
368,280,55078,2,0,B|336:192|368:104,1,180,2|4,0:3|0:3,0:0:0:0:
368,103,55548,1,8,0:3:0:0:
368,103,55641,1,8,0:2:0:0:
378,367,56016,6,0,B|270:355|324:288|256:252,1,180,2|8,1:2|0:2,0:0:0:0:
133,367,56579,2,0,B|242:355|188:288|256:252,1,180,2|8,0:3|0:3,0:0:0:0:
255,252,57048,1,4,0:3:0:0:
255,252,57141,1,8,0:2:0:0:
32,104,57516,6,0,B|0:192|32:280,1,180,2|8,1:2|0:2,0:0:0:0:
144,280,58078,2,0,B|176:192|144:104,1,180,2|4,0:3|0:3,0:0:0:0:
144,103,58548,1,8,0:3:0:0:
144,103,58641,1,8,0:2:0:0:
32,280,59017,5,2,1:2:0:0:
256,192,59392,1,8,0:2:0:0:
256,192,59579,2,0,B|269:318|398:319|398:319,1,180,2|8,0:3|0:3,0:0:0:0:
480,280,60141,1,8,0:2:0:0:
256,58,60517,5,4,1:1:0:0:
350,97,60705,1,2,1:1:0:0:
122,191,60892,1,10,0:1:0:0:
161,96,61080,1,2,0:1:0:0:
256,325,61267,1,2,1:1:0:0:
160,287,61455,1,2,2:3:0:0:
389,191,61642,1,10,0:1:0:0:
350,287,61830,1,2,2:3:0:0:
256,191,62018,1,2,1:1:0:0:
120,384,62393,1,10,0:1:0:0:
120,384,62580,2,0,B|390:384,1,270,2|10,0:3|0:1,0:0:0:0:
256,56,63518,5,2,1:1:0:0:
159,95,63706,1,2,1:1:0:0:
120,192,63893,1,10,0:1:0:0:
256,328,64081,1,2,0:1:0:0:
352,288,64269,1,2,1:1:0:0:
392,192,64456,1,2,0:1:0:0:
256,192,64643,1,10,0:1:0:0:
256,328,65019,5,2,1:1:0:0:
159,288,65207,1,2,1:1:0:0:
120,192,65394,1,10,0:1:0:0:
256,56,65582,1,2,0:1:0:0:
352,95,65770,1,2,1:1:0:0:
392,192,65957,1,10,0:1:0:0:
392,192,66050,1,8,0:1:0:0:
392,192,66144,1,8,0:1:0:0:
80,368,66519,6,0,B|56:320|80:280|80:280,1,90,6|4,1:2|1:3,0:0:0:0:
32,192,66894,2,0,B|80:168|120:192|120:192,1,90,8|0,0:0|0:0,0:0:0:0:
208,144,67269,2,0,B|232:192|208:232|208:232,1,90,0|4,1:2|0:3,0:0:0:0:
256,320,67645,1,8,0:0:0:0:
256,320,67833,1,0,0:0:0:0:
303,230,68020,2,0,B|304:232|280:192|304:144,1,90,0|0,1:0|1:0,0:0:0:0:
342,320,68395,2,0,B|343:319|303:343|255:319,1,90,8|0,0:0|0:0,0:0:0:0:
433,281,68770,1,0,1:0:0:0:
304,232,68957,1,8,0:0:0:0:
304,232,69333,1,8,0:0:0:0:
432,368,69520,6,0,B|456:320|432:280|432:280,1,90,2|4,1:2|1:3,0:0:0:0:
480,192,69895,2,0,B|432:168|392:192|392:192,1,90,8|0,0:0|0:0,0:0:0:0:
304,144,70270,2,0,B|280:192|304:232|304:232,1,90,0|4,1:2|0:3,0:0:0:0:
256,320,70646,1,8,0:0:0:0:
256,320,70834,1,0,0:0:0:0:
208,230,71021,2,0,B|208:232|232:192|208:144,1,90,0|0,1:0|1:0,0:0:0:0:
170,320,71396,2,0,B|168:319|208:343|256:319,1,90,8|0,0:0|0:0,0:0:0:0:
79,281,71771,1,0,1:0:0:0:
208,232,71958,1,8,0:0:0:0:
208,232,72052,1,4,0:3:0:0:
208,232,72146,1,8,0:3:0:0:
