osu file format v14

[General]
AudioFilename: audio.mp3
AudioLeadIn: 0
PreviewTime: 405
Countdown: 0
SampleSet: Soft
StackLeniency: 0.7
Mode: 0
LetterboxInBreaks: 0
SkinPreference:Default
WidescreenStoryboard: 1

[Editor]
Bookmarks: 15124
DistanceSpacing: 0.8
BeatDivisor: 4
GridSize: 16
TimelineZoom: 2.5

[Metadata]
Title:Doctor Kokino
TitleUnicode:ドクター・コキノ
Artist:Yoko Shimomura
ArtistUnicode:下村陽子
Creator:Aranel
Version:Hard
Source:マリオ&ルイージRPG3!!!
Tags:Mario & and Luigi Bowser's Inside Story RPG 3 Nintendo DS Video Game Electronic Instrumental Dr.Toadley Dr Toadley bloxi vgm
BeatmapID:3408469
BeatmapSetID:1669033

[Difficulty]
HPDrainRate:3.5
CircleSize:3.8
OverallDifficulty:6.5
ApproachRate:7
SliderMultiplier:1.6
SliderTickRate:1

[Events]
//Background and Video events
0,0,"bg.jpg",0,0
//Break Periods
//Storyboard Layer 0 (Background)
//Storyboard Layer 1 (Fail)
//Storyboard Layer 2 (Pass)
//Storyboard Layer 3 (Foreground)
//Storyboard Layer 4 (Overlay)
//Storyboard Sound Samples

[TimingPoints]
499,375.117224132541,4,2,1,40,1,0
6500,-100,4,2,1,50,0,0
13815,-100,4,2,1,50,0,0
14003,-100,4,2,1,50,0,0
16816,-100,4,2,1,50,0,0
17004,-100,4,2,1,50,0,0
24506,-100,4,2,1,60,0,0
30508,-100,4,2,1,70,0,1
36510,-100,4,2,1,50,0,0
43824,-100,4,2,1,50,0,0
44013,-100,4,2,1,50,0,0
46825,-100,4,2,1,50,0,0
47013,-100,4,2,1,50,0,0
54515,-100,4,2,1,60,0,0
60517,-100,4,2,1,70,0,1
66519,-100,4,2,1,50,0,0

[Colours]
Combo1 : 164,231,154
Combo2 : 97,169,228
Combo3 : 249,113,113
Combo4 : 249,208,132
SliderBorder : 255,255,255

[HitObjects]
256,0,6500,6,0,L|256:192,1,160,6|8,1:2|0:0,0:0:0:0:
256,240,7063,1,0,0:0:0:0:
336,240,7251,2,0,L|336:48,1,160,0|8,1:2|0:0,0:0:0:0:
336,0,7813,1,0,0:0:0:0:
416,0,8001,2,0,L|416:192,1,160,0|8,1:0|0:0,0:0:0:0:
416,240,8564,1,0,0:0:0:0:
336,240,8751,1,0,1:0:0:0:
336,160,8939,1,8,0:0:0:0:
336,0,9314,1,8,0:0:0:0:
256,0,9501,6,0,L|256:192,1,160,2|8,1:2|0:0,0:0:0:0:
256,240,10064,1,0,0:0:0:0:
176,240,10252,2,0,L|176:48,1,160,0|8,1:2|0:0,0:0:0:0:
176,0,10814,1,0,0:0:0:0:
96,0,11002,2,0,L|96:192,1,160,0|8,1:0|0:0,0:0:0:0:
96,240,11565,1,0,0:0:0:0:
176,240,11752,1,0,1:0:0:0:
176,160,11940,1,8,0:0:0:0:
176,160,12033,1,4,0:3:0:0:
176,160,12127,1,8,0:3:0:0:
488,192,12502,5,4,1:2:0:0:
512,264,12690,1,8,1:3:0:0:
480,336,12877,2,0,B|384:280|384:216|384:216,1,160,10|0,0:1|1:0,0:0:0:0:
368,136,13440,2,0,B|272:192|272:256|272:256,1,160,2|0,0:1|0:0,0:0:0:0:
256,336,14003,2,0,B|328:392|416:368|416:368,1,160,2|8,1:1|0:1,0:0:0:0:
480,336,14565,2,0,B|480:272|384:216,1,160,2|2,0:1|0:3,0:0:0:0:
24,192,15503,5,0,1:2:0:0:
0,264,15691,1,8,1:3:0:0:
32,336,15878,2,0,B|128:280|128:216|128:216,1,160,10|0,0:1|1:0,0:0:0:0:
144,136,16441,2,0,B|240:192|240:256|240:256,1,160,2|0,0:1|0:0,0:0:0:0:
256,336,17004,1,2,1:1:0:0:
104,369,17379,1,10,0:1:0:0:
32,336,17566,2,0,B|32:272|128:216,1,160,2|2,0:1|0:3,0:0:0:0:
296,32,18504,6,0,L|392:32,1,80,4|2,1:2|1:1,0:0:0:0:
376,112,18879,2,0,L|296:112,1,80,10|2,0:1|0:1,0:0:0:0:
216,112,19254,2,0,L|136:112,1,80,2|2,1:1|0:1,0:0:0:0:
136,32,19629,2,0,L|216:32,1,80,10|2,0:1|0:1,0:0:0:0:
296,32,20005,1,2,1:1:0:0:
352,192,20380,1,10,0:1:0:0:
352,192,20567,2,0,B|256:320|160:192,1,240,2|10,0:1|0:1,0:0:0:0:
216,32,21505,6,0,L|120:32,2,80,2|2|10,1:1|1:1|0:1,0:0:0:0:
216,112,22068,2,0,L|120:112,2,80,2|2|2,0:1|1:1|0:1,0:0:0:0:
216,192,22630,1,10,0:1:0:0:
296,32,23006,6,0,L|392:32,2,80,2|2|10,1:1|1:1|0:1,0:0:0:0:
296,112,23569,2,0,L|392:112,1,80,2|2,0:1|1:1,0:0:0:0:
296,192,23943,1,10,0:1:0:0:
296,192,24037,1,8,0:1:0:0:
296,192,24131,1,8,0:1:0:0:
488,368,24506,6,0,B|368:368|368:320|254:320,1,240,6|2,1:2|0:3,0:0:0:0:
120,240,25444,1,4,0:3:0:0:
120,240,25631,1,8,0:2:0:0:
24,368,26006,2,0,B|144:368|144:320|257:320,1,240,2|2,1:2|0:3,0:0:0:0:
392,240,26944,1,8,0:3:0:0:
392,240,27131,1,8,0:2:0:0:
360,80,27507,6,0,B|256:-32|152:80,1,240,2|2,1:2|0:3,0:0:0:0:
120,240,28445,1,4,0:3:0:0:
120,240,28632,1,8,0:2:0:0:
256,328,29007,1,2,1:2:0:0:
392,240,29383,1,8,0:2:0:0:
336,184,29570,2,0,L|176:184,1,160,2|8,0:3|0:3,0:0:0:0:
120,240,30133,1,8,0:2:0:0:
392,240,30508,6,0,L|488:240,1,80,4|2,1:1|1:1,0:0:0:0:
472,144,30883,2,0,L|392:144,1,80,10|2,0:1|0:1,0:0:0:0:
296,144,31258,2,0,L|200:144,1,80,2|2,1:1|2:3,0:0:0:0:
216,240,31633,2,0,L|296:240,1,80,10|2,0:1|2:3,0:0:0:0:
392,240,32009,1,2,1:1:0:0:
376,56,32383,1,10,0:1:0:0:
376,56,32571,2,0,B|136:56,1,240,2|10,0:3|0:1,0:0:0:0:
120,240,33509,6,0,L|24:240,2,80,2|2|10,1:1|1:1|0:1,0:0:0:0:
120,144,34071,2,0,L|24:144,2,80,2|2|2,0:1|1:1|0:1,0:0:0:0:
216,144,34634,1,10,0:1:0:0:
392,240,35009,6,0,L|488:240,2,80,2|2|10,1:1|1:1|0:1,0:0:0:0:
392,144,35572,2,0,L|488:144,1,80,2|2,0:1|1:1,0:0:0:0:
296,144,35947,1,10,0:1:0:0:
296,144,36041,1,8,0:1:0:0:
296,144,36135,1,8,0:1:0:0:
176,384,36510,6,0,L|176:192,1,160,6|8,1:2|0:0,0:0:0:0:
176,144,37073,1,0,0:0:0:0:
96,144,37261,2,0,L|96:336,1,160,0|8,1:2|0:0,0:0:0:0:
96,384,37823,1,0,0:0:0:0:
16,384,38011,2,0,L|16:192,1,160,0|8,1:0|0:0,0:0:0:0:
96,224,38574,1,0,0:0:0:0:
176,224,38761,1,0,1:0:0:0:
256,224,38949,1,8,0:0:0:0:
256,384,39323,1,8,0:0:0:0:
336,384,39511,6,0,L|336:192,1,160,2|8,1:2|0:0,0:0:0:0:
336,144,40074,1,0,0:0:0:0:
416,144,40262,2,0,L|416:336,1,160,0|8,1:2|0:0,0:0:0:0:
416,384,40824,1,0,0:0:0:0:
496,384,41012,2,0,L|496:192,1,160,0|8,1:0|0:0,0:0:0:0:
416,224,41575,1,0,0:0:0:0:
336,224,41762,1,0,1:0:0:0:
256,224,41950,1,8,0:0:0:0:
256,224,42043,1,4,0:3:0:0:
256,224,42137,1,8,0:3:0:0:
32,72,42512,5,4,1:2:0:0:
48,144,42700,1,8,1:3:0:0:
120,160,42887,2,0,B|192:128|216:40,1,160,10|0,0:1|1:0,0:0:0:0:
296,40,43449,2,0,B|320:128|392:160,1,160,2|0,0:1|0:0,0:0:0:0:
336,216,44013,2,0,B|256:192|176:216|176:216,1,160,2|8,1:1|0:1,0:0:0:0:
176,296,44575,2,0,B|256:320|336:296|336:296,1,160,2|2,0:1|0:3,0:0:0:0:
480,72,45513,5,0,1:2:0:0:
464,144,45701,1,8,1:3:0:0:
392,160,45888,2,0,B|320:128|296:40,1,160,10|0,0:1|1:0,0:0:0:0:
216,40,46450,2,0,B|192:128|120:160,1,160,2|0,0:1|0:0,0:0:0:0:
177,215,47013,1,2,1:1:0:0:
335,215,47388,1,10,0:1:0:0:
336,296,47576,2,0,B|256:320|176:296|176:296,1,160,2|2,0:1|0:3,0:0:0:0:
376,32,48514,6,0,L|296:32,1,80,4|2,1:2|1:1,0:0:0:0:
216,32,48889,2,0,L|136:32,1,80,10|2,0:1|0:1,0:0:0:0:
136,112,49264,2,0,L|216:112,1,80,2|2,1:1|0:1,0:0:0:0:
296,112,49639,2,0,L|376:112,1,80,10|2,0:1|0:1,0:0:0:0:
376,32,50015,1,2,1:1:0:0:
376,192,50390,1,10,0:1:0:0:
376,192,50577,2,0,B|136:192,1,240,2|10,0:1|0:1,0:0:0:0:
136,32,51515,6,0,L|216:32,2,80,2|2|10,1:1|1:1|0:1,0:0:0:0:
136,112,52078,2,0,L|216:112,2,80,2|2|2,0:1|1:1|0:1,0:0:0:0:
136,192,52640,1,10,0:1:0:0:
376,32,53015,6,0,L|296:32,2,80,2|2|10,1:1|1:1|0:1,0:0:0:0:
376,112,53578,2,0,L|296:112,1,80,2|2,0:1|1:1,0:0:0:0:
376,192,53953,1,10,0:1:0:0:
376,192,54046,1,8,0:1:0:0:
376,192,54140,1,8,0:1:0:0:
480,336,54516,6,0,B|400:336|400:336|336:288|336:288|256:288,1,240,6|2,1:2|0:3,0:0:0:0:
128,192,55454,1,4,0:3:0:0:
128,192,55641,1,8,0:2:0:0:
32,336,56016,2,0,B|112:336|112:336|176:288|176:288|256:288,1,240,2|2,1:2|0:3,0:0:0:0:
384,192,56954,1,8,0:3:0:0:
384,192,57141,1,8,0:2:0:0:
368,32,57517,6,0,B|256:-48|144:32,1,240,2|2,1:2|0:3,0:0:0:0:
128,192,58455,1,4,0:3:0:0:
128,192,58642,1,8,0:2:0:0:
256,96,59017,1,2,1:2:0:0:
384,192,59392,1,8,0:2:0:0:
336,256,59580,2,0,L|176:256,1,160,2|8,0:3|0:3,0:0:0:0:
128,192,60143,1,8,0:2:0:0:
384,192,60517,6,0,B|424:224|416:272|416:272,1,80,4|2,1:1|1:1,0:0:0:0:
376,352,60892,2,0,B|344:392|296:384|296:384,1,80,10|2,0:1|0:1,0:0:0:0:
207,384,61267,2,0,B|216:384|168:392|136:352,1,80,2|2,1:1|2:3,0:0:0:0:
96,262,61643,2,0,B|96:272|88:224|128:192,1,80,10|2,0:1|2:3,0:0:0:0:
160,104,62018,1,2,1:1:0:0:
352,104,62392,1,10,0:1:0:0:
376,8,62580,2,0,L|136:8,1,240,2|10,0:3|0:1,0:0:0:0:
128,192,63518,6,0,B|88:224|96:272|96:272,2,80,2|2|10,1:1|1:1|0:1,0:0:0:0:
136,352,64081,2,0,B|168:392|216:384|216:384,2,80,2|2|2,0:1|1:1|0:1,0:0:0:0:
296,336,64644,1,10,0:1:0:0:
384,192,65019,6,0,B|424:224|416:272|416:272,2,80,2|2|10,1:1|1:1|0:1,0:0:0:0:
376,352,65582,2,0,B|344:392|296:384|296:384,1,80,2|2,0:1|1:1,0:0:0:0:
216,336,65956,1,10,0:1:0:0:
216,336,66050,1,8,0:1:0:0:
216,336,66145,1,8,0:1:0:0:
16,192,66520,6,0,L|192:192,1,160,6|8,1:2|0:0,0:0:0:0:
256,192,67083,1,0,0:0:0:0:
256,112,67269,2,0,L|424:112,1,160,0|8,1:2|0:0,0:0:0:0:
496,112,67832,1,0,0:0:0:0:
496,32,68020,2,0,L|328:32,1,160,0|8,1:0|0:0,0:0:0:0:
256,32,68582,1,0,0:0:0:0:
256,112,68770,1,0,1:0:0:0:
336,112,68957,1,8,0:0:0:0:
496,112,69333,1,8,0:0:0:0:
496,192,69520,6,0,L|320:192,1,160,2|8,1:2|0:0,0:0:0:0:
256,192,70083,1,0,0:0:0:0:
256,112,70269,2,0,L|88:112,1,160,0|8,1:2|0:0,0:0:0:0:
16,112,70832,1,0,0:0:0:0:
16,32,71020,2,0,L|184:32,1,160,0|8,1:0|0:0,0:0:0:0:
256,32,71582,1,0,0:0:0:0:
256,112,71770,1,0,1:0:0:0:
176,112,71958,1,8,0:0:0:0:
176,112,72052,1,4,0:3:0:0:
176,112,72146,1,8,0:3:0:0:
