osu file format v14

[General]
AudioFilename: audio.mp3
AudioLeadIn: 0
PreviewTime: -1
Countdown: 1
SampleSet: None
StackLeniency: 0.7
Mode: 0
LetterboxInBreaks: 0
WidescreenStoryboard: 0

[Editor]
DistanceSpacing: 0.9
BeatDivisor: 4
GridSize: 4
TimelineZoom: 1

[Metadata]
Title:Dearly Beloved
TitleUnicode:Dearly Beloved
Artist:Yoko Shimomura
ArtistUnicode:Yoko Shimomura
Creator:Karym
Version:Memories
Source:
Tags:
BeatmapID:1579271
BeatmapSetID:749807

[Difficulty]
HPDrainRate:3
CircleSize:4.2
OverallDifficulty:8
ApproachRate:8
SliderMultiplier:1.4
SliderTickRate:1

[Events]
//Background and Video events
//Break Periods
//Storyboard Layer 0 (Background)
//Storyboard Layer 1 (Fail)
//Storyboard Layer 2 (Pass)
//Storyboard Layer 3 (Foreground)
//Storyboard Sound Samples

[TimingPoints]
510,454.545454545455,4,2,2,20,1,0
10530,-100,4,2,2,16,0,0
10870,-100,4,2,2,20,0,0
14393,-100,4,2,2,10,0,0
14848,-100,4,2,2,20,0,0
16419,-100,4,2,2,16,0,0
17100,-100,4,2,2,20,0,0
21191,-100,4,2,2,15,0,0
21873,-100,4,2,2,20,0,0
25075,-100,4,2,2,16,0,0
25416,-100,4,2,2,20,0,0
28010,-100,4,2,2,15,0,0
28691,-100,4,2,2,20,0,0
38237,-100,4,2,2,14,0,0
38919,-100,4,2,2,20,0,0
39620,-100,4,2,2,16,0,0
39961,-100,4,2,2,20,0,0
42100,-100,4,2,2,16,0,0
42555,-100,4,2,2,20,0,0
54166,-100,4,2,2,16,0,0
54507,-100,4,2,2,20,0,0
62100,-100,4,2,2,10,0,0
65529,-100,4,2,2,0,0,0

[HitObjects]
216,176,510,5,0,0:0:0:0:
304,264,964,2,0,P|415:158|232:88,1,420
152,180,2782,1,0,0:0:0:0:
300,78,3237,1,0,0:0:0:0:
307,264,3691,1,0,0:0:0:0:
148,128,4146,5,0,0:0:0:0:
359,61,4600,2,0,P|410:204|364:206,1,280
254,262,5964,1,0,0:0:0:0:
137,85,6419,1,0,0:0:0:0:
228,253,6873,2,0,P|320:252|320:248,1,140
39,38,7782,5,0,0:0:0:0:
38,335,8237,1,0,0:0:0:0:
472,339,8691,1,0,0:0:0:0:
471,39,9146,1,0,0:0:0:0:
118,92,9600,1,0,0:0:0:0:
393,263,10055,1,0,0:0:0:0:
204,176,10510,2,0,L|264:176,3,35
252,181,11419,5,0,0:0:0:0:
444,51,11873,1,0,0:0:0:0:
83,277,12328,1,0,0:0:0:0:
84,54,12782,1,0,0:0:0:0:
247,163,13237,1,0,0:0:0:0:
352,55,13691,2,0,P|441:175|440:176,1,210
443,172,14373,6,0,L|290:231,1,140
143,172,15055,1,0,0:0:0:0:
275,288,15510,1,0,0:0:0:0:
372,72,15964,1,0,0:0:0:0:
94,64,16419,1,0,0:0:0:0:
255,239,16646,1,0,0:0:0:0:
376,124,16873,1,0,0:0:0:0:
241,60,17100,5,0,0:0:0:0:
100,238,17328,1,0,0:0:0:0:
425,300,17555,1,0,0:0:0:0:
421,45,17782,1,0,0:0:0:0:
247,185,18237,1,0,0:0:0:0:
166,186,18464,1,0,0:0:0:0:
333,185,18691,1,0,0:0:0:0:
49,45,19146,1,0,0:0:0:0:
255,46,19373,1,0,0:0:0:0:
460,42,19600,5,0,0:0:0:0:
256,186,19828,1,0,0:0:0:0:
45,328,20055,1,0,0:0:0:0:
256,186,20282,1,0,0:0:0:0:
465,45,20510,1,0,0:0:0:0:
148,134,20964,1,0,0:0:0:0:
357,202,21191,2,0,L|379:129,1,70
377,134,21419,2,0,B|334:280|334:279,1,140
171,171,22100,6,0,L|207:171,2,35
141,93,22782,1,0,0:0:0:0:
361,201,23237,1,0,0:0:0:0:
170,228,23691,1,0,0:0:0:0:
315,53,23919,1,0,0:0:0:0:
369,224,24146,1,0,0:0:0:0:
185,103,24373,1,0,0:0:0:0:
376,132,24600,1,0,0:0:0:0:
214,230,24828,1,0,0:0:0:0:
267,135,25055,2,0,L|304:164,3,35
53,159,25737,5,0,0:0:0:0:
462,159,25964,1,0,0:0:0:0:
243,287,26191,1,0,0:0:0:0:
471,173,26419,1,0,0:0:0:0:
240,168,26646,1,0,0:0:0:0:
471,171,26873,1,0,0:0:0:0:
250,36,27100,1,0,0:0:0:0:
471,173,27328,1,0,0:0:0:0:
86,172,27555,1,0,0:0:0:0:
187,174,27782,2,0,L|256:174,1,70
268,178,28237,1,0,0:0:0:0:
261,91,28464,6,0,L|423:94,2,140
77,167,29600,1,0,0:0:0:0:
253,168,29828,1,0,0:0:0:0:
458,172,30055,1,0,0:0:0:0:
249,38,30282,1,0,0:0:0:0:
250,314,30510,1,0,0:0:0:0:
51,49,30737,1,0,0:0:0:0:
447,48,30964,1,0,0:0:0:0:
57,315,31191,1,0,0:0:0:0:
477,316,31419,1,0,0:0:0:0:
234,36,31873,5,0,0:0:0:0:
44,173,32100,1,0,0:0:0:0:
455,171,32328,1,0,0:0:0:0:
243,174,32555,1,0,0:0:0:0:
244,320,32782,1,0,0:0:0:0:
245,35,33010,1,0,0:0:0:0:
65,62,33237,2,0,L|225:62,1,140
205,62,33691,2,0,L|373:63,1,140
344,62,34146,2,0,L|345:223,1,140
348,143,34828,5,0,0:0:0:0:
350,238,35055,1,0,0:0:0:0:
355,337,35282,1,0,0:0:0:0:
354,178,35510,1,0,0:0:0:0:
358,52,35737,1,0,0:0:0:0:
221,53,35964,1,0,0:0:0:0:
53,316,36191,1,0,0:0:0:0:
150,167,36419,2,0,P|298:168|300:166,1,140
249,61,37100,1,0,0:0:0:0:
86,207,37328,1,0,0:0:0:0:
420,196,37555,1,0,0:0:0:0:
243,324,37782,5,0,0:0:0:0:
241,152,38010,1,0,0:0:0:0:
242,76,38237,2,0,L|329:76,2,70
93,74,38919,2,0,L|91:172,1,70
412,168,39373,1,0,0:0:0:0:
214,143,39600,2,0,L|270:144,3,35
63,144,40282,1,0,0:0:0:0:
259,150,40510,1,0,0:0:0:0:
457,153,40737,5,0,0:0:0:0:
252,35,40964,1,0,0:0:0:0:
253,303,41191,1,0,0:0:0:0:
409,65,41419,1,0,0:0:0:0:
93,60,41646,1,0,0:0:0:0:
88,304,41873,1,0,0:0:0:0:
247,169,42100,1,0,0:0:0:0:
395,79,42328,1,0,0:0:0:0:
122,87,42782,2,0,L|122:158,1,70
191,88,43237,6,0,L|191:168,1,70
65,165,43691,1,0,0:0:0:0:
437,165,43919,1,0,0:0:0:0:
223,164,44146,1,0,0:0:0:0:
290,168,44373,1,0,0:0:0:0:
256,130,44600,1,0,0:0:0:0:
256,195,44828,1,0,0:0:0:0:
174,163,45055,1,0,0:0:0:0:
337,170,45282,1,0,0:0:0:0:
255,81,45510,5,0,0:0:0:0:
255,266,45737,1,0,0:0:0:0:
88,162,45964,1,0,0:0:0:0:
439,169,46191,1,0,0:0:0:0:
252,36,46419,1,0,0:0:0:0:
255,334,46646,1,0,0:0:0:0:
150,177,46873,1,0,0:0:0:0:
254,259,47100,1,0,0:0:0:0:
368,180,47328,1,0,0:0:0:0:
255,85,47555,5,0,0:0:0:0:
256,172,47782,2,0,P|117:172|114:174,1,140
260,168,48464,1,0,0:0:0:0:
260,168,48691,2,0,L|412:168,1,140
260,168,49373,1,0,0:0:0:0:
260,168,49600,2,0,L|258:26,1,140
260,168,50282,1,0,0:0:0:0:
260,168,50510,2,0,L|259:333,1,140
256,177,51191,1,0,0:0:0:0:
58,175,51419,5,0,0:0:0:0:
254,37,51646,1,0,0:0:0:0:
450,187,51873,1,0,0:0:0:0:
254,305,52100,1,0,0:0:0:0:
151,181,52328,1,0,0:0:0:0:
256,111,52555,1,0,0:0:0:0:
350,180,52782,1,0,0:0:0:0:
257,236,53010,1,0,0:0:0:0:
254,171,53237,2,0,L|255:97,2,70
125,168,53919,5,0,0:0:0:0:
245,166,54146,1,0,0:0:0:0:
245,166,54260,1,0,0:0:0:0:
245,166,54373,1,0,0:0:0:0:
404,169,54600,1,0,0:0:0:0:
247,49,54828,1,0,0:0:0:0:
248,288,55055,2,0,L|249:195,2,70
249,128,55737,1,0,0:0:0:0:
251,54,55964,1,0,0:0:0:0:
363,178,56191,5,0,0:0:0:0:
145,178,56419,1,0,0:0:0:0:
254,178,56646,1,0,0:0:0:0:
252,75,56873,2,0,L|334:76,1,70
321,75,57214,2,0,L|373:76,1,35
434,127,57555,1,0,0:0:0:0:
66,127,57782,1,0,0:0:0:0:
253,127,58010,1,0,0:0:0:0:
255,281,58237,1,0,0:0:0:0:
254,186,58464,6,0,L|254:41,1,140
114,178,59146,1,0,0:0:0:0:
408,177,59373,1,0,0:0:0:0:
255,179,59600,1,0,0:0:0:0:
260,317,59828,1,0,0:0:0:0:
255,179,60055,1,0,0:0:0:0:
257,60,60282,1,0,0:0:0:0:
255,179,60510,1,0,0:0:0:0:
105,178,60737,1,0,0:0:0:0:
255,179,60964,5,0,0:0:0:0:
414,173,61191,1,0,0:0:0:0:
255,179,61419,1,0,0:0:0:0:
251,174,61646,1,0,0:0:0:0:
255,179,61873,1,0,0:0:0:0:
252,100,62100,1,0,0:0:0:0:
400,183,62328,1,0,0:0:0:0:
123,184,62555,1,0,0:0:0:0:
268,290,62782,1,0,0:0:0:0:
262,180,63010,5,0,0:0:0:0:
265,69,63237,1,0,0:0:0:0:
412,70,63464,1,0,0:0:0:0:
422,297,63691,1,0,0:0:0:0:
115,305,63919,1,0,0:0:0:0:
108,78,64146,1,0,0:0:0:0:
402,76,64373,1,0,0:0:0:0:
403,302,64600,1,0,0:0:0:0:
256,183,64828,5,0,0:0:0:0:
262,81,65055,1,0,0:0:0:0:
122,188,65282,1,0,0:0:0:0:
254,189,65510,2,0,L|354:189,2,70
183,192,66419,1,0,0:0:0:0:
108,192,66646,1,0,0:0:0:0:
256,200,66873,2,0,L|256:144,1,35
