osu file format v14

[General]
AudioFilename: FOREVER HERE.mp3
AudioLeadIn: 0
PreviewTime: 66439
Countdown: 0
SampleSet: Soft
StackLeniency: 0.7
Mode: 0
LetterboxInBreaks: 0
WidescreenStoryboard: 0

[Editor]
DistanceSpacing: 1.4
BeatDivisor: 4
GridSize: 4
TimelineZoom: 1.48

[Metadata]
Title:FOREVER HERE
TitleUnicode:FOREVER HERE
Artist:Yoko Ishida
ArtistUnicode:石田燿子
Creator:Hazu-
Version:Hard
Source:FAIRY TAIL
Tags:フェアリーテイル season 2 s2 ending ed 6 20 tv size edition 2014
BeatmapID:1047058
BeatmapSetID:491346

[Difficulty]
HPDrainRate:5
CircleSize:4
OverallDifficulty:5
ApproachRate:7
SliderMultiplier:1.5
SliderTickRate:1

[Events]
//Background and Video events
0,0,"FOREVER HERE.jpg",0,0
//Break Periods
//Storyboard Layer 0 (Background)
//Storyboard Layer 1 (Fail)
//Storyboard Layer 2 (Pass)
//Storyboard Layer 3 (Foreground)
//Storyboard Sound Samples

[TimingPoints]
3826,454.545454545455,4,2,1,30,1,0
14735,-100,4,2,1,60,0,0
21894,-100,4,2,1,5,0,0
22007,-125,4,2,1,30,0,0
34735,-100,4,2,1,40,0,0
36553,-100,4,2,1,50,0,0
54621,-100,4,2,1,5,0,0
54735,-100,4,2,1,50,0,0
58144,-100,4,2,1,60,0,0
67348,-100,4,2,1,5,0,0
67462,-100,4,2,1,70,0,1
92803,-100,4,2,1,5,0,1
92916,-100,4,2,1,70,0,1
96553,-100,4,2,1,5,0,0

[Colours]
Combo1 : 250,208,122
Combo2 : 0,128,255
Combo3 : 175,175,175
Combo4 : 255,159,207

[HitObjects]
280,204,3826,6,0,L|288:88,2,112.5,2|2|2,0:0|0:0|0:0,0:0:0:0:
280,204,5644,2,0,L|160:212,1,112.5,2|2,0:0|0:0,0:0:0:0:
112,64,6326,2,0,L|232:56,1,112.5,2|2,0:0|0:0,0:0:0:0:
328,48,6894,1,0,0:0:0:0:
328,48,7007,2,0,L|332:136,1,75,2|2,0:0|0:0,0:0:0:0:
336,228,7462,6,0,P|280:236|248:248,1,75,2|0,0:0|0:0,0:0:0:0:
216,264,7803,2,0,L|208:144,1,112.5,2|2,0:0|0:0,0:0:0:0:
20,60,8598,2,0,L|28:236,1,150,2|2,0:0|0:0,0:0:0:0:
20,316,9280,6,0,P|68:308|116:312,1,75,2|0,0:0|0:0,0:0:0:0:
144,328,9621,2,0,P|196:336|260:320,1,112.5,2|2,0:0|0:0,0:0:0:0:
460,280,10416,2,0,P|463:242|465:205,1,75,2|2,0:0|0:0,0:0:0:0:
468,184,10757,1,2,0:0:0:0:
468,164,10871,1,2,0:0:0:0:
396,88,11098,6,0,P|340:92|264:104,1,112.5,2|2,0:0|0:0,0:0:0:0:
132,64,11780,2,0,P|140:120|152:196,1,112.5,2|2,0:0|0:0,0:0:0:0:
164,280,12348,1,0,0:0:0:0:
164,280,12462,2,0,P|128:276|72:272,1,75,2|2,0:0|0:0,0:0:0:0:
44,368,12916,6,0,B|192:380,1,112.5,2|2,0:0|0:0,0:0:0:0:
208,380,13371,1,0,0:0:0:0:
292,316,13598,2,0,P|356:308|424:300,2,112.5,2|2|2,0:0|0:0|0:0,0:0:0:0:
204,260,14507,1,2,0:0:0:0:
276,156,14735,6,0,P|272:100|268:36,1,112.5,6|2,0:0|0:0,0:0:0:0:
112,36,15416,2,0,P|116:96|120:164,1,112.5,2|2,0:0|0:0,0:0:0:0:
88,300,16098,2,0,L|38:294,2,37.5,2|2|2,0:0|0:0|0:0,0:0:0:0:
204,356,16553,6,0,P|264:348|336:340,1,112.5,2|2,0:0|0:0,0:0:0:0:
396,204,17235,2,0,P|336:196|264:188,1,112.5,2|2,0:0|0:0,0:0:0:0:
232,184,17689,1,2,0:0:0:0:
132,216,17916,1,8,0:0:0:0:
76,128,18144,1,2,0:0:0:0:
164,36,18371,6,0,P|216:40|256:44,1,75,2|0,0:0|0:0,0:0:0:0:
324,104,18826,2,0,P|376:100|416:96,1,75,2|0,0:0|0:0,0:0:0:0:
496,64,19280,2,0,P|491:98|487:154,1,75,2|0,0:0|0:0,0:0:0:0:
436,228,19734,2,0,P|431:262|427:318,1,75,2|0,0:0|0:0,0:0:0:0:
348,368,20189,5,2,0:0:0:0:
256,316,20416,1,2,0:0:0:0:
48,352,20871,1,2,0:0:0:0:
76,144,21326,1,2,0:0:0:0:
76,144,21439,1,0,0:0:0:0:
76,144,21553,2,0,L|200:156,1,112.5
228,160,22007,6,0,P|212:96|248:44,1,120,4|0,0:0|0:0,0:0:0:0:
308,8,22689,1,2,0:0:0:0:
380,52,22916,2,0,P|416:56|460:60,1,60,2|0,0:0|0:0,0:0:0:0:
500,116,23371,1,2,0:0:0:0:
428,180,23598,6,0,P|424:244|420:304,1,120,2|2,0:0|0:0,0:0:0:0:
420,320,24166,1,0,0:0:0:0:
420,336,24281,1,2,0:0:0:0:
340,360,24507,2,0,P|284:344|208:332,1,120,2|2,0:0|0:0,0:0:0:0:
144,360,25189,2,0,P|140:320|176:264,1,90,2|0,0:0|0:0,0:0:0:0:
192,244,25644,5,2,0:0:0:0:
260,196,25871,1,0,0:0:0:0:
260,196,25985,2,0,P|309:200|368:204,1,90,0|2,0:0|0:0,0:0:0:0:
368,204,26439,1,0,0:0:0:0:
384,204,26553,1,2,0:0:0:0:
460,172,26780,2,0,L|456:128,2,30,2|0|2,0:0|0:0|0:0,0:0:0:0:
496,248,27235,1,2,0:0:0:0:
492,264,27348,1,0,0:0:0:0:
488,280,27462,5,2,0:0:0:0:
468,360,27689,2,0,P|408:348|324:336,1,120,2|2,0:0|0:0,0:0:0:0:
328,332,28257,1,2,0:0:0:0:
308,328,28371,2,0,P|272:332|236:336,1,60,2|0,0:0|0:0,0:0:0:0:
168,356,28826,2,0,P|172:320|176:268,1,60,2|0,0:0|0:0,0:0:0:0:
212,200,29280,6,0,P|204:148|200:124,1,60,4|0,0:3|0:0,0:0:0:0:
200,120,29621,1,0,0:0:0:0:
196,100,29735,1,0,0:0:0:0:
124,56,29962,2,0,P|84:56|28:116,1,120,2|2,0:0|0:0,0:0:0:0:
24,128,30530,1,0,0:0:0:0:
24,144,30644,1,0,0:0:0:0:
48,228,30871,5,4,0:3:0:0:
232,316,31326,1,4,0:3:0:0:
312,128,31780,1,4,0:3:0:0:
128,40,32235,1,4,0:3:0:0:
48,228,32689,5,4,0:3:0:0:
116,276,32916,2,0,L|256:268,1,120,4|0,0:3|0:0,0:0:0:0:
312,304,33598,1,2,0:0:0:0:
408,188,34053,1,2,0:0:0:0:
416,176,34166,1,0,0:0:0:0:
424,164,34280,2,0,L|420:124,3,30,2|0|2|0,0:0|0:0|0:0|0:0,0:0:0:0:
400,84,34735,6,0,B|532:96,2,112.5,2|2|2,0:0|0:0|0:0,0:0:0:0:
244,76,35757,1,0,0:0:0:0:
236,92,35871,2,0,L|244:148,2,37.5,2|0|8,0:0|0:0|0:0,0:0:0:0:
140,52,36326,1,0,0:0:0:0:
124,44,36439,1,0,0:0:0:0:
108,36,36553,6,0,P|112:92|116:160,1,112.5,6|0,0:0|0:0,0:0:0:0:
144,192,37007,2,0,P|140:244|136:292,1,75,10|2,0:0|0:0,0:0:0:0:
164,368,37463,2,0,P|220:356|260:352,1,75,2|0,0:0|0:0,0:0:0:0:
340,352,37916,2,0,P|344:328|348:308,3,37.5,10|0|0|0,0:0|0:0|0:0|0:0,0:0:0:0:
368,264,38371,6,0,P|360:216|344:136,1,112.5,2|0,0:0|0:0,0:0:0:0:
336,100,38826,1,10,0:0:0:0:
240,56,39053,2,0,P|184:56|128:128,1,150,2|2,0:0|0:0,0:0:0:0:
120,228,39735,1,10,0:0:0:0:
124,244,39848,1,0,0:0:0:0:
128,260,39962,1,0,0:0:0:0:
212,352,40189,6,0,P|288:344|360:340,1,112.5,2|0,0:0|0:0,0:0:0:0:
376,336,40644,1,10,0:0:0:0:
480,360,40871,1,2,0:0:0:0:
492,256,41098,2,0,P|488:208|480:156,1,75,2|0,0:0|0:0,0:0:0:0:
420,100,41553,2,0,P|384:104|344:108,1,75,10|0,0:0|0:0,0:0:0:0:
224,144,42007,6,0,P|164:136|100:128,1,112.5,2|0,0:0|0:0,0:0:0:0:
60,120,42462,1,8,0:0:0:0:
44,224,42689,2,0,P|120:232|224:244,1,150,2|2,0:0|0:0,0:0:0:0:
284,296,43371,1,10,0:0:0:0:
356,220,43598,1,2,0:0:0:0:
364,204,43712,1,2,0:0:0:0:
372,188,43826,6,0,P|364:132|356:72,1,112.5,2|0,0:0|0:0,0:0:0:0:
316,44,44280,2,0,P|276:44|224:72,1,75,8|2,0:0|0:0,0:0:0:0:
164,128,44735,2,0,P|168:160|176:216,1,75,2|0,0:0|0:0,0:0:0:0:
160,308,45189,1,10,0:0:0:0:
276,360,45416,6,0,P|360:352|436:344,1,150,2|2,0:0|0:0,0:0:0:0:
448,352,45985,1,2,0:0:0:0:
468,360,46098,2,0,P|460:284|448:188,1,150,10|2,0:0|0:0,0:0:0:0:
388,128,46780,1,2,0:0:0:0:
304,192,47007,2,0,L|256:188,3,37.5,8|0|0|0,0:0|0:0|0:0|0:0,0:0:0:0:
216,168,47462,6,0,P|152:176|76:188,1,112.5,6|0,0:0|0:0,0:0:0:0:
52,180,47916,2,0,P|56:208|64:268,1,75,10|0,0:0|0:0,0:0:0:0:
100,352,48371,2,0,P|68:348|16:344,2,75,2|2|10,0:0|0:0|0:0,0:0:0:0:
224,376,49053,6,0,P|280:364|376:348,1,150,4|0,0:0|0:0,0:0:0:0:
444,272,49735,2,0,P|444:220|372:160,1,150,8|2,0:0|0:0,0:0:0:0:
276,124,50416,1,2,0:0:0:0:
184,176,50644,2,0,L|144:180,3,37.5,10|2|2|2,0:0|0:0|0:0|0:0,0:0:0:0:
96,192,51098,6,0,P|100:140|104:92,1,75,6|0,0:0|0:0,0:0:0:0:
168,36,51553,2,0,P|224:40|304:48,1,112.5,10|0,0:0|0:0,0:0:0:0:
328,68,52007,2,0,P|372:64|412:60,1,75,2|0,0:0|0:0,0:0:0:0:
500,24,52462,1,10,0:0:0:0:
500,152,52689,6,0,P|492:228|484:312,1,150,2|0,0:0|0:0,0:0:0:0:
408,372,53371,1,10,0:0:0:0:
332,300,53598,1,2,0:0:0:0:
336,284,53712,1,0,0:0:0:0:
340,268,53826,2,0,P|284:260|248:256,1,75
168,296,54280,2,0,P|144:256|84:264,1,112.5,10|0,0:0|0:0,0:0:0:0:
72,316,54735,6,0,P|68:240|60:156,1,150,2|8,0:0|0:0,0:0:0:0:
108,72,55416,1,2,0:0:0:0:
108,72,55530,1,0,0:0:0:0:
108,72,55644,2,0,P|168:64|204:68,1,75,2|0,0:0|0:0,0:0:0:0:
288,52,56098,2,0,P|284:96|280:148,1,75,10|2,0:0|0:0,0:0:0:0:
268,252,56553,5,2,0:0:0:0:
360,200,56780,1,2,0:0:0:0:
452,148,57007,1,10,0:0:0:0:
452,148,57121,2,0,P|448:200|444:276,1,112.5,2|0,0:0|0:0,0:0:0:0:
460,364,57689,2,0,P|416:352|376:344,1,75,2|8,0:0|0:0,0:0:0:0:
264,304,58144,6,0,P|188:312|112:320,1,150,6|0,0:0|0:0,0:0:0:0:
12,336,58826,2,0,P|16:296|20:252,1,75,10|0,0:0|0:0,0:0:0:0:
12,156,59280,1,2,0:0:0:0:
116,176,59508,2,0,P|164:168|216:160,1,75,2|8,0:0|0:0,0:0:0:0:
280,72,59962,6,0,P|368:88|460:104,1,150,6|0,0:0|0:0,0:0:0:0:
504,172,60644,2,0,P|496:212|492:272,1,75,10|0,0:0|0:0,0:0:0:0:
420,320,61098,2,0,B|344:344|344:300|264:320,1,150,2|8,0:0|0:0,0:0:0:0:
172,352,61780,1,2,0:0:0:0:
160,356,61894,1,0,0:0:0:0:
148,360,62007,6,0,P|144:284|136:200,1,150,6|8,0:0|0:0,0:0:0:0:
76,124,62689,1,2,0:0:0:0:
164,68,62916,2,0,P|204:76|252:84,1,75,2|0,0:0|0:0,0:0:0:0:
324,140,63371,1,10,0:0:0:0:
444,96,63598,5,6,0:0:0:0:
256,192,63712,12,0,65416,0:0:0:0:
52,248,66552,6,0,P|92:252|148:260,1,75,2|0,0:0|0:0,0:0:0:0:
220,308,67007,2,0,P|284:296|336:288,1,112.5,4|0,0:0|0:0,0:0:0:0:
380,264,67462,6,0,P|384:304|388:356,1,75,6|0,0:0|0:0,0:0:0:0:
492,348,67916,2,0,P|488:308|484:256,1,75,10|0,0:0|0:0,0:0:0:0:
500,168,68371,2,0,P|464:148|412:140,1,75,2|0,0:0|0:0,0:0:0:0:
332,108,68826,2,0,P|292:112|244:120,1,75,10|0,0:0|0:0,0:0:0:0:
132,136,69280,6,0,P|136:92|140:52,2,75,2|2|8,0:0|0:0|0:0,0:0:0:0:
96,236,69962,1,2,0:0:0:0:
192,280,70189,2,0,P|244:272|292:264,1,75,2|2,0:0|0:0,0:0:0:0:
372,284,70644,2,0,P|376:240|380:200,1,75,8|2,0:0|0:0,0:0:0:0:
396,84,71098,6,0,B|348:78|348:78|298:93|298:93|234:87,1,150,2|8,0:0|0:0,0:0:0:0:
164,28,71780,1,2,0:0:0:0:
100,112,72007,2,0,P|104:144|112:188,1,75,2|0,0:0|0:0,0:0:0:0:
112,292,72463,1,10,0:0:0:0:
224,232,72689,6,0,P|284:232|340:312,1,150,6|2,0:0|0:0,0:0:0:0:
420,364,73371,2,0,P|468:352|504:344,1,75,10|2,0:0|0:0,0:0:0:0:
512,244,73826,2,0,P|464:232|428:224,1,75,2|0,0:0|0:0,0:0:0:0:
356,164,74280,2,0,P|308:176|272:184,1,75,10|0,0:0|0:0,0:0:0:0:
160,216,74735,6,0,P|156:160|148:56,1,150,2|8,0:0|0:0,0:0:0:0:
48,32,75416,1,2,0:0:0:0:
40,40,75530,1,0,0:0:0:0:
32,48,75644,2,0,P|36:88|40:132,1,75,2|0,0:0|0:0,0:0:0:0:
20,224,76098,1,10,0:0:0:0:
124,300,76326,6,0,P|172:292|212:288,1,75,2|0,0:0|0:0,0:0:0:0:
280,224,76780,2,0,P|328:232|368:236,1,75,2|8,0:0|0:0,0:0:0:0:
452,272,77235,2,0,P|455:237|459:197,1,75,2|0,0:0|0:0,0:0:0:0:
424,100,77689,2,0,P|372:88|332:88,1,75,2|8,0:0|0:0,0:0:0:0:
252,56,78144,1,2,0:0:0:0:
184,164,78371,6,0,P|192:236|200:328,1,150,2|10,0:0|0:0,0:0:0:0:
104,360,79053,2,0,P|100:312|96:264,1,75,2|0,0:0|0:0,0:0:0:0:
68,184,79507,1,2,0:0:0:0:
72,168,79621,1,0,0:0:0:0:
76,152,79735,1,10,0:0:0:0:
172,68,79962,6,0,P|232:68|292:132,1,150,6|2,0:0|0:0,0:0:0:0:
300,152,80530,1,0,0:0:0:0:
308,172,80644,2,0,P|304:208|296:260,1,75,10|2,0:0|0:0,0:0:0:0:
308,352,81098,2,0,P|352:336|400:328,1,75,2|2,0:0|0:0,0:0:0:0:
480,300,81553,2,0,L|472:240,3,37.5,8|0|0|0,0:0|0:0|0:0|0:0,0:0:0:0:
448,220,82007,6,0,P|451:185|455:145,1,75,6|0,0:0|0:0,0:0:0:0:
416,48,82462,2,0,P|380:36|320:36,1,75,10|0,0:0|0:0,0:0:0:0:
248,80,82916,2,0,P|212:92|152:92,1,75,2|0,0:0|0:0,0:0:0:0:
72,72,83371,2,0,P|76:108|80:156,1,75,10|0,0:0|0:0,0:0:0:0:
132,264,83826,6,0,P|128:300|124:348,2,75,2|2|8,0:0|0:0|0:0,0:0:0:0:
200,184,84507,1,2,0:0:0:0:
292,236,84735,2,0,P|330:232|366:228,1,75,2|2,0:0|0:0,0:0:0:0:
472,216,85189,2,0,P|468:256|464:300,1,75,8|0,0:0|0:0,0:0:0:0:
364,368,85644,6,0,P|312:364|196:356,1,150,2|8,0:0|0:0,0:0:0:0:
108,372,86326,1,2,0:0:0:0:
64,276,86553,2,0,P|72:228|80:180,1,75,2|0,0:0|0:0,0:0:0:0:
80,180,86894,1,0,0:0:0:0:
84,160,87007,1,10,0:0:0:0:
176,72,87235,6,0,P|232:72|276:160,1,150,6|0,0:0|0:0,0:0:0:0:
276,252,87916,2,0,P|320:256|352:260,1,75,10|0,0:0|0:0,0:0:0:0:
368,272,88257,1,0,0:0:0:0:
384,280,88371,2,0,P|428:272|472:264,1,75,2|0,0:0|0:0,0:0:0:0:
504,172,88826,2,0,P|500:136|496:88,1,75,10|2,0:0|0:0,0:0:0:0:
380,48,89280,6,0,B|336:32|336:32|224:52,1,150,2|8,0:0|0:0,0:0:0:0:
128,40,89963,2,0,P|132:74|136:116,1,75,2|0,0:0|0:0,0:0:0:0:
160,216,90417,2,0,P|122:217|85:224,2,75,2|10|2,0:0|0:0|0:0,0:0:0:0:
284,248,91098,5,2,0:0:0:0:
348,164,91326,2,0,P|344:120|340:76,1,75,2|8,0:0|0:0,0:0:0:0:
252,36,91780,2,0,P|204:36|164:52,1,75,2|0,0:0|0:0,0:0:0:0:
92,104,92235,1,2,0:0:0:0:
152,192,92462,2,0,P|145:228|128:312,1,112.5,8|0,0:0|0:0,0:0:0:0:
120,352,92916,5,6,0:0:0:0:
256,192,93030,12,0,96553,0:0:0:0:
