osu file format v14

[General]
AudioFilename: FOREVER HERE.mp3
AudioLeadIn: 0
PreviewTime: 66439
Countdown: 0
SampleSet: Soft
StackLeniency: 0.7
Mode: 0
LetterboxInBreaks: 0
WidescreenStoryboard: 0

[Editor]
DistanceSpacing: 1.1
BeatDivisor: 4
GridSize: 4
TimelineZoom: 1.48

[Metadata]
Title:FOREVER HERE
TitleUnicode:FOREVER HERE
Artist:Yoko Ishida
ArtistUnicode:石田燿子
Creator:Hazu-
Version:Normal
Source:FAIRY TAIL
Tags:フェアリーテイル season 2 s2 ending ed 6 20 tv size edition 2014
BeatmapID:1056582
BeatmapSetID:491346

[Difficulty]
HPDrainRate:4
CircleSize:3.5
OverallDifficulty:4
ApproachRate:5
SliderMultiplier:1.3
SliderTickRate:1

[Events]
//Background and Video events
0,0,"FOREVER HERE.jpg",0,0
//Break Periods
//Storyboard Layer 0 (Background)
//Storyboard Layer 1 (Fail)
//Storyboard Layer 2 (Pass)
//Storyboard Layer 3 (Foreground)
//Storyboard Sound Samples

[TimingPoints]
3826,454.545454545455,4,2,1,30,1,0
14735,-100,4,2,1,60,0,0
21894,-100,4,2,1,5,0,0
22007,-100,4,2,1,30,0,0
34735,-100,4,2,1,40,0,0
36553,-100,4,2,1,50,0,0
54621,-100,4,2,1,5,0,0
54735,-100,4,2,1,50,0,0
58144,-100,4,2,1,60,0,0
67007,-100,4,2,1,60,0,0
67348,-100,4,2,1,5,0,0
67462,-100,4,2,1,70,0,1
92803,-100,4,2,1,5,0,1
92916,-100,4,2,1,70,0,1
96553,-100,4,2,1,5,0,0

[Colours]
Combo1 : 250,208,122
Combo2 : 0,128,255
Combo3 : 175,175,175
Combo4 : 255,159,207

[HitObjects]
124,48,3826,6,0,P|56:120|64:220,1,195,2|2,0:0|0:0,0:0:0:0:
408,300,5644,2,0,P|412:208|420:96,2,195,2|2|2,0:0|0:0|0:0,0:0:0:0:
284,368,7462,6,0,P|232:376|140:272,1,195,2|2,0:0|0:0,0:0:0:0:
176,144,8598,2,0,P|256:128|316:116,1,130,2|2,0:0|0:0,0:0:0:0:
368,88,9280,2,0,P|324:128|340:276,1,195,2|2,0:0|0:0,0:0:0:0:
428,352,10416,2,0,L|504:336,2,65,2|2|2,0:0|0:0|0:0,0:0:0:0:
360,376,11098,6,0,P|304:368|160:348,1,195,2|2,0:0|0:0,0:0:0:0:
72,244,12235,2,0,L|0:260,2,65,0|2|2,0:0|0:0|0:0,0:0:0:0:
132,208,12916,2,0,P|184:216|276:232,1,130,2|0,0:0|0:0,0:0:0:0:
400,256,13826,1,0,0:0:0:0:
424,116,14280,1,2,0:0:0:0:
284,88,14735,6,0,P|212:96|84:112,1,195,6|2,0:0|0:0,0:0:0:0:
4,308,16098,2,0,P|44:316|72:320,1,65,2|2,0:0|0:0,0:0:0:0:
136,348,16553,2,0,P|224:332|340:312,1,195,2|2,0:0|0:0,0:0:0:0:
428,212,17689,2,0,P|472:220|508:228,2,65,2|8|2,0:0|0:0|0:0,0:0:0:0:
368,172,18371,6,0,P|292:188|228:200,1,130,2|2,0:0|0:0,0:0:0:0:
104,156,19280,1,2,0:0:0:0:
64,292,19735,1,2,0:0:0:0:
200,336,20189,1,2,0:0:0:0:
200,336,20416,2,0,P|240:344|328:364,2,130,2|2|2,0:0|0:0|0:0,0:0:0:0:
40,192,22007,6,0,P|108:176|192:156,1,130,4|0,0:0|0:0,0:0:0:0:
284,84,22916,1,2,0:0:0:0:
420,128,23371,1,2,0:0:0:0:
420,128,23598,2,0,L|408:284,1,130,2|2,0:0|0:0,0:0:0:0:
328,376,24507,2,0,P|284:324|204:312,1,130,2|2,0:0|0:0,0:0:0:0:
156,320,25189,1,2,0:0:0:0:
24,372,25644,6,0,P|8:308|44:236,1,130,2|0,0:0|0:0,0:0:0:0:
152,172,26553,2,0,P|216:160|296:148,1,130,2|2,0:0|0:0,0:0:0:0:
420,120,27462,1,2,0:0:0:0:
420,120,27689,2,0,L|428:272,1,130,2|2,0:0|0:0,0:0:0:0:
428,320,28371,1,2,0:0:0:0:
308,244,28826,2,0,P|248:256|216:264,1,65,2|0,0:0|0:0,0:0:0:0:
196,308,29280,6,0,P|136:303|44:296,1,130,4|0,0:3|0:0,0:0:0:0:
8,336,29962,2,0,P|24:264|36:196,1,130,2|2,0:0|0:0,0:0:0:0:
92,76,30871,1,4,0:3:0:0:
200,172,31326,1,4,0:3:0:0:
264,44,31780,1,4,0:3:0:0:
348,160,32235,1,4,0:3:0:0:
440,48,32689,5,4,0:3:0:0:
440,48,32916,2,0,P|476:96|488:168,1,130,4|0,0:3|0:0,0:0:0:0:
476,236,33598,1,2,0:0:0:0:
356,316,34053,2,0,L|348:396,2,65,2|2|2,0:0|0:0|0:0,0:0:0:0:
356,244,34735,2,0,P|304:312|192:312,1,195,2|2,0:0|0:0,0:0:0:0:
92,224,35871,2,0,L|88:72,1,130,2|0,0:0|0:0,0:0:0:0:
88,24,36553,6,0,P|120:64|196:92,1,130,6|10,0:0|0:0,0:0:0:0:
332,56,37462,1,2,0:0:0:0:
416,172,37916,2,0,P|420:216|424:256,1,65,10|0,0:0|0:0,0:0:0:0:
468,292,38371,2,0,P|396:276|320:268,1,130,2|10,0:0|0:0,0:0:0:0:
284,224,39053,2,0,P|212:240|136:248,1,130,2|2,0:0|0:0,0:0:0:0:
84,260,39735,1,10,0:0:0:0:
4,144,40189,6,0,P|0:96|76:36,1,130,2|10,0:0|0:0,0:0:0:0:
124,36,40871,1,2,0:0:0:0:
124,36,41098,2,0,P|192:48|252:60,1,130,2|10,0:0|0:0,0:0:0:0:
372,136,42007,2,0,P|304:148|244:160,1,130,2|8,0:0|0:0,0:0:0:0:
176,176,42690,1,2,0:0:0:0:
40,220,43144,2,0,P|32:168|28:148,2,65,2|10|2,0:0|0:0|0:0,0:0:0:0:
48,292,43826,6,0,P|120:296|180:300,1,130,2|8,0:0|0:0,0:0:0:0:
320,324,44735,2,0,P|308:264|332:184,1,130,2|10,0:0|0:0,0:0:0:0:
388,168,45416,2,0,P|400:108|376:28,1,130,2|2,0:0|0:0,0:0:0:0:
320,12,46098,1,10,0:0:0:0:
180,48,46553,2,0,P|124:56|96:60,1,65,2|0,0:0|0:0,0:0:0:0:
48,80,47007,2,0,P|52:132|56:164,1,65,8|0,0:0|0:0,0:0:0:0:
96,204,47462,6,0,P|88:244|72:336,1,130,6|10,0:0|0:0,0:0:0:0:
208,292,48371,2,0,P|216:252|232:160,1,130,2|10,0:0|0:0,0:0:0:0:
240,92,49053,2,0,P|280:144|348:168,1,130,4|0,0:0|0:0,0:0:0:0:
408,172,49735,1,8,0:0:0:0:
496,60,50189,1,2,0:0:0:0:
360,20,50644,2,0,P|324:16|280:12,1,65,10|2,0:0|0:0,0:0:0:0:
224,12,51098,6,0,L|232:160,1,130,6|10,0:0|0:0,0:0:0:0:
240,284,52007,2,0,P|180:260|104:264,1,130,2|10,0:0|0:0,0:0:0:0:
52,296,52689,2,0,P|60:232|68:160,1,130,2|0,0:0|0:0,0:0:0:0:
76,100,53371,1,10,0:0:0:0:
76,100,53599,2,0,L|220:92,1,130,2|0,0:0|0:0,0:0:0:0:
276,88,54280,1,10,0:0:0:0:
416,56,54735,5,2,0:0:0:0:
468,188,55189,2,0,P|456:244|448:280,1,65,8|2,0:0|0:0,0:0:0:0:
476,320,55644,2,0,P|412:316|344:312,1,130,2|10,0:0|0:0,0:0:0:0:
280,336,56326,1,2,0:0:0:0:
280,336,56553,2,0,P|304:284|304:196,1,130,2|10,0:0|0:0,0:0:0:0:
296,140,57234,1,2,0:0:0:0:
168,76,57689,2,0,P|128:88|84:100,1,65,2|8,0:0|0:0,0:0:0:0:
36,72,58144,6,0,P|56:128|76:200,1,130,6|0,0:0|0:0,0:0:0:0:
100,264,58826,1,10,0:0:0:0:
232,320,59280,2,0,P|216:368|208:400,2,65,2|2|8,0:0|0:0|0:0,0:0:0:0:
268,256,59962,2,0,P|340:264|420:268,1,130,6|0,0:0|0:0,0:0:0:0:
468,280,60644,1,10,0:0:0:0:
504,140,61098,2,0,P|432:148|352:152,1,130,2|8,0:0|0:0,0:0:0:0:
244,92,62007,6,0,P|172:84|92:80,1,130,6|8,0:0|0:0,0:0:0:0:
0,168,62916,2,0,P|8:236|16:320,1,130,2|10,0:0|0:0,0:0:0:0:
28,368,63598,1,6,0:0:0:0:
256,192,63826,12,0,65416,0:0:0:0:
96,80,67462,6,0,P|104:152|112:224,1,130,6|10,0:0|0:0,0:0:0:0:
140,348,68371,2,0,P|188:316|284:308,1,130,2|10,0:0|0:0,0:0:0:0:
400,316,69280,2,0,P|396:360|392:396,2,65,2|2|8,0:0|0:0|0:0,0:0:0:0:
444,260,69962,2,0,P|436:192|424:108,1,130,2|2,0:0|0:0,0:0:0:0:
416,60,70644,1,8,0:0:0:0:
280,20,71098,6,0,P|272:88|260:172,1,130,2|8,0:0|0:0,0:0:0:0:
264,220,71781,2,0,P|220:216|148:276,1,130,2|2,0:0|0:0,0:0:0:0:
104,316,72462,1,10,0:0:0:0:
104,316,72689,2,0,P|88:244|68:176,1,130,6|2,0:0|0:0,0:0:0:0:
48,120,73371,1,10,0:0:0:0:
160,32,73826,2,0,P|248:40|320:48,1,130,2|10,0:0|0:0,0:0:0:0:
432,40,74735,6,0,P|424:104|416:192,1,130,2|8,0:0|0:0,0:0:0:0:
416,312,75644,2,0,P|340:304|272:300,1,130,2|10,0:0|0:0,0:0:0:0:
220,328,76326,2,0,P|240:272|228:188,1,130,2|2,0:0|0:0,0:0:0:0:
200,140,77007,1,8,0:0:0:0:
200,140,77235,2,0,P|124:148|56:156,1,130,2|2,0:0|0:0,0:0:0:0:
0,168,77916,1,8,0:0:0:0:
76,288,78371,6,0,P|152:296|220:304,1,130,2|10,0:0|0:0,0:0:0:0:
276,312,79053,1,2,0:0:0:0:
420,324,79507,2,0,P|412:280|404:240,1,65,2|10,0:0|0:0,0:0:0:0:
360,208,79962,2,0,L|372:64,1,130,6|2,0:0|0:0,0:0:0:0:
384,8,80644,1,10,0:0:0:0:
260,80,81098,1,2,0:0:0:0:
136,148,81553,2,0,P|104:144|68:140,1,65,8|0,0:0|0:0,0:0:0:0:
12,104,82007,6,0,L|20:260,1,130,6|10,0:0|0:0,0:0:0:0:
96,352,82916,2,0,P|168:344|240:336,1,130,2|10,0:0|0:0,0:0:0:0:
356,284,83826,2,0,P|364:312|376:364,2,65,2|2|8,0:0|0:0|0:0,0:0:0:0:
340,216,84507,2,0,P|268:208|196:200,1,130,2|2,0:0|0:0,0:0:0:0:
140,192,85189,1,8,0:0:0:0:
12,128,85644,6,0,P|-8:188|24:268,1,130,2|8,0:0|0:0,0:0:0:0:
108,356,86553,1,2,0:0:0:0:
236,288,87007,1,10,0:0:0:0:
236,288,87235,2,0,P|312:300|384:312,1,130,6|0,0:0|0:0,0:0:0:0:
432,324,87916,1,10,0:0:0:0:
504,200,88372,1,2,0:0:0:0:
388,116,88826,2,0,P|332:128|296:136,1,65,10|2,0:0|0:0,0:0:0:0:
260,160,89280,6,0,P|192:148|120:136,1,130,2|8,0:0|0:0,0:0:0:0:
64,120,89962,1,2,0:0:0:0:
0,248,90416,2,0,P|4:284|8:332,1,65,2|10,0:0|0:0,0:0:0:0:
20,384,90871,2,0,P|72:368|160:352,1,130,2|2,0:0|0:0,0:0:0:0:
284,312,91780,1,2,0:0:0:0:
424,276,92235,2,0,P|432:204|436:144,1,130,2|0,0:0|0:0,0:0:0:0:
448,76,92916,5,6,0:0:0:0:
256,192,93144,12,0,96553,0:0:0:0:
