osu file format v14

[General]
AudioFilename: FOREVER HERE.mp3
AudioLeadIn: 0
PreviewTime: 66439
Countdown: 0
SampleSet: Soft
StackLeniency: 0.7
Mode: 0
LetterboxInBreaks: 0
WidescreenStoryboard: 0

[Editor]
DistanceSpacing: 0.9
BeatDivisor: 4
GridSize: 4
TimelineZoom: 1.48

[Metadata]
Title:FOREVER HERE
TitleUnicode:FOREVER HERE
Artist:Yoko Ishida
ArtistUnicode:石田燿子
Creator:Hazu-
Version:Easy
Source:FAIRY TAIL
Tags:フェアリーテイル season 2 s2 ending ed 6 20 tv size edition 2014
BeatmapID:1049746
BeatmapSetID:491346

[Difficulty]
HPDrainRate:3
CircleSize:3
OverallDifficulty:2
ApproachRate:3
SliderMultiplier:1
SliderTickRate:1

[Events]
//Background and Video events
0,0,"FOREVER HERE.jpg",0,0
//Break Periods
//Storyboard Layer 0 (Background)
//Storyboard Layer 1 (Fail)
//Storyboard Layer 2 (Pass)
//Storyboard Layer 3 (Foreground)
//Storyboard Sound Samples

[TimingPoints]
3826,454.545454545455,4,2,1,30,1,0
14735,-100,4,2,1,60,0,0
21894,-100,4,2,1,5,0,0
22007,-100,4,2,1,30,0,0
34735,-100,4,2,1,40,0,0
36553,-100,4,2,1,50,0,0
54621,-100,4,2,1,5,0,0
54735,-100,4,2,1,50,0,0
58144,-100,4,2,1,60,0,0
67007,-100,4,2,1,60,0,0
67348,-100,4,2,1,5,0,0
67462,-100,4,2,1,70,0,1
92803,-100,4,2,1,5,0,1
92916,-100,4,2,1,70,0,1
96553,-100,4,2,1,5,0,0

[Colours]
Combo1 : 250,208,122
Combo2 : 0,128,255
Combo3 : 175,175,175
Combo4 : 255,159,207

[HitObjects]
72,152,3826,6,0,B|144:176|144:128|220:156,1,150,2|2,0:0|0:0,0:0:0:0:
436,216,5644,2,0,L|444:375,2,150,2|2|2,0:0|0:0|0:0,0:0:0:0:
432,124,7462,6,0,B|380:128|380:128|344:148|344:148|276:152,1,150,2|2,0:0|0:0,0:0:0:0:
196,152,8598,1,2,0:0:0:0:
68,192,9280,2,0,P|60:128|44:32,2,150,2|2|2,0:0|0:0|0:0,0:0:0:0:
148,232,11098,6,0,P|140:296|124:392,2,150,2|2|2,0:0|0:0|0:0,0:0:0:0:
164,144,12916,2,0,P|212:112|264:112,1,100,2|0,0:0|0:0,0:0:0:0:
340,136,13826,2,0,L|352:244,1,100,0|2,0:0|0:0,0:0:0:0:
356,324,14735,6,0,P|428:304|512:348,2,150,6|2|2,0:0|0:0|0:0,0:0:0:0:
272,356,16553,2,0,P|200:376|116:332,2,150,2|2|8,0:0|0:0|0:0,0:0:0:0:
356,324,18371,6,0,P|364:288|376:220,1,100,2|2,0:0|0:0,0:0:0:0:
332,148,19280,2,0,P|296:124|232:124,1,100,2|2,0:0|0:0,0:0:0:0:
156,152,20189,2,0,P|160:84|224:32,2,150,2|2|0,0:0|0:0|0:0,0:0:0:0:
184,236,22007,6,0,B|236:212|236:212|384:228,1,200,4|2,0:0|0:0,0:0:0:0:
440,348,23598,2,0,L|336:336,1,100,2|2,0:0|0:0,0:0:0:0:
256,304,24507,2,0,L|92:324,1,150,2|2,0:0|0:0,0:0:0:0:
20,336,25644,6,0,B|24:268|24:268|64:214|64:214|70:127,1,200,2|2,0:0|0:0,0:0:0:0:
168,56,27235,2,0,P|244:44|324:76,1,150,2|0,0:0|0:0,0:0:0:0:
384,120,28371,2,0,L|376:228,1,100,2|2,0:0|0:0,0:0:0:0:
396,308,29280,6,0,P|312:312|240:316,1,150,4|2,0:3|0:0,0:0:0:0:
160,340,30416,1,2,0:0:0:0:
104,268,30871,2,0,P|100:228|128:168,1,100,4|4,0:3|0:3,0:0:0:0:
192,120,31780,2,0,L|304:124,1,100,4|4,0:3|0:3,0:0:0:0:
416,176,32916,6,0,P|409:101|400:26,2,150,4|2|0,0:3|0:0|0:0,0:0:0:0:
356,244,34735,2,0,P|268:268|200:292,2,150,2|2|8,0:0|0:0|0:0,0:0:0:0:
444,224,36553,6,0,P|488:180|444:60,1,200,6|2,0:0|0:0,0:0:0:0:
364,36,37916,1,10,0:0:0:0:
284,80,38371,2,0,B|208:100|208:56|128:80,2,150,2|2|10,0:0|0:0|0:0,0:0:0:0:
364,36,40189,6,0,P|372:96|264:168,1,200,2|2,0:0|0:0,0:0:0:0:
180,152,41553,1,10,0:0:0:0:
132,228,42007,2,0,P|116:292|104:380,2,150,2|2|10,0:0|0:0|0:0,0:0:0:0:
180,152,43826,6,0,P|232:160|284:168,1,100,2|8,0:0|0:0,0:0:0:0:
340,236,44735,2,0,P|416:229|500:224,2,150,2|2|10,0:0|0:0|0:0,0:0:0:0:
252,264,46553,2,0,P|196:248|148:240,1,100,2|8,0:0|0:0,0:0:0:0:
64,256,47462,6,0,P|76:204|88:148,1,100,6|10,0:0|0:0,0:0:0:0:
128,80,48371,2,0,P|48:76|0:144,2,150,2|4|8,0:0|0:0|0:0,0:0:0:0:
208,120,50189,2,0,P|268:128|312:112,1,100,2|10,0:0|0:0,0:0:0:0:
392,88,51098,6,0,P|380:164|364:292,1,200,6|2,0:0|0:0,0:0:0:0:
324,364,52462,1,10,0:0:0:0:
240,328,52916,2,0,P|180:320|136:336,1,100,0|10,0:0|0:0,0:0:0:0:
56,352,53826,2,0,P|59:293|64:240,1,100,0|10,0:0|0:0,0:0:0:0:
64,164,54735,6,0,B|135:171|135:171|184:200|184:200|272:210,1,200,2|2,0:0|0:0,0:0:0:0:
336,248,56098,1,10,0:0:0:0:
404,188,56553,2,0,P|396:116|388:76,1,100,2|10,0:0|0:0,0:0:0:0:
324,32,57462,2,0,L|272:40,1,50,0|2,0:0|0:0,0:0:0:0:
200,88,58144,6,0,P|140:76|52:60,2,150,6|10|2,0:0|0:0|0:0,0:0:0:0:
264,152,59962,2,0,P|267:214|188:280,1,150,6|10,0:0|0:0,0:0:0:0:
120,280,61098,2,0,P|84:272|8:260,1,100,2|8,0:0|0:0,0:0:0:0:
0,176,62007,6,0,P|36:168|112:156,1,100,6|8,0:0|0:0,0:0:0:0:
180,120,62916,2,0,P|248:136|336:160,1,150,2|6,0:0|0:0,0:0:0:0:
256,192,63826,12,0,65416,0:0:0:0:
60,324,67462,6,0,P|116:316|172:308,1,100,6|10,0:0|0:0,0:0:0:0:
224,248,68371,2,0,P|280:256|336:264,1,100,2|10,0:0|0:0,0:0:0:0:
408,288,69280,2,0,P|400:220|384:84,1,200,2|2,0:0|0:0,0:0:0:0:
316,32,70644,1,8,0:0:0:0:
248,88,71098,6,0,P|196:96|140:108,1,100,2|8,0:0|0:0,0:0:0:0:
88,168,72007,2,0,P|64:92|100:36,2,150,2|6|10,0:0|0:0|0:0,0:0:0:0:
156,228,73826,2,0,P|204:212|260:196,1,100,2|10,0:0|0:0,0:0:0:0:
336,168,74735,6,0,P|328:240|312:372,1,200,2|2,0:0|0:0,0:0:0:0:
448,352,76326,2,0,P|454:294|460:240,1,100,2|2,0:0|0:0,0:0:0:0:
504,176,77235,2,0,P|497:118|492:64,1,100,2|2,0:0|0:0,0:0:0:0:
368,32,78371,6,0,P|316:40|264:48,1,100,2|10,0:0|0:0,0:0:0:0:
196,100,79280,2,0,P|144:88|48:72,2,150,0|6|10,0:0|0:0|0:0,0:0:0:0:
272,148,81098,2,0,P|276:200|280:264,1,100,2|8,0:0|0:0,0:0:0:0:
276,336,82007,6,0,P|224:316|164:316,1,100,6|10,0:0|0:0,0:0:0:0:
92,328,82916,2,0,P|100:268|108:220,1,100,2|10,0:0|0:0,0:0:0:0:
168,164,83826,2,0,B|268:128|268:196|376:160,1,200,2|2,0:0|0:0,0:0:0:0:
444,128,85189,1,8,0:0:0:0:
488,204,85644,6,0,P|484:236|476:308,1,100,2|8,0:0|0:0,0:0:0:0:
396,348,86553,2,0,P|320:348|264:292,2,150,2|6|10,0:0|0:0|0:0,0:0:0:0:
476,303,88371,2,0,P|470:251|464:200,1,100,2|10,0:0|0:0,0:0:0:0:
435,120,89280,6,0,B|376:144|376:144|232:116,1,200,2|0,0:0|0:0,0:0:0:0:
156,88,90644,2,0,P|160:176|164:244,1,150,10|2,0:0|0:0,0:0:0:0:
208,316,91780,1,2,0:0:0:0:
288,280,92235,2,0,P|344:268|424:332,1,150,2|6,0:0|0:0,0:0:0:0:
256,192,93144,12,0,96553,0:0:0:0:
