osu file format v14

[General]
AudioFilename: newaudio.ogg
AudioLeadIn: 0
PreviewTime: 59018
Countdown: 0
SampleSet: Normal
StackLeniency: 0.7
Mode: 1
LetterboxInBreaks: 0
WidescreenStoryboard: 1

[Editor]
DistanceSpacing: 0.8
BeatDivisor: 4
GridSize: 32
TimelineZoom: 1.7

[Metadata]
Title:Kuyamu to Kaite Mirai
TitleUnicode:悔やむと書いてミライ
Artist:Yoisaki Kanade (CV: Kusunoki Tomori)
ArtistUnicode:宵崎奏 (CV: 楠木ともり)
Creator:fanhoho
Version:Ura Oni
Source:プロジェクトセカイ カラフルステージ! feat. 初音ミク
Tags:japanese j-rock jrock video game mafumafu まふまふ rhythm mobile Project Sekai colorful colourful stage puroseka proseka プロセカ hatsune miku Crypton Future Media Craft Egg Palette K 25時、ナイトコードで。 25-ji, naito koodo de. o'clock night code cord
BeatmapID:2978890
BeatmapSetID:1357866

[Difficulty]
HPDrainRate:6
CircleSize:5
OverallDifficulty:6
ApproachRate:5
SliderMultiplier:1.4
SliderTickRate:1

[Events]
//Background and Video events
0,0,"kanade.jpg",0,100
//Break Periods
//Storyboard Layer 0 (Background)
//Storyboard Layer 1 (Fail)
//Storyboard Layer 2 (Pass)
//Storyboard Layer 3 (Foreground)
//Storyboard Layer 4 (Overlay)
//Storyboard Sound Samples

[TimingPoints]
101,309.278350515464,4,1,0,60,1,0
8760,-100,4,1,0,80,0,0
29637,-100,4,1,0,60,0,0
29791,-111.111111111111,4,1,0,60,0,0
49430,-99.9999999999999,4,1,0,70,0,0
59173,-99.9999999999999,4,1,0,50,0,0
59482,-99.9999999999999,4,1,0,80,0,1
69379,-99.9999999999999,4,1,0,80,0,0
69688,-99.9999999999999,4,1,0,80,0,1
79121,-99.9999999999999,4,1,0,80,0,0
89173,-99.9999999999999,4,1,0,60,0,0
93966,-99.9999999999999,4,1,0,40,0,0

[HitObjects]
256,192,8760,5,2,0:0:0:0:
256,192,8838,1,2,0:0:0:0:
256,192,8915,1,0,0:0:0:0:
256,192,8992,1,0,0:0:0:0:
256,192,9070,1,2,0:0:0:0:
256,192,9224,1,0,0:0:0:0:
256,192,9302,1,0,0:0:0:0:
256,192,9379,1,0,0:0:0:0:
256,192,9533,1,0,0:0:0:0:
256,192,9611,1,0,0:0:0:0:
256,192,9688,1,2,0:0:0:0:
256,192,9843,1,4,0:0:0:0:
256,192,10152,1,0,0:0:0:0:
256,192,10229,1,0,0:0:0:0:
256,192,10307,1,2,0:0:0:0:
256,192,10461,1,0,0:0:0:0:
256,192,10616,1,0,0:0:0:0:
256,192,10693,1,0,0:0:0:0:
256,192,10771,1,2,0:0:0:0:
256,192,10848,1,0,0:0:0:0:
256,192,10925,1,2,0:0:0:0:
256,192,11080,1,6,0:0:0:0:
256,192,11389,1,0,0:0:0:0:
256,192,11466,1,0,0:0:0:0:
256,192,11544,1,2,0:0:0:0:
256,192,11698,1,0,0:0:0:0:
256,192,11853,1,2,0:0:0:0:
256,192,11930,1,2,0:0:0:0:
256,192,12008,1,0,0:0:0:0:
256,192,12162,1,2,0:0:0:0:
256,192,12317,1,4,0:0:0:0:
256,192,12626,1,0,0:0:0:0:
256,192,12704,1,0,0:0:0:0:
256,192,12781,1,2,0:0:0:0:
256,192,12936,1,0,0:0:0:0:
256,192,13090,1,0,0:0:0:0:
256,192,13168,1,0,0:0:0:0:
256,192,13245,1,2,0:0:0:0:
256,192,13322,1,0,0:0:0:0:
256,192,13399,1,2,0:0:0:0:
256,192,13554,1,0,0:0:0:0:
256,192,13863,1,0,0:0:0:0:
256,192,14018,1,2,0:0:0:0:
256,192,14173,1,0,0:0:0:0:
256,192,14250,1,2,0:0:0:0:
256,192,14327,1,0,0:0:0:0:
256,192,14405,1,2,0:0:0:0:
256,192,14482,1,0,0:0:0:0:
256,192,14637,1,2,0:0:0:0:
256,192,14791,1,4,0:0:0:0:
256,192,15101,1,0,0:0:0:0:
256,192,15178,1,0,0:0:0:0:
256,192,15255,1,2,0:0:0:0:
256,192,15410,1,0,0:0:0:0:
256,192,15564,1,0,0:0:0:0:
256,192,15642,1,0,0:0:0:0:
256,192,15719,1,2,0:0:0:0:
256,192,15796,1,0,0:0:0:0:
256,192,15874,1,2,0:0:0:0:
256,192,16028,1,6,0:0:0:0:
256,192,16338,1,0,0:0:0:0:
256,192,16415,1,0,0:0:0:0:
256,192,16492,1,2,0:0:0:0:
256,192,16647,1,0,0:0:0:0:
256,192,16802,1,2,0:0:0:0:
256,192,16879,1,2,0:0:0:0:
256,192,16956,1,0,0:0:0:0:
256,192,17111,1,2,0:0:0:0:
256,192,17265,1,4,0:0:0:0:
256,192,17575,1,0,0:0:0:0:
256,192,17652,1,0,0:0:0:0:
256,192,17729,1,2,0:0:0:0:
256,192,17884,1,0,0:0:0:0:
256,192,18039,1,0,0:0:0:0:
256,192,18116,1,2,0:0:0:0:
256,192,18193,1,2,0:0:0:0:
256,192,18271,1,2,0:0:0:0:
256,192,18348,1,0,0:0:0:0:
256,192,18503,1,0,0:0:0:0:
256,192,18812,1,0,0:0:0:0:
256,192,18966,1,2,0:0:0:0:
256,192,19121,1,0,0:0:0:0:
256,192,19276,1,0,0:0:0:0:
256,192,19353,1,2,0:0:0:0:
256,192,19430,1,2,0:0:0:0:
256,192,19508,1,0,0:0:0:0:
256,192,19585,1,2,0:0:0:0:
256,192,19740,1,4,0:0:0:0:
256,192,20049,1,0,0:0:0:0:
256,192,20126,1,0,0:0:0:0:
256,192,20204,1,2,0:0:0:0:
256,192,20358,1,0,0:0:0:0:
256,192,20513,1,0,0:0:0:0:
256,192,20590,1,0,0:0:0:0:
256,192,20668,1,2,0:0:0:0:
256,192,20745,1,0,0:0:0:0:
256,192,20822,1,2,0:0:0:0:
256,192,20977,1,6,0:0:0:0:
256,192,21286,1,0,0:0:0:0:
256,192,21363,1,0,0:0:0:0:
256,192,21441,1,2,0:0:0:0:
256,192,21595,1,0,0:0:0:0:
256,192,21750,1,2,0:0:0:0:
256,192,21827,1,2,0:0:0:0:
256,192,21905,1,0,0:0:0:0:
256,192,22059,1,2,0:0:0:0:
256,192,22214,1,4,0:0:0:0:
256,192,22523,1,0,0:0:0:0:
256,192,22601,1,0,0:0:0:0:
256,192,22678,1,2,0:0:0:0:
256,192,22833,1,0,0:0:0:0:
256,192,22987,1,0,0:0:0:0:
256,192,23065,1,0,0:0:0:0:
256,192,23142,1,2,0:0:0:0:
256,192,23219,1,0,0:0:0:0:
256,192,23296,1,2,0:0:0:0:
256,192,23451,1,0,0:0:0:0:
256,192,23760,1,0,0:0:0:0:
256,192,23915,1,2,0:0:0:0:
256,192,24070,1,0,0:0:0:0:
256,192,24147,1,2,0:0:0:0:
256,192,24224,1,0,0:0:0:0:
256,192,24302,1,2,0:0:0:0:
256,192,24379,1,0,0:0:0:0:
256,192,24534,1,2,0:0:0:0:
256,192,24688,1,4,0:0:0:0:
256,192,24998,1,0,0:0:0:0:
256,192,25075,1,0,0:0:0:0:
256,192,25152,1,2,0:0:0:0:
256,192,25307,1,0,0:0:0:0:
256,192,25461,1,0,0:0:0:0:
256,192,25539,1,0,0:0:0:0:
256,192,25616,1,2,0:0:0:0:
256,192,25693,1,0,0:0:0:0:
256,192,25771,1,2,0:0:0:0:
256,192,25925,1,6,0:0:0:0:
256,192,26235,1,0,0:0:0:0:
256,192,26312,1,0,0:0:0:0:
256,192,26389,1,2,0:0:0:0:
256,192,26544,1,0,0:0:0:0:
256,192,26699,1,2,0:0:0:0:
256,192,26776,1,2,0:0:0:0:
256,192,26853,1,0,0:0:0:0:
256,192,27008,1,2,0:0:0:0:
256,192,27162,1,4,0:0:0:0:
256,192,27472,1,0,0:0:0:0:
256,192,27549,1,0,0:0:0:0:
256,192,27626,1,2,0:0:0:0:
256,192,27781,1,0,0:0:0:0:
256,192,27936,1,0,0:0:0:0:
256,192,28013,1,2,0:0:0:0:
256,192,28090,1,2,0:0:0:0:
256,192,28168,1,2,0:0:0:0:
256,192,28245,1,0,0:0:0:0:
256,192,28399,1,0,0:0:0:0:
256,192,28709,1,0,0:0:0:0:
256,192,28863,1,2,0:0:0:0:
256,192,29018,1,0,0:0:0:0:
256,192,29095,1,0,0:0:0:0:
256,192,29173,1,2,0:0:0:0:
256,192,29250,1,2,0:0:0:0:
256,192,29327,1,0,0:0:0:0:
256,192,29482,1,2,0:0:0:0:
256,0,29637,1,4,0:0:0:0:
256,0,29946,1,0,0:0:0:0:
256,0,30101,1,2,0:0:0:0:
256,192,30255,1,0,0:0:0:0:
256,0,30410,1,2,0:0:0:0:
256,0,30719,1,2,0:0:0:0:
256,0,30874,1,0,0:0:0:0:
256,0,31183,1,0,0:0:0:0:
256,0,31338,1,2,0:0:0:0:
256,0,31492,1,2,0:0:0:0:
256,0,31647,1,0,0:0:0:0:
256,0,31802,1,2,0:0:0:0:
256,192,31956,1,0,0:0:0:0:
256,0,32265,1,0,0:0:0:0:
256,0,32575,1,0,0:0:0:0:
256,0,32884,1,0,0:0:0:0:
256,0,33039,1,2,0:0:0:0:
256,0,33193,1,0,0:0:0:0:
256,0,33503,1,0,0:0:0:0:
256,0,33657,1,0,0:0:0:0:
256,0,33812,1,2,0:0:0:0:
256,0,33966,1,0,0:0:0:0:
256,0,34121,1,2,0:0:0:0:
256,0,34276,1,2,0:0:0:0:
256,0,34430,1,2,0:0:0:0:
256,0,34740,1,0,0:0:0:0:
256,0,35049,1,0,0:0:0:0:
256,0,35358,1,0,0:0:0:0:
256,0,35513,1,2,0:0:0:0:
256,0,35668,1,0,0:0:0:0:
256,0,35977,1,0,0:0:0:0:
256,0,36132,1,0,0:0:0:0:
256,0,36287,1,2,0:0:0:0:
256,0,36441,1,0,0:0:0:0:
256,0,36596,1,2,0:0:0:0:
256,0,36751,1,2,0:0:0:0:
256,0,36905,1,2,0:0:0:0:
256,0,37214,1,0,0:0:0:0:
256,0,37523,1,0,0:0:0:0:
256,0,37833,1,0,0:0:0:0:
256,0,37987,1,2,0:0:0:0:
256,0,38142,1,0,0:0:0:0:
256,0,38451,1,0,0:0:0:0:
256,0,38606,1,0,0:0:0:0:
256,0,38760,1,2,0:0:0:0:
256,0,38915,1,0,0:0:0:0:
256,0,39070,1,2,0:0:0:0:
256,0,39147,1,2,0:0:0:0:
256,0,39224,1,0,0:0:0:0:
256,0,39379,1,2,0:0:0:0:
256,0,39533,1,4,0:0:0:0:
256,192,39842,1,0,0:0:0:0:
256,192,39997,1,2,0:0:0:0:
256,192,40151,1,0,0:0:0:0:
256,192,40229,1,0,0:0:0:0:
256,192,40306,1,2,0:0:0:0:
256,192,40461,1,0,0:0:0:0:
256,192,40616,1,2,0:0:0:0:
256,192,40770,1,0,0:0:0:0:
256,192,41079,1,0,0:0:0:0:
256,192,41234,1,2,0:0:0:0:
256,192,41388,1,2,0:0:0:0:
256,192,41543,1,0,0:0:0:0:
256,192,41698,1,2,0:0:0:0:
256,192,41853,1,2,0:0:0:0:
256,192,42162,1,0,0:0:0:0:
256,192,42316,1,2,0:0:0:0:
256,192,42472,1,2,0:0:0:0:
256,192,42626,1,0,0:0:0:0:
256,192,42780,1,2,0:0:0:0:
256,192,42935,1,0,0:0:0:0:
256,192,43089,1,2,0:0:0:0:
256,192,43399,1,0,0:0:0:0:
256,192,43553,1,0,0:0:0:0:
256,192,43708,1,2,0:0:0:0:
256,192,43862,1,0,0:0:0:0:
256,192,44017,1,2,0:0:0:0:
256,192,44172,1,2,0:0:0:0:
256,192,44250,1,2,0:0:0:0:
256,192,44326,1,2,0:0:0:0:
256,192,44637,1,0,0:0:0:0:
256,192,44791,1,2,0:0:0:0:
256,192,44946,1,2,0:0:0:0:
256,192,45101,1,0,0:0:0:0:
256,192,45255,1,2,0:0:0:0:
256,192,45410,1,0,0:0:0:0:
256,192,45564,1,2,0:0:0:0:
256,192,45874,1,0,0:0:0:0:
256,192,46028,1,0,0:0:0:0:
256,192,46183,1,2,0:0:0:0:
256,192,46337,1,0,0:0:0:0:
256,192,46492,1,2,0:0:0:0:
256,192,46647,1,2,0:0:0:0:
256,192,46724,1,2,0:0:0:0:
256,192,46801,1,2,0:0:0:0:
256,192,47111,1,0,0:0:0:0:
256,192,47265,1,2,0:0:0:0:
256,192,47420,1,2,0:0:0:0:
256,192,47575,1,0,0:0:0:0:
256,192,47729,1,2,0:0:0:0:
256,192,47884,1,0,0:0:0:0:
256,192,48039,1,2,0:0:0:0:
256,192,48193,1,2,0:0:0:0:
256,192,48348,1,0,0:0:0:0:
256,192,48503,1,0,0:0:0:0:
256,192,48657,1,2,0:0:0:0:
256,192,48735,1,2,0:0:0:0:
256,192,48812,1,0,0:0:0:0:
256,192,48889,1,2,0:0:0:0:
256,192,48966,1,0,0:0:0:0:
256,192,49121,1,2,0:0:0:0:
256,192,49198,1,2,0:0:0:0:
256,192,49276,1,0,0:0:0:0:
256,192,49430,1,4,0:0:0:0:
256,192,49740,1,0,0:0:0:0:
256,192,49817,1,0,0:0:0:0:
256,192,49894,1,2,0:0:0:0:
256,192,50049,1,2,0:0:0:0:
256,192,50204,1,0,0:0:0:0:
256,192,50281,1,0,0:0:0:0:
256,192,50358,1,2,0:0:0:0:
256,192,50436,1,0,0:0:0:0:
256,192,50513,1,2,0:0:0:0:
256,192,50668,1,6,0:0:0:0:
256,192,50977,1,0,0:0:0:0:
256,192,51131,1,2,0:0:0:0:
256,192,51286,1,0,0:0:0:0:
256,192,51363,1,2,0:0:0:0:
256,192,51441,1,0,0:0:0:0:
256,192,51518,1,2,0:0:0:0:
256,192,51595,1,0,0:0:0:0:
256,192,51750,1,2,0:0:0:0:
256,192,51905,1,4,0:0:0:0:
256,192,52214,1,0,0:0:0:0:
256,192,52291,1,0,0:0:0:0:
256,192,52369,1,2,0:0:0:0:
256,192,52523,1,2,0:0:0:0:
256,192,52601,1,2,0:0:0:0:
256,192,52678,1,0,0:0:0:0:
256,192,52755,1,0,0:0:0:0:
256,192,52832,1,2,0:0:0:0:
256,192,52987,1,2,0:0:0:0:
256,192,53142,1,6,0:0:0:0:
256,192,53451,1,0,0:0:0:0:
256,192,53606,1,2,0:0:0:0:
256,192,53760,1,4,0:0:0:0:
256,192,54070,1,2,0:0:0:0:
256,192,54224,1,0,0:0:0:0:
256,192,54379,1,4,0:0:0:0:
256,192,54688,1,0,0:0:0:0:
256,192,54765,1,0,0:0:0:0:
256,192,54843,1,2,0:0:0:0:
256,192,54997,1,0,0:0:0:0:
256,192,55075,1,0,0:0:0:0:
256,192,55152,1,0,0:0:0:0:
256,192,55307,1,2,0:0:0:0:
256,192,55461,1,0,0:0:0:0:
256,192,55616,1,6,0:0:0:0:
256,192,55925,1,0,0:0:0:0:
256,192,56003,1,0,0:0:0:0:
256,192,56080,1,2,0:0:0:0:
256,192,56235,1,0,0:0:0:0:
256,192,56312,1,2,0:0:0:0:
256,192,56389,1,0,0:0:0:0:
256,192,56544,1,2,0:0:0:0:
256,192,56698,1,2,0:0:0:0:
256,192,56853,1,4,0:0:0:0:
256,192,57162,1,0,0:0:0:0:
256,192,57240,1,0,0:0:0:0:
256,192,57317,1,2,0:0:0:0:
256,192,57394,1,2,0:0:0:0:
256,192,57472,1,0,0:0:0:0:
256,192,57549,1,2,0:0:0:0:
256,192,57626,1,0,0:0:0:0:
256,192,57781,1,0,0:0:0:0:
256,192,57935,1,0,0:0:0:0:
256,192,58013,1,0,0:0:0:0:
256,192,58090,1,2,0:0:0:0:
256,192,58399,1,6,0:0:0:0:
256,192,58554,1,6,0:0:0:0:
256,192,58709,1,6,0:0:0:0:
256,192,58863,1,6,0:0:0:0:
256,192,59173,1,0,0:0:0:0:
256,192,59482,5,4,0:0:0:0:
256,192,59636,1,0,0:0:0:0:
256,192,59791,1,2,0:0:0:0:
256,192,59946,1,0,0:0:0:0:
256,192,60023,1,0,0:0:0:0:
256,192,60100,1,2,0:0:0:0:
256,192,60177,1,0,0:0:0:0:
256,192,60255,1,2,0:0:0:0:
256,192,60410,1,2,0:0:0:0:
256,192,60564,1,0,0:0:0:0:
256,192,60642,1,0,0:0:0:0:
256,192,60719,1,0,0:0:0:0:
256,192,60874,1,0,0:0:0:0:
256,192,61028,1,2,0:0:0:0:
256,192,61183,1,2,0:0:0:0:
256,192,61260,1,2,0:0:0:0:
256,192,61338,1,0,0:0:0:0:
256,192,61492,1,2,0:0:0:0:
256,192,61647,1,0,0:0:0:0:
256,192,61801,1,2,0:0:0:0:
256,192,61956,1,2,0:0:0:0:
256,192,62033,1,0,0:0:0:0:
256,192,62111,1,2,0:0:0:0:
256,192,62188,1,2,0:0:0:0:
256,192,62265,1,0,0:0:0:0:
256,192,62420,1,2,0:0:0:0:
256,192,62575,1,2,0:0:0:0:
256,192,62729,1,0,0:0:0:0:
256,192,62807,1,0,0:0:0:0:
256,192,62884,1,0,0:0:0:0:
256,192,63039,1,2,0:0:0:0:
256,192,63193,1,0,0:0:0:0:
256,192,63348,1,0,0:0:0:0:
256,192,63425,1,0,0:0:0:0:
256,192,63503,1,2,0:0:0:0:
256,192,63657,1,0,0:0:0:0:
256,192,63735,1,2,0:0:0:0:
256,192,63812,1,0,0:0:0:0:
256,192,63889,1,2,0:0:0:0:
256,192,63966,1,0,0:0:0:0:
256,192,64121,1,2,0:0:0:0:
256,192,64276,1,0,0:0:0:0:
256,192,64430,1,0,0:0:0:0:
256,192,64507,1,0,0:0:0:0:
256,192,64585,1,0,0:0:0:0:
256,192,64739,1,2,0:0:0:0:
256,192,64894,1,0,0:0:0:0:
256,192,64971,1,2,0:0:0:0:
256,192,65049,1,0,0:0:0:0:
256,192,65126,1,0,0:0:0:0:
256,192,65203,1,2,0:0:0:0:
256,192,65358,1,2,0:0:0:0:
256,192,65512,1,0,0:0:0:0:
256,192,65590,1,0,0:0:0:0:
256,192,65668,1,0,0:0:0:0:
256,192,65822,1,0,0:0:0:0:
256,192,65976,1,2,0:0:0:0:
256,192,66131,1,2,0:0:0:0:
256,192,66208,1,2,0:0:0:0:
256,192,66286,1,0,0:0:0:0:
256,192,66363,1,2,0:0:0:0:
256,192,66440,1,0,0:0:0:0:
256,192,66595,1,2,0:0:0:0:
256,192,66750,1,2,0:0:0:0:
256,192,66905,1,0,0:0:0:0:
256,192,66982,1,0,0:0:0:0:
256,192,67059,1,2,0:0:0:0:
256,192,67214,1,2,0:0:0:0:
256,192,67369,1,0,0:0:0:0:
256,192,67446,1,0,0:0:0:0:
256,192,67523,1,2,0:0:0:0:
256,192,67678,1,0,0:0:0:0:
256,192,67832,1,2,0:0:0:0:
256,192,67987,1,2,0:0:0:0:
256,192,68142,1,0,0:0:0:0:
256,192,68296,1,0,0:0:0:0:
256,192,68374,1,0,0:0:0:0:
256,192,68451,1,2,0:0:0:0:
256,192,68606,1,2,0:0:0:0:
256,192,68683,1,2,0:0:0:0:
256,192,68760,1,0,0:0:0:0:
256,192,68838,1,2,0:0:0:0:
256,192,68915,1,0,0:0:0:0:
256,192,69070,1,2,0:0:0:0:
256,192,69147,1,2,0:0:0:0:
256,192,69224,1,0,0:0:0:0:
256,192,69301,1,0,0:0:0:0:
256,192,69379,1,2,0:0:0:0:
256,192,69688,1,6,0:0:0:0:
256,192,69843,1,0,0:0:0:0:
256,192,69920,1,2,0:0:0:0:
256,192,69997,1,0,0:0:0:0:
256,192,70152,1,0,0:0:0:0:
256,192,70229,1,0,0:0:0:0:
256,192,70306,1,2,0:0:0:0:
256,192,70461,1,2,0:0:0:0:
256,192,70616,1,0,0:0:0:0:
256,192,70693,1,0,0:0:0:0:
256,192,70771,1,0,0:0:0:0:
256,192,70925,1,2,0:0:0:0:
256,192,71080,1,0,0:0:0:0:
256,192,71157,1,2,0:0:0:0:
256,192,71235,1,0,0:0:0:0:
256,192,71312,1,0,0:0:0:0:
256,192,71389,1,0,0:0:0:0:
256,192,71544,1,2,0:0:0:0:
256,192,71698,1,2,0:0:0:0:
256,192,71853,1,0,0:0:0:0:
256,192,72008,1,0,0:0:0:0:
256,192,72085,1,0,0:0:0:0:
256,192,72162,1,2,0:0:0:0:
256,192,72317,1,0,0:0:0:0:
256,192,72394,1,2,0:0:0:0:
256,192,72472,1,2,0:0:0:0:
256,192,72549,1,0,0:0:0:0:
256,192,72626,1,2,0:0:0:0:
256,192,72781,1,2,0:0:0:0:
256,192,72936,1,2,0:0:0:0:
256,192,73090,1,0,0:0:0:0:
256,192,73245,1,2,0:0:0:0:
256,160,73322,1,2,0:0:0:0:
256,192,73399,1,2,0:0:0:0:
256,192,73554,1,0,0:0:0:0:
256,192,73709,1,2,0:0:0:0:
256,192,73786,1,2,0:0:0:0:
256,192,73863,1,0,0:0:0:0:
256,192,73941,1,0,0:0:0:0:
256,192,74018,1,2,0:0:0:0:
256,192,74327,1,0,0:0:0:0:
256,192,74482,1,2,0:0:0:0:
256,192,74559,1,2,0:0:0:0:
256,192,74637,1,2,0:0:0:0:
256,192,74791,1,0,0:0:0:0:
256,192,75101,1,2,0:0:0:0:
256,192,75255,1,2,0:0:0:0:
256,192,75410,1,0,0:0:0:0:
256,192,75719,1,0,0:0:0:0:
256,192,75796,1,0,0:0:0:0:
256,192,75874,1,2,0:0:0:0:
256,192,76028,1,2,0:0:0:0:
256,192,76106,1,2,0:0:0:0:
256,192,76183,1,0,0:0:0:0:
256,192,76338,1,0,0:0:0:0:
256,192,76492,1,2,0:0:0:0:
256,192,76802,1,0,0:0:0:0:
256,192,77111,1,2,0:0:0:0:
256,192,77343,1,2,0:0:0:0:
256,192,77420,1,0,0:0:0:0:
256,192,77575,1,0,0:0:0:0:
256,192,77729,1,2,0:0:0:0:
256,192,77884,1,2,0:0:0:0:
256,192,78193,1,2,0:0:0:0:
256,192,78348,1,0,0:0:0:0:
256,192,78503,1,2,0:0:0:0:
256,192,78657,1,2,0:0:0:0:
256,192,78735,1,2,0:0:0:0:
256,192,78812,1,0,0:0:0:0:
256,192,78889,1,0,0:0:0:0:
256,192,78966,1,2,0:0:0:0:
256,192,79121,1,4,0:0:0:0:
256,192,79430,1,0,0:0:0:0:
256,192,79507,1,0,0:0:0:0:
256,192,79585,1,2,0:0:0:0:
256,192,79739,1,0,0:0:0:0:
256,192,79894,1,0,0:0:0:0:
256,192,79971,1,0,0:0:0:0:
256,192,80049,1,2,0:0:0:0:
256,192,80126,1,0,0:0:0:0:
256,192,80203,1,2,0:0:0:0:
256,192,80358,1,6,0:0:0:0:
256,192,80667,1,0,0:0:0:0:
256,192,80744,1,0,0:0:0:0:
256,192,80822,1,2,0:0:0:0:
256,192,80899,1,2,0:0:0:0:
256,192,80976,1,0,0:0:0:0:
256,192,81131,1,2,0:0:0:0:
256,192,81208,1,2,0:0:0:0:
256,192,81286,1,0,0:0:0:0:
256,192,81363,1,0,0:0:0:0:
256,192,81440,1,2,0:0:0:0:
256,192,81595,1,4,0:0:0:0:
256,192,81904,1,0,0:0:0:0:
256,192,81982,1,0,0:0:0:0:
256,192,82059,1,2,0:0:0:0:
256,192,82214,1,0,0:0:0:0:
256,192,82368,1,0,0:0:0:0:
256,192,82446,1,0,0:0:0:0:
256,192,82523,1,2,0:0:0:0:
256,192,82600,1,0,0:0:0:0:
256,192,82677,1,2,0:0:0:0:
256,192,82832,1,2,0:0:0:0:
256,192,83141,1,2,0:0:0:0:
256,192,83219,1,2,0:0:0:0:
256,192,83296,1,0,0:0:0:0:
256,192,83451,1,2,0:0:0:0:
256,192,83605,1,2,0:0:0:0:
256,192,83683,1,0,0:0:0:0:
256,192,83760,1,0,0:0:0:0:
256,192,83837,1,0,0:0:0:0:
256,192,83915,1,2,0:0:0:0:
256,192,84069,1,4,0:0:0:0:
256,192,84379,1,0,0:0:0:0:
256,192,84456,1,0,0:0:0:0:
256,192,84533,1,2,0:0:0:0:
256,192,84688,1,0,0:0:0:0:
256,192,84842,1,0,0:0:0:0:
256,192,84920,1,0,0:0:0:0:
256,192,84997,1,2,0:0:0:0:
256,192,85074,1,0,0:0:0:0:
256,192,85152,1,2,0:0:0:0:
256,192,85306,1,6,0:0:0:0:
256,192,85616,1,0,0:0:0:0:
256,192,85693,1,0,0:0:0:0:
256,192,85770,1,2,0:0:0:0:
256,192,85848,1,2,0:0:0:0:
256,192,85925,1,0,0:0:0:0:
256,192,86080,1,2,0:0:0:0:
256,192,86157,1,2,0:0:0:0:
256,192,86234,1,0,0:0:0:0:
256,192,86312,1,0,0:0:0:0:
256,192,86389,1,2,0:0:0:0:
256,192,86543,1,4,0:0:0:0:
256,192,86853,1,0,0:0:0:0:
256,192,86930,1,0,0:0:0:0:
256,192,87007,1,2,0:0:0:0:
256,192,87085,1,2,0:0:0:0:
256,192,87162,1,0,0:0:0:0:
256,192,87317,1,0,0:0:0:0:
256,192,87394,1,2,0:0:0:0:
256,192,87471,1,2,0:0:0:0:
256,192,87549,1,2,0:0:0:0:
256,192,87626,1,0,0:0:0:0:
256,192,87780,1,0,0:0:0:0:
256,192,88090,1,0,0:0:0:0:
256,192,88167,1,0,0:0:0:0:
256,192,88244,1,2,0:0:0:0:
256,192,88399,1,0,0:0:0:0:
256,192,88476,1,0,0:0:0:0:
256,192,88554,1,2,0:0:0:0:
256,192,88631,1,0,0:0:0:0:
256,192,88708,1,0,0:0:0:0:
256,192,88863,1,2,0:0:0:0:
256,192,89018,1,4,0:0:0:0:
256,192,89327,1,0,0:0:0:0:
256,192,89405,1,0,0:0:0:0:
256,192,89482,1,2,0:0:0:0:
256,192,89637,1,0,0:0:0:0:
256,192,89791,1,2,0:0:0:0:
256,192,89869,1,2,0:0:0:0:
256,192,89946,1,2,0:0:0:0:
256,192,90101,1,2,0:0:0:0:
256,192,90255,1,0,0:0:0:0:
256,192,90564,1,2,0:0:0:0:
256,192,90719,1,0,0:0:0:0:
256,192,90796,1,2,0:0:0:0:
256,192,90874,1,2,0:0:0:0:
256,192,90951,1,2,0:0:0:0:
256,192,91028,1,0,0:0:0:0:
254,197,91183,1,2,0:0:0:0:
254,197,91338,1,2,0:0:0:0:
256,192,91492,1,0,0:0:0:0:
256,192,91802,1,0,0:0:0:0:
256,192,91879,1,0,0:0:0:0:
256,192,91957,1,2,0:0:0:0:
256,192,92111,1,0,0:0:0:0:
256,192,92266,1,2,0:0:0:0:
256,192,92344,1,2,0:0:0:0:
256,192,92421,1,2,0:0:0:0:
256,192,92576,1,2,0:0:0:0:
256,192,92730,1,0,0:0:0:0:
256,192,93039,1,2,0:0:0:0:
256,192,93194,1,0,0:0:0:0:
256,192,93271,1,2,0:0:0:0:
256,192,93349,1,2,0:0:0:0:
256,192,93425,1,2,0:0:0:0:
256,192,93503,1,0,0:0:0:0:
256,192,93658,1,2,0:0:0:0:
256,192,93812,1,2,0:0:0:0:
256,192,93967,1,0,0:0:0:0:
256,192,94276,1,2,0:0:0:0:
256,192,94740,1,2,0:0:0:0:
256,192,95204,1,0,0:0:0:0:
256,192,95513,1,2,0:0:0:0:
256,192,95977,1,2,0:0:0:0:
256,192,96441,1,0,0:0:0:0:
256,192,96750,1,2,0:0:0:0:
256,192,97214,1,2,0:0:0:0:
256,192,97291,1,2,0:0:0:0:
256,192,97369,1,2,0:0:0:0:
256,192,97523,1,0,0:0:0:0:
256,192,97678,1,2,0:0:0:0:
