osu file format v14

[General]
AudioFilename: newaudio.ogg
AudioLeadIn: 0
PreviewTime: 59018
Countdown: 0
SampleSet: Normal
StackLeniency: 0.7
Mode: 1
LetterboxInBreaks: 0
WidescreenStoryboard: 1

[Editor]
DistanceSpacing: 0.8
BeatDivisor: 2
GridSize: 32
TimelineZoom: 1.7

[Metadata]
Title:Kuyamu to Kaite Mirai
TitleUnicode:悔やむと書いてミライ
Artist:Yoisaki Kanade (CV: Kusunoki Tomori)
ArtistUnicode:宵崎奏 (CV: 楠木ともり)
Creator:fanhoho
Version:Futsuu
Source:プロジェクトセカイ カラフルステージ! feat. 初音ミク
Tags:japanese j-rock jrock video game mafumafu まふまふ rhythm mobile Project Sekai colorful colourful stage puroseka proseka プロセカ hatsune miku Crypton Future Media Craft Egg Palette K 25時、ナイトコードで。 25-ji, naito koodo de. o'clock night code cord
BeatmapID:2810076
BeatmapSetID:1357866

[Difficulty]
HPDrainRate:7
CircleSize:5
OverallDifficulty:4
ApproachRate:5
SliderMultiplier:1.4
SliderTickRate:1

[Events]
//Background and Video events
0,0,"kanade.jpg",0,100
//Break Periods
//Storyboard Layer 0 (Background)
//Storyboard Layer 1 (Fail)
//Storyboard Layer 2 (Pass)
//Storyboard Layer 3 (Foreground)
//Storyboard Layer 4 (Overlay)
//Storyboard Sound Samples

[TimingPoints]
101,309.278350515464,4,1,0,60,1,0
8760,-100,4,1,0,80,0,0
29637,-100,4,1,0,60,0,0
29791,-100,4,1,0,60,0,0
49430,-99.9999999999999,4,1,0,70,0,0
59173,-99.9999999999999,4,1,0,50,0,0
59482,-99.9999999999999,4,1,0,80,0,1
69379,-99.9999999999999,4,1,0,80,0,0
69688,-99.9999999999999,4,1,0,80,0,1
79121,-99.9999999999999,4,1,0,80,0,0
89173,-99.9999999999999,4,1,0,60,0,0
93966,-99.9999999999999,4,1,0,40,0,0

[HitObjects]
256,192,8760,5,2,0:0:0:0:
256,192,9070,1,2,0:0:0:0:
256,192,9379,1,0,0:0:0:0:
256,192,9843,1,4,0:0:0:0:
256,192,10307,1,2,0:0:0:0:
256,192,10616,1,0,0:0:0:0:
256,192,10925,1,0,0:0:0:0:
256,192,11080,1,2,0:0:0:0:
256,192,11544,1,2,0:0:0:0:
256,192,11853,1,0,0:0:0:0:
256,192,12317,1,0,0:0:0:0:
256,192,12781,1,2,0:0:0:0:
256,192,13090,1,0,0:0:0:0:
256,192,13399,1,0,0:0:0:0:
256,192,13554,1,0,0:0:0:0:
256,192,14018,1,2,0:0:0:0:
256,192,14791,1,4,0:0:0:0:
256,192,15255,1,2,0:0:0:0:
256,192,15564,1,0,0:0:0:0:
256,192,15874,1,0,0:0:0:0:
256,192,16028,1,0,0:0:0:0:
256,192,16492,1,2,0:0:0:0:
256,192,16802,1,0,0:0:0:0:
256,192,17265,1,0,0:0:0:0:
256,192,17729,1,2,0:0:0:0:
256,192,18039,1,0,0:0:0:0:
256,192,18348,1,0,0:0:0:0:
256,192,18503,1,0,0:0:0:0:
256,192,19276,1,0,0:0:0:0:
256,192,19740,1,4,0:0:0:0:
256,192,20204,1,2,0:0:0:0:
256,192,20513,1,0,0:0:0:0:
256,192,20822,1,0,0:0:0:0:
256,192,20977,1,2,0:0:0:0:
256,192,21441,1,2,0:0:0:0:
256,192,21750,1,0,0:0:0:0:
256,192,22214,1,0,0:0:0:0:
256,192,22678,1,2,0:0:0:0:
256,192,22987,1,0,0:0:0:0:
256,192,23296,1,0,0:0:0:0:
256,192,23451,1,0,0:0:0:0:
256,192,23915,1,2,0:0:0:0:
256,192,24688,1,4,0:0:0:0:
256,192,25152,1,2,0:0:0:0:
256,192,25461,1,0,0:0:0:0:
256,192,25771,1,0,0:0:0:0:
256,192,25925,1,0,0:0:0:0:
256,192,26389,1,2,0:0:0:0:
256,192,26698,1,0,0:0:0:0:
256,192,27162,1,0,0:0:0:0:
256,192,27626,1,2,0:0:0:0:
256,192,27936,1,0,0:0:0:0:
256,192,28245,1,0,0:0:0:0:
256,192,28399,1,0,0:0:0:0:
256,192,29173,1,0,0:0:0:0:
256,192,29637,1,4,0:0:0:0:
256,192,30101,1,2,0:0:0:0:
256,192,30410,1,2,0:0:0:0:
256,192,30874,1,0,0:0:0:0:
256,192,31338,1,0,0:0:0:0:
256,192,31647,1,2,0:0:0:0:
256,192,31956,1,0,0:0:0:0:
256,192,32575,1,0,0:0:0:0:
256,192,32884,1,2,0:0:0:0:
256,192,33348,1,0,0:0:0:0:
256,192,33812,1,2,0:0:0:0:
256,192,34121,1,2,0:0:0:0:
256,192,34430,1,0,0:0:0:0:
256,192,35049,1,0,0:0:0:0:
256,192,35358,1,2,0:0:0:0:
256,192,35822,1,0,0:0:0:0:
256,192,36286,1,2,0:0:0:0:
256,192,36595,1,2,0:0:0:0:
256,192,36905,1,0,0:0:0:0:
256,192,37523,1,0,0:0:0:0:
256,192,37832,1,2,0:0:0:0:
256,192,38296,1,0,0:0:0:0:
256,192,39070,1,2,0:0:0:0:
256,192,39533,1,4,0:0:0:0:
256,192,39997,1,2,0:0:0:0:
256,192,40307,1,2,0:0:0:0:
256,192,40771,1,0,0:0:0:0:
256,192,41235,1,2,0:0:0:0:
256,192,41544,1,2,0:0:0:0:
256,192,42162,1,0,0:0:0:0:
256,192,42472,1,0,0:0:0:0:
256,192,42781,1,2,0:0:0:0:
256,192,43245,1,0,0:0:0:0:
256,192,43709,1,2,0:0:0:0:
256,192,44018,1,2,0:0:0:0:
256,192,44637,1,0,0:0:0:0:
256,192,44946,1,0,0:0:0:0:
256,192,45255,1,2,0:0:0:0:
256,192,45719,1,0,0:0:0:0:
256,192,46183,1,2,0:0:0:0:
256,192,46492,1,2,0:0:0:0:
256,192,47111,1,0,0:0:0:0:
256,192,47420,1,0,0:0:0:0:
256,192,47729,1,2,0:0:0:0:
256,192,48193,1,0,0:0:0:0:
256,192,48966,1,0,0:0:0:0:
256,192,49430,1,6,0:0:0:0:
256,192,49894,1,2,0:0:0:0:
256,192,50204,1,0,0:0:0:0:
256,192,50513,1,2,0:0:0:0:
256,192,50668,1,2,0:0:0:0:
256,192,51131,1,2,0:0:0:0:
256,192,51441,1,0,0:0:0:0:
256,192,51905,1,4,0:0:0:0:
256,192,52369,1,2,0:0:0:0:
256,192,52523,1,2,0:0:0:0:
256,192,52832,1,2,0:0:0:0:
256,192,53142,1,0,0:0:0:0:
256,192,53760,1,0,0:0:0:0:
256,192,54379,1,4,0:0:0:0:
256,192,54843,1,2,0:0:0:0:
256,192,55152,1,0,0:0:0:0:
256,192,55307,1,2,0:0:0:0:
256,192,55616,1,4,0:0:0:0:
256,192,56080,1,0,0:0:0:0:
256,192,56235,1,2,0:0:0:0:
256,192,56544,1,2,0:0:0:0:
256,192,56853,1,4,0:0:0:0:
256,192,57162,1,0,0:0:0:0:
256,192,57317,1,0,0:0:0:0:
256,192,57626,1,0,0:0:0:0:
256,192,58090,1,2,0:0:0:0:
256,192,58863,1,2,0:0:0:0:
256,192,59173,1,0,0:0:0:0:
256,192,59482,5,4,0:0:0:0:
256,192,59637,1,2,0:0:0:0:
256,192,59946,1,0,0:0:0:0:
256,192,60101,1,0,0:0:0:0:
256,192,60255,1,2,0:0:0:0:
256,192,60564,1,0,0:0:0:0:
256,192,60874,1,0,0:0:0:0:
256,192,61028,1,2,0:0:0:0:
256,192,61183,1,2,0:0:0:0:
256,192,61492,1,0,0:0:0:0:
256,192,61802,1,2,0:0:0:0:
256,192,61956,1,0,0:0:0:0:
256,192,62265,1,0,0:0:0:0:
256,192,62575,1,2,0:0:0:0:
256,192,62884,1,0,0:0:0:0:
256,192,63039,1,2,0:0:0:0:
256,192,63348,1,0,0:0:0:0:
256,192,63503,1,2,0:0:0:0:
256,192,63812,1,0,0:0:0:0:
256,192,64430,1,0,0:0:0:0:
256,192,64585,1,2,0:0:0:0:
256,192,64894,1,0,0:0:0:0:
256,192,65049,1,0,0:0:0:0:
256,192,65204,1,2,0:0:0:0:
256,192,65513,1,0,0:0:0:0:
256,192,65822,1,0,0:0:0:0:
256,192,65977,1,2,0:0:0:0:
256,192,66131,1,2,0:0:0:0:
256,192,66750,1,2,0:0:0:0:
256,192,66905,1,0,0:0:0:0:
256,192,67214,1,2,0:0:0:0:
256,192,67523,1,0,0:0:0:0:
256,192,67832,1,0,0:0:0:0:
256,192,67987,1,2,0:0:0:0:
256,192,68296,1,2,0:0:0:0:
256,192,68451,1,2,0:0:0:0:
256,192,68606,1,2,0:0:0:0:
256,192,69070,1,2,0:0:0:0:
256,192,69688,1,6,0:0:0:0:
256,192,69997,1,0,0:0:0:0:
256,192,70152,1,2,0:0:0:0:
256,192,70461,1,2,0:0:0:0:
256,192,70771,1,0,0:0:0:0:
256,192,70925,1,2,0:0:0:0:
256,192,71080,1,2,0:0:0:0:
256,192,71389,1,2,0:0:0:0:
256,192,71698,1,0,0:0:0:0:
256,192,71853,1,0,0:0:0:0:
256,192,72162,1,2,0:0:0:0:
256,192,72317,1,0,0:0:0:0:
256,192,72472,1,0,0:0:0:0:
256,192,72781,1,0,0:0:0:0:
256,192,72936,1,2,0:0:0:0:
256,192,73399,1,2,0:0:0:0:
256,192,73709,1,2,0:0:0:0:
256,192,74018,1,2,0:0:0:0:
256,192,74327,1,0,0:0:0:0:
256,192,74791,1,0,0:0:0:0:
256,192,75101,1,2,0:0:0:0:
256,192,75410,1,2,0:0:0:0:
256,192,75874,1,2,0:0:0:0:
256,192,76183,1,0,0:0:0:0:
256,192,76338,1,0,0:0:0:0:
256,192,76492,1,2,0:0:0:0:
256,192,76802,1,0,0:0:0:0:
256,192,77111,1,2,0:0:0:0:
256,192,77420,1,0,0:0:0:0:
256,192,77729,1,0,0:0:0:0:
256,192,77884,1,2,0:0:0:0:
256,192,78193,1,2,0:0:0:0:
256,192,78503,1,2,0:0:0:0:
256,192,79121,1,4,0:0:0:0:
256,192,79585,1,2,0:0:0:0:
256,192,79894,1,0,0:0:0:0:
256,192,80204,1,0,0:0:0:0:
256,192,80358,1,2,0:0:0:0:
256,192,80822,1,2,0:0:0:0:
256,192,81131,1,0,0:0:0:0:
256,192,81595,1,0,0:0:0:0:
256,192,82059,1,2,0:0:0:0:
256,192,82369,1,0,0:0:0:0:
256,192,82678,1,0,0:0:0:0:
256,192,82832,1,2,0:0:0:0:
256,192,83296,1,2,0:0:0:0:
256,192,83606,1,2,0:0:0:0:
256,192,84070,1,4,0:0:0:0:
256,192,84533,1,2,0:0:0:0:
256,192,84843,1,0,0:0:0:0:
256,192,85152,1,0,0:0:0:0:
256,192,85307,1,2,0:0:0:0:
256,192,85771,1,2,0:0:0:0:
256,192,86080,1,0,0:0:0:0:
256,192,86544,1,0,0:0:0:0:
256,192,87008,1,2,0:0:0:0:
256,192,87317,1,0,0:0:0:0:
256,192,87626,1,0,0:0:0:0:
256,192,87781,1,0,0:0:0:0:
256,192,88245,1,2,0:0:0:0:
256,192,88554,1,2,0:0:0:0:
256,192,89018,5,4,0:0:0:0:
256,192,89791,1,2,0:0:0:0:
256,192,90255,5,0,0:0:0:0:
256,192,90564,1,2,0:0:0:0:
256,192,91028,1,2,0:0:0:0:
256,192,91492,1,0,0:0:0:0:
256,192,91802,5,0,0:0:0:0:
256,192,92265,1,2,0:0:0:0:
256,192,92729,1,0,0:0:0:0:
256,192,93039,1,2,0:0:0:0:
256,192,93503,1,2,0:0:0:0:
256,192,93966,1,0,0:0:0:0:
256,192,94740,1,2,0:0:0:0:
256,192,95204,1,0,0:0:0:0:
256,192,96441,1,0,0:0:0:0:
256,192,97214,1,2,0:0:0:0:
256,192,97678,1,2,0:0:0:0:
