osu file format v14

[General]
AudioFilename: audio.mp3
AudioLeadIn: 0
PreviewTime: 58791
Countdown: 0
SampleSet: Soft
StackLeniency: 0.5
Mode: 0
LetterboxInBreaks: 0
WidescreenStoryboard: 1

[Editor]
Bookmarks: 10791,20391,29991,39591,49191,58791,68391,77991,87591,97191
DistanceSpacing: 1
BeatDivisor: 4
GridSize: 4
TimelineZoom: 3.199999

[Metadata]
Title:Inochi ni Kirawarete Iru.
TitleUnicode:命に嫌われている。
Artist:Yoisaki Kanade (CV: Kusunoki Tomori)
ArtistUnicode:宵崎奏 (CV: 楠木ともり)
Creator:Kudou Chitose
Version:Insane.
Source:プロジェクトセカイ カラフルステージ! feat. 初音ミク
Tags:HATSUNE MIKU: COLORFUL STAGE! 25時、ナイトコードで。 25-ji, Nightcord de. at 25:00 ニーゴ ni-go NightCode Project Sekai プロセカ Proseka Puroseka hated by life itself kanzaki iori カンザキイオリ かんざきいおり vocaloid 初音ミク hatsune miku japanese rock jrock j-rock cover female vocals kamitsubaki studio tomoriru game ver. version mrrrk
BeatmapID:3706075
BeatmapSetID:1789145

[Difficulty]
HPDrainRate:6
CircleSize:4
OverallDifficulty:8
ApproachRate:9
SliderMultiplier:1.4
SliderTickRate:1

[Events]
//Background and Video events
0,0,"91867294_p0.jpg",0,0
//Break Periods
//Storyboard Layer 0 (Background)
//Storyboard Layer 1 (Fail)
//Storyboard Layer 2 (Pass)
//Storyboard Layer 3 (Foreground)
//Storyboard Layer 4 (Overlay)
//Storyboard Sound Samples

[TimingPoints]
574,306.122448979592,4,2,1,50,1,0
3307,306.122448979592,4,2,1,50,1,0
5084,300,4,2,1,50,1,0
7184,298.507462686567,4,2,1,50,1,0
10169,324.324324324324,4,2,1,50,1,0
10475,300,4,2,1,50,1,0
10791,300,4,2,1,60,1,0
10791,-125,4,2,1,60,0,0
20391,-100,4,2,1,70,0,0
39591,-111.111111111111,4,2,1,75,0,0
48291,-111.111111111111,4,2,1,75,0,0
49191,-100,4,2,1,80,0,0
55191,-90.9090909090909,4,2,1,80,0,0
56391,-90.9090909090909,4,2,1,85,0,0
57591,-90.9090909090909,4,2,1,90,0,0
58191,-90.9090909090909,4,2,1,95,0,0
58791,-83.3333333333333,4,2,1,95,0,1
68391,-90.9090909090909,4,2,1,95,0,1
72891,-83.3333333333333,4,2,1,95,0,1
73191,-90.9090909090909,4,2,1,95,0,1
77691,-100,4,2,1,95,0,1
77991,-100,4,2,1,60,0,0

[Colours]
Combo1 : 128,198,232
Combo2 : 220,233,243
Combo3 : 174,163,237
Combo4 : 51,74,119

[HitObjects]
12,36,574,5,2,0:0:0:0:
67,79,880,1,2,0:0:0:0:
77,10,1186,1,2,0:0:0:0:
2,105,1645,5,2,0:0:0:0:
46,217,2104,5,2,0:0:0:0:
56,148,2410,1,2,0:0:0:0:
100,260,2869,5,2,0:0:0:0:
218,277,3307,5,2,0:0:0:0:
153,303,3613,1,2,0:0:0:0:
153,303,5084,5,2,0:0:0:0:
218,277,5384,1,2,0:0:0:0:
227,207,5684,1,2,0:0:0:0:
170,164,5984,1,2,0:0:0:0:
170,164,6884,5,2,0:0:0:0:
227,207,7184,1,2,0:0:0:0:
183,95,7631,5,2,0:0:0:0:
257,0,8079,5,2,0:0:0:0:
248,70,8378,1,2,0:0:0:0:
248,70,9572,5,2,0:0:0:0:
248,70,10169,5,8,0:1:0:0:
183,95,10331,1,2,0:0:0:0:
313,45,10475,1,8,0:0:0:0:
317,16,10791,6,0,B|329:67|329:67|311:128,1,112,12|2,0:1|0:0,0:0:0:0:
286,200,11241,1,8,1:0:0:0:
298,212,11391,1,8,0:1:0:0:
176,83,11691,5,2,0:0:0:0:
417,0,11991,6,0,P|440:52|494:84,1,112,8|2,0:1|0:0,0:0:0:0:
431,146,12441,1,8,1:0:0:0:
431,146,12591,2,0,P|405:130|376:102,1,56,8|0,0:1|0:0,0:0:0:0:
512,160,12891,2,0,P|511:190|501:229,1,56,2|0,0:0|0:0,0:0:0:0:
446,268,13191,1,2,0:0:0:0:
288,301,13491,5,2,0:0:0:0:
259,370,13641,1,8,1:0:0:0:
334,361,13791,2,0,P|306:316|303:255,3,112,8|8|8|8,0:1|0:1|0:1|0:1,0:0:0:0:
365,85,14991,5,8,0:1:0:0:
302,258,15291,5,12,0:1:0:0:
183,116,15591,6,0,P|127:110|70:116,1,112,8|2,0:1|0:0,0:0:0:0:
71,191,16041,1,8,1:0:0:0:
71,191,16191,2,0,P|127:197|184:191,2,112,8|2|8,0:1|0:0|0:1,0:0:0:0:
4,149,16941,1,2,0:0:0:0:
4,149,17091,1,2,0:0:0:0:
43,88,17241,2,0,P|22:166|30:255,1,168,8|8,1:0|0:1,0:0:0:0:
207,203,17991,5,8,0:1:0:0:
181,384,18291,5,2,0:0:0:0:
140,318,18441,1,8,1:0:0:0:
217,315,18591,2,0,P|177:354|117:375,1,112,8|8,0:1|0:0,0:0:0:0:
258,381,19191,5,8,0:1:0:0:
176,249,19491,5,8,0:1:0:0:
249,111,19791,5,8,0:1:0:0:
405,105,20091,5,12,0:1:0:0:
488,237,20391,6,0,P|475:269|443:292,1,70,8|2,0:1|0:0,0:0:0:0:
375,313,20691,1,8,0:1:0:0:
423,367,20841,1,8,1:0:0:0:
384,241,20991,2,0,P|423:300|417:385,1,140,8|8,0:1|0:1,0:0:0:0:
273,272,21441,1,2,0:0:0:0:
247,235,21591,5,8,0:1:0:0:
254,311,21741,1,2,0:0:0:0:
317,267,21891,2,0,P|286:329|227:364,1,140,8|8,0:1|0:1,0:0:0:0:
384,241,22491,5,8,1:0:0:0:
356,42,22791,6,0,P|361:76|353:116,1,70,8|2,0:1|0:0,0:0:0:0:
299,161,23091,1,2,0:0:0:0:
299,161,23241,1,8,1:0:0:0:
428,136,23391,6,0,P|359:127|299:161,1,140,8|8,0:1|0:1,0:0:0:0:
306,239,23841,1,2,0:0:0:0:
306,239,23991,2,0,P|278:261|246:272,1,70,8|2,0:1|0:0,0:0:0:0:
173,249,24291,2,0,P|232:284|259:347,2,140,8|8|8,0:1|0:1|0:1,0:0:0:0:
0,384,25191,6,0,P|41:329|42:261,1,140,8|8,0:1|0:1,0:0:0:0:
104,215,25641,1,8,1:0:0:0:
104,215,25791,2,0,P|94:179|71:150,1,70,8|2,0:1|0:0,0:0:0:0:
4,129,26091,1,8,1:0:0:0:
4,129,26391,6,0,P|72:137|132:103,1,140,8|8,0:1|0:1,0:0:0:0:
211,94,26841,1,8,1:0:0:0:
211,94,26991,2,0,P|217:59|211:25,1,70,8|0,0:1|0:0,0:0:0:0:
179,166,27291,5,8,1:0:0:0:
257,156,27441,1,2,0:0:0:0:
304,218,27591,2,0,P|299:150|350:103,1,140,8|8,0:1|0:1,0:0:0:0:
402,257,28041,2,0,P|451:210|446:143,1,140,2|0,0:0|0:0,0:0:0:0:
375,181,28491,1,8,1:0:0:0:
289,42,28791,5,8,0:1:0:0:
129,45,29091,5,8,1:0:0:0:
50,186,29391,6,0,P|46:256|68:322,2,140,8|12|8,0:1|0:1|0:1,0:0:0:0:
103,128,30141,2,0,P|120:96|123:58,1,70,2|8,0:0|0:1,0:0:0:0:
126,202,30441,1,8,1:0:0:0:
193,188,30591,2,0,P|161:201|126:202,1,70,8|0,0:1|0:0,0:0:0:0:
72,259,30891,1,8,1:0:0:0:
50,186,31041,1,2,0:0:0:0:
72,259,31191,6,0,P|90:288|118:309,1,70,8|2,0:1|0:0,0:0:0:0:
93,384,31491,2,0,P|130:327|197:312,1,140,8|8,0:1|0:1,0:0:0:0:
385,384,32091,5,8,0:1:0:0:
461,363,32241,1,2,0:0:0:0:
385,384,32391,2,0,P|356:360|340:322,1,70,8|2,0:1|0:0,0:0:0:0:
274,287,32691,2,0,P|280:249|305:217,1,70,8|8,0:1|1:0,0:0:0:0:
381,205,32991,1,8,0:1:0:0:
381,205,33141,1,2,0:0:0:0:
324,142,33291,5,8,0:1:0:0:
407,125,33441,1,2,0:0:0:0:
324,142,33591,2,0,P|288:155|247:149,1,70,8|2,0:1|0:0,0:0:0:0:
191,107,33891,2,0,P|234:159|225:226,1,140,8|8,1:0|0:1,0:0:0:0:
279,35,34491,5,8,0:1:0:0:
354,0,34641,1,2,0:0:0:0:
421,47,34791,2,0,P|432:118|486:165,1,140,8|8,0:1|0:1,0:0:0:0:
480,162,35241,1,8,1:0:0:0:
475,243,35391,1,8,0:1:0:0:
407,198,35541,1,2,0:0:0:0:
411,116,35691,1,8,0:1:0:0:
411,116,35991,6,0,P|392:181|345:249,2,140,8|8|8,0:1|0:1|0:1,0:0:0:0:
174,9,36891,6,0,P|195:36|221:59,1,70,8|0,0:1|0:0,0:0:0:0:
297,59,37191,2,0,P|262:64|164:117,1,140,8|8,0:1|0:1,0:0:0:0:
146,196,37641,1,8,1:0:0:0:
146,196,37941,5,2,0:0:0:0:
170,112,38091,1,8,1:0:0:0:
0,0,38391,5,8,0:1:0:0:
62,218,38691,5,8,0:1:0:0:
281,273,38991,5,8,0:1:0:0:
438,110,39291,5,12,0:1:0:0:
219,55,39591,5,12,0:1:0:0:
295,28,39741,1,2,0:0:0:0:
295,28,40041,5,8,0:1:0:0:
219,55,40191,2,0,P|220:87|234:120,1,62.9999980773926,2|2,0:0|0:0,0:0:0:0:
193,181,40491,2,0,P|221:196|256:200,1,62.9999980773926,8|2,0:0|0:0,0:0:0:0:
319,240,40791,2,0,P|346:223|372:119,1,125.999996154785,8|8,0:1|1:0,0:0:0:0:
442,89,41241,1,8,0:1:0:0:
442,89,41391,2,0,P|454:119|456:166,1,62.9999980773926,2|0,0:0|0:0,0:0:0:0:
407,215,41691,1,8,1:0:0:0:
512,384,41991,5,8,0:1:0:0:
477,300,42141,1,2,0:0:0:0:
425,359,42291,5,2,0:0:0:0:
475,350,42441,1,8,0:1:0:0:
335,348,42591,5,2,0:0:0:0:
335,348,42741,2,0,P|304:356|272:354,1,62.9999980773926,2|8,0:0|0:0,0:0:0:0:
202,302,43041,1,2,0:0:0:0:
122,338,43191,1,8,0:1:0:0:
202,302,43341,1,8,0:1:0:0:
100,196,43491,6,0,P|110:225|130:250,1,62.9999980773926,8|2,1:0|0:0,0:0:0:0:
271,215,43791,2,0,P|240:209|209:213,1,62.9999980773926,8|2,1:0|0:0,0:0:0:0:
202,302,44091,1,8,0:0:0:0:
126,89,44391,5,8,0:1:0:0:
197,135,44541,1,2,0:0:0:0:
201,50,44691,1,2,0:0:0:0:
175,91,44841,5,8,0:1:0:0:
130,4,44991,2,0,P|194:20|256:13,1,125.999996154785,2|8,0:0|0:0,0:0:0:0:
303,83,45441,1,2,0:0:0:0:
303,83,45591,2,0,P|361:75|431:98,1,125.999996154785,8|2,0:1|0:0,0:0:0:0:
436,18,46041,1,8,0:1:0:0:
424,94,46191,2,0,P|417:124|401:153,1,62.9999980773926,2|0,0:0|0:0,0:0:0:0:
498,68,46491,1,8,1:0:0:0:
138,21,46791,6,0,P|150:84|136:155,1,125.999996154785,8|0,0:1|0:0,0:0:0:0:
77,85,47241,1,8,0:1:0:0:
15,25,47391,2,0,P|5:86|17:148,1,125.999996154785,2|8,0:0|0:0,0:0:0:0:
81,208,47841,1,2,0:0:0:0:
251,194,47991,6,0,P|202:157|125:145,1,125.999996154785,8|8,0:1|1:0,0:0:0:0:
81,208,48441,1,8,0:1:0:0:
16,71,48591,6,0,P|46:82|82:84,1,62.9999980773926,8|0,1:0|0:0,0:0:0:0:
138,21,48891,1,8,0:0:0:0:
139,275,49191,5,12,0:1:0:0:
81,339,49341,1,2,0:0:0:0:
81,339,49641,5,2,0:0:0:0:
139,275,49791,1,8,0:1:0:0:
223,293,49941,1,2,0:0:0:0:
249,374,50091,1,8,0:1:0:0:
249,374,50241,1,2,0:0:0:0:
281,230,50391,6,0,P|291:197|286:158,1,70,8|2,0:1|0:0,0:0:0:0:
339,92,50691,2,0,P|315:66|279:51,1,70,8|2,0:1|0:0,0:0:0:0:
210,95,50991,1,8,0:1:0:0:
443,309,51291,5,8,0:0:0:0:
512,0,51591,6,0,P|496:33|495:75,1,70,8|2,0:1|0:0,0:0:0:0:
512,140,51891,1,8,0:1:0:0:
396,90,52041,5,2,0:0:0:0:
396,90,52191,2,0,P|464:91|512:140,1,140,8|8,0:1|0:1,0:0:0:0:
493,217,52641,1,2,0:0:0:0:
377,204,52791,6,0,P|390:235|386:270,1,70,8|2,0:1|0:0,0:0:0:0:
305,307,53091,1,8,0:1:0:0:
257,362,53241,1,2,0:0:0:0:
329,377,53391,6,0,P|315:345|319:310,1,70,8|0,0:1|0:0,0:0:0:0:
461,283,53691,1,8,0:0:0:0:
87,225,53991,5,8,0:1:0:0:
159,187,54141,1,2,0:0:0:0:
162,105,54291,1,8,0:1:0:0:
159,187,54441,1,2,0:0:0:0:
159,187,54741,5,2,0:0:0:0:
90,143,54891,1,8,0:1:0:0:
93,61,55041,1,2,0:0:0:0:
165,23,55191,6,0,P|236:48|315:36,2,154.000004699707,8|8|8,0:1|0:1|0:1,0:0:0:0:
93,61,55941,1,8,0:0:0:0:
93,61,56091,1,2,0:0:0:0:
313,240,56391,6,0,P|289:273|243:299,1,77.0000023498536,8|0,0:1|0:0,0:0:0:0:
164,275,56691,1,8,0:1:0:0:
421,384,56991,5,8,0:1:0:0:
387,107,57291,1,8,0:1:0:0:
378,184,57441,1,2,0:0:0:0:
325,61,57591,6,0,B|308:54|308:54|287:57,3,38.5000011749268,8|8|8|8,0:0|0:0|0:0|0:0,0:0:0:0:
296,137,57891,5,8,0:1:0:0:
286,151,57966,5,8,0:1:0:0:
268,148,58041,5,8,0:1:0:0:
258,162,58116,5,8,0:1:0:0:
240,159,58191,6,0,L|233:112,1,38.5000011749268,8|8,0:0|0:1,0:0:0:0:
162,39,58341,2,0,L|168:78,1,38.5000011749268,8|8,0:1|0:1,0:0:0:0:
97,115,58491,2,0,L|102:153,1,38.5000011749268,8|8,0:0|0:0,0:0:0:0:
171,207,58641,5,8,0:0:0:0:
166,226,58716,5,8,0:0:0:0:
157,232,58791,5,12,0:1:0:0:
83,253,58941,1,2,0:0:0:0:
213,286,59091,2,0,P|251:302|286:333,1,83.9999974365235,8|2,0:0|0:0,0:0:0:0:
404,233,59391,5,8,0:1:0:0:
442,316,59541,1,8,0:1:0:0:
442,154,59691,5,2,0:0:0:0:
389,228,59841,1,8,0:0:0:0:
405,72,59991,6,0,P|346:71|271:33,1,125.999996154785,8|0,0:1|0:0,0:0:0:0:
276,12,60291,2,0,P|263:53|219:89,1,83.9999974365235,8|0,0:0|0:0,0:0:0:0:
141,72,60591,1,8,0:1:0:0:
371,312,60891,5,8,0:1:0:0:
378,319,60966,5,2,0:0:0:0:
381,310,61041,5,2,0:0:0:0:
325,369,61191,6,0,P|347:317|331:242,1,125.999996154785,8|0,0:1|0:0,0:0:0:0:
342,224,61491,2,0,P|306:245|260:248,1,83.9999974365235,8|2,0:0|0:0,0:0:0:0:
188,202,61791,1,8,0:1:0:0:
186,290,61941,1,8,0:1:0:0:
186,290,62091,1,8,0:0:0:0:
188,202,62241,1,8,0:1:0:0:
278,366,62391,5,2,0:0:0:0:
186,310,62541,1,8,0:1:0:0:
93,361,62691,1,12,0:0:0:0:
419,23,62991,5,8,0:0:0:0:
328,9,63141,1,8,0:1:0:0:
269,80,63291,1,8,0:0:0:0:
302,166,63441,5,8,0:0:0:0:
309,168,63516,5,8,0:0:0:0:
308,162,63591,6,0,P|303:121|274:84,1,83.9999974365235,12|2,0:1|0:0,0:0:0:0:
185,75,63891,1,8,0:0:0:0:
110,149,64041,5,8,0:1:0:0:
107,158,64116,5,8,0:1:0:0:
101,152,64191,6,0,P|147:171|224:157,1,125.999996154785,8|0,0:1|0:0,0:0:0:0:
225,139,64491,2,0,P|204:178|210:222,1,83.9999974365235,2|8,0:0|0:0,0:0:0:0:
32,290,64791,5,2,0:0:0:0:
111,335,64941,1,8,0:1:0:0:
32,380,65091,2,0,P|73:324|76:228,1,167.999994873047,8|8,0:0|0:1,0:0:0:0:
445,76,65691,6,0,P|430:115|439:163,1,83.9999974365235,8|0,0:0|0:0,0:0:0:0:
450,173,65916,5,8,0:0:0:0:
471,173,65991,6,0,P|383:186|315:260,1,167.999994873047,12|8,0:1|0:0,0:0:0:0:
360,336,66441,1,2,0:0:0:0:
152,48,66741,5,8,0:1:0:0:
59,77,66891,5,8,0:0:0:0:
144,69,67041,1,2,0:0:0:0:
193,138,67191,2,0,B|201:177|201:177|163:207,1,83.9999974365235,8|8,0:0|0:1,0:0:0:0:
313,169,67491,2,0,B|275:156|275:156|268:108,1,83.9999974365235,8|0,0:0|0:0,0:0:0:0:
256,250,67791,5,8,0:0:0:0:
242,273,67866,5,8,0:0:0:0:
257,288,67941,5,8,0:1:0:0:
253,298,68016,5,8,0:1:0:0:
257,304,68091,6,0,B|254:330|254:330|238:352,1,41.9999987182618,8|8,0:1|0:1,0:0:0:0:
325,346,68241,2,0,B|328:372|328:372|344:394,1,41.9999987182618,8|8,1:0|0:1,0:0:0:0:
389,311,68391,5,12,0:1:0:0:
427,244,68541,1,2,0:0:0:0:
388,178,68691,1,8,0:0:0:0:
388,178,68841,1,2,0:0:0:0:
425,111,68991,6,0,P|392:132|347:137,1,77.0000023498536,8|2,0:1|0:0,0:0:0:0:
277,163,69291,2,0,P|242:144|215:108,1,77.0000023498536,8|2,0:1|0:0,0:0:0:0:
195,41,69591,6,0,P|210:105|155:189,2,154.000004699707,8|8|8,0:1|0:0|0:1,0:0:0:0:
317,343,70491,5,8,0:1:0:0:
241,313,70641,1,2,0:0:0:0:
177,363,70791,5,8,0:1:0:0:
177,363,70941,1,2,0:0:0:0:
107,327,71091,1,8,0:0:0:0:
104,247,71241,1,2,0:0:0:0:
104,247,71391,2,0,P|103:286|74:322,1,77.0000023498536,8|2,0:1|0:0,0:0:0:0:
190,248,71691,5,8,0:0:0:0:
247,199,71841,1,2,0:0:0:0:
233,125,71991,2,0,P|244:162|281:189,1,77.0000023498536,8|2,0:1|0:0,0:0:0:0:
334,247,72291,1,8,0:0:0:0:
417,223,72441,1,2,0:0:0:0:
331,262,72591,5,8,0:1:0:0:
377,26,72891,6,0,P|354:89|361:154,1,125.999996154785,12|0,0:1|0:0,0:0:0:0:
378,158,73191,2,0,P|415:146|448:108,1,77.0000023498536,8|2,0:1|0:0,0:0:0:0:
283,73,73491,1,8,0:0:0:0:
194,99,73641,5,8,0:1:0:0:
186,110,73716,5,8,0:1:0:0:
200,112,73791,5,8,0:1:0:0:
208,20,73941,1,2,0:0:0:0:
283,73,74091,1,8,0:0:0:0:
274,164,74241,1,2,0:0:0:0:
300,65,74391,5,8,0:1:0:0:
289,174,74541,1,2,0:0:0:0:
189,218,74691,1,8,0:0:0:0:
6,88,74916,5,8,0:1:0:0:
22,79,74991,6,0,P|5:138|15:202,1,115.50000352478,8|0,0:1|0:0,0:0:0:0:
30,201,75291,2,0,P|67:189|108:153,1,77.0000023498536,8|0,0:0|0:0,0:0:0:0:
123,158,75516,5,0,0:0:0:0:
135,163,75591,5,8,0:1:0:0:
189,218,75741,1,2,0:0:0:0:
168,292,75891,1,8,0:0:0:0:
93,310,76041,5,8,0:1:0:0:
88,307,76116,5,8,0:1:0:0:
85,313,76191,6,0,P|125:313|166:336,1,77.0000023498536,8|8,0:1|0:1,0:0:0:0:
230,384,76491,1,8,0:0:0:0:
362,355,76641,5,8,0:1:0:0:
375,345,76716,5,8,0:1:0:0:
378,331,76791,6,0,B|379:310|379:310|368:289,1,38.5000011749268,8|8,0:0|0:0,0:0:0:0:
303,258,76941,5,8,0:1:0:0:
290,248,77016,5,8,0:1:0:0:
287,234,77091,6,0,B|286:213|286:213|297:192,3,38.5000011749268,8|8|8|8,0:0|0:1|0:1|0:1,0:0:0:0:
314,124,77391,6,0,L|353:115,1,38.5000011749268,8|8,0:1|0:1,0:0:0:0:
462,129,77541,2,0,L|424:137,1,38.5000011749268,8|8,0:1|0:1,0:0:0:0:
370,189,77691,1,12,0:0:0:0:
0,21,77991,6,0,P|66:30|132:66,1,140,2|8,0:0|0:1,0:0:0:0:
209,45,78441,1,8,1:0:0:0:
209,45,78591,2,0,P|261:85|300:149,2,140,8|8|8,0:1|1:0|0:1,0:0:0:0:
129,64,79341,1,2,0:0:0:0:
325,69,79641,5,0,1:0:0:0:
382,129,79791,2,0,P|407:190|409:265,1,140,8|8,0:1|1:0,0:0:0:0:
406,50,80391,5,8,0:1:0:0:
406,50,80691,5,8,0:1:0:0:
463,110,80841,2,0,P|454:175|418:242,1,140,8|0,1:0|0:0,0:0:0:0:
336,247,81291,1,8,1:0:0:0:
336,247,81741,5,2,0:0:0:0:
336,247,82191,6,0,P|395:210|438:156,1,140,8|8,0:1|0:1,0:0:0:0:
487,31,82791,1,8,0:1:0:0:
487,31,83241,5,8,1:0:0:0:
463,110,83391,2,0,P|398:135|328:137,2,140,8|8|8,0:1|1:0|0:1,0:0:0:0:
328,137,84441,5,8,1:0:0:0:
304,216,84591,2,0,P|235:206|173:172,2,140,8|8|8,0:1|1:0|0:1,0:0:0:0:
90,384,86391,6,0,P|35:340|0:281,3,140,8|8|8|12,0:1|1:0|1:0|1:0,0:0:0:0:
36,182,87591,6,0,P|37:251|63:316,1,140,8|8,0:1|0:1,0:0:0:0:
136,327,88041,1,8,1:0:0:0:
136,327,88191,1,8,0:1:0:0:
36,182,88491,5,8,1:0:0:0:
111,23,88791,5,8,0:1:0:0:
111,23,88941,1,2,0:0:0:0:
184,34,89091,1,8,0:1:0:0:
137,91,89241,1,8,1:0:0:0:
184,34,89391,6,0,P|150:95|140:164,2,140,8|8|8,0:1|1:0|0:1,0:0:0:0:
140,164,90291,5,8,0:1:0:0:
213,175,90441,1,8,1:0:0:0:
213,175,90591,1,8,0:1:0:0:
67,153,90891,5,8,1:0:0:0:
286,186,91341,5,2,0:0:0:0:
424,12,91791,6,0,P|364:48|321:102,2,140,8|8|8,1:0|0:1|0:1,0:0:0:0:
286,186,92841,5,8,1:0:0:0:
286,186,92991,2,0,P|216:187|151:213,2,140,8|8|8,0:1|1:0|0:1,0:0:0:0:
463,172,94041,5,8,1:0:0:0:
463,172,94191,2,0,P|401:138|332:128,2,140,8|8|8,0:1|1:0|0:1,0:0:0:0:
512,384,95991,6,0,P|475:324|421:281,2,140,8|8|8,0:1|0:1|0:1,0:0:0:0:
287,309,96891,1,8,0:0:0:0:
