osu file format v14

[General]
AudioFilename: audio.ogg
AudioLeadIn: 0
PreviewTime: 55329
Countdown: 0
SampleSet: Soft
StackLeniency: 0.7
Mode: 0
LetterboxInBreaks: 0
WidescreenStoryboard: 1

[Editor]
Bookmarks: 9130,16999,32737,48475,56343,87819,103557
DistanceSpacing: 0.3
BeatDivisor: 4
GridSize: 32
TimelineZoom: 1

[Metadata]
Title:Far far away (TV Size)
TitleUnicode:Far far away (TV Size)
Artist:Yohane (CV: Kobayashi Aika)
ArtistUnicode:ヨハネ (CV: 小林愛香)
Creator:KeyWee
Version:Suou's Insane
Source:幻日のヨハネ -SUNSHINE in the MIRROR-
Tags:Tycani fuiba fuyu shirahane suou Genjitsu no Yohane the Parhelion japanese anime insert theme solo character song 2023 Love Live! Sunshine!! ラブライブ!サンシャイン!! Tsushima Yoshiko 津島善子 pop Jpop J-pop school idol project! chuunibyou aqours
BeatmapID:4200330
BeatmapSetID:2017463

[Difficulty]
HPDrainRate:5
CircleSize:4
OverallDifficulty:7
ApproachRate:8
SliderMultiplier:1.8
SliderTickRate:1

[Events]
//Background and Video events
0,0,"Yohane.png",0,0
Video,-280,"yohane.mp4"
//Break Periods
//Storyboard Layer 0 (Background)
//Storyboard Layer 1 (Fail)
//Storyboard Layer 2 (Pass)
//Storyboard Layer 3 (Foreground)
//Storyboard Layer 4 (Overlay)
//Storyboard Sound Samples

[TimingPoints]
1262,491.803278688525,4,2,1,50,1,0
1262,-166.666666666667,4,2,1,50,0,0
9130,-111.111111111111,4,2,1,50,0,0
16262,-166.666666666667,4,2,1,50,0,0
16999,-133.333333333333,4,2,1,45,0,0
24868,-133.333333333333,4,2,1,55,0,0
32737,-111.111111111111,4,2,1,55,0,0
40606,-100,4,2,1,60,0,0
48475,-133.333333333333,4,2,1,45,0,0
52409,-250,4,2,1,45,0,0
54130,-144.927536231884,4,2,1,45,0,0
55360,-66.6666666666667,4,2,1,60,0,0
56343,-50,4,2,1,75,0,0
57819,-76.9230769230769,4,2,1,75,0,0
58311,-50,4,2,1,75,0,0
59786,-83.3333333333333,4,2,1,75,0,0
60278,-50,4,2,1,75,0,0
61016,-83.3333333333333,4,2,1,75,0,0
61262,-111.111111111111,4,2,1,75,0,0
61753,-83.3333333333333,4,2,1,75,0,0
64212,-50,4,2,1,75,0,0
65688,-83.3333333333333,4,2,1,75,0,0
66180,-50,4,2,1,75,0,0
67655,-83.3333333333333,4,2,1,75,0,0
68147,-50,4,2,1,75,0,0
68884,-83.3333333333333,4,2,1,75,0,0
69130,-111.111111111111,4,2,1,75,0,0
69622,-83.3333333333333,4,2,1,75,0,0
70114,-50,4,2,1,75,0,0
70606,-83.3333333333333,4,2,1,75,0,0
71098,-166.666666666667,4,2,1,75,0,0
71589,-66.6666666666667,4,2,1,75,0,0
73557,-133.333333333333,4,2,1,75,0,0
74048,-66.6666666666667,4,2,1,75,0,0
77491,-100,4,2,1,75,0,0
77983,-66.6666666666667,4,2,1,75,0,0
79950,-50,4,2,1,75,0,0
81425,-83.3333333333333,4,2,1,75,0,0
81917,-50,4,2,1,75,0,0
83393,-83.3333333333333,4,2,1,75,0,0
83884,-50,4,2,1,75,0,0
84622,-83.3333333333333,4,2,1,75,0,0
84868,-111.111111111111,4,2,1,75,0,0
85360,-83.3333333333333,4,2,1,75,0,0
85852,-50,4,2,1,75,0,0
86343,-83.3333333333333,4,2,1,75,0,0
86835,-166.666666666667,4,2,1,75,0,0
87327,-66.6666666666667,4,2,1,75,0,0
87819,-133.333333333333,4,2,1,60,0,0
95688,-133.333333333333,4,2,1,50,0,0
99622,-133.333333333333,4,2,1,40,0,0
102573,-133.333333333333,4,2,1,50,0,0
103557,-133.333333333333,4,2,1,20,0,0

[Colours]
Combo1 : 131,122,207
Combo2 : 104,198,94
Combo3 : 205,202,135
Combo4 : 67,135,218

[HitObjects]
434,257,1016,5,2,0:0:0:0:
434,257,1139,1,2,0:0:0:0:
434,257,1262,2,0,P|385:249|328:290,1,107.999996704102,6|0,3:2|0:0,0:0:0:0:
268,206,1999,2,0,P|236:244|243:314,1,107.999996704102,2|2,3:2|0:0,0:0:0:0:
305,372,2737,1,2,3:2:0:0:
165,200,3229,6,0,P|138:200|116:215,2,53.9999983520508,2|0|0,3:0|0:0|0:0,0:0:0:0:
277,144,3966,2,0,P|249:220|236:299,1,161.999995056153,0|0,3:0|0:0,0:0:0:0:
145,343,4950,5,2,0:0:0:0:
145,343,5073,1,2,0:0:0:0:
145,343,5196,2,0,P|95:357|33:392,1,107.999996704102,6|2,3:2|0:0,0:0:0:0:
11,294,5934,2,0,P|61:280|123:245,1,107.999996704102,0|0,3:0|0:0,0:0:0:0:
206,273,6671,1,0,3:0:0:0:
129,27,7163,6,0,P|85:60|91:127,1,107.999996704102,2|0,3:0|0:0,0:0:0:0:
172,183,7901,2,0,P|158:103|129:27,1,161.999995056153,0|0,3:0|0:0,0:0:0:0:
90,230,8884,5,2,0:0:0:0:
90,230,9007,1,2,0:0:0:0:
90,230,9130,2,0,P|129:273|234:261,1,161.999995056153,6|8,3:2|0:0,0:0:0:0:
340,155,9868,2,0,P|282:172|243:210,1,80.9999975280763,2|2,3:2|3:2,0:0:0:0:
447,287,10360,1,2,3:2:0:0:
372,366,10606,2,0,P|360:305|329:236,1,121.499996292114,10|0,0:0|0:0,0:0:0:0:
340,155,11098,5,2,3:0:0:0:
427,189,11343,1,0,0:0:0:0:
499,130,11589,1,8,0:0:0:0:
483,39,11835,2,0,B|413:83|365:18|372:8|309:-48|237:20,1,242.999992584229,0|8,3:0|0:0,0:0:0:0:
226,87,12819,5,2,0:0:0:0:
226,87,12942,1,2,0:0:0:0:
226,87,13065,2,0,P|277:120|275:225,1,161.999995056153,6|10,3:2|0:0,0:0:0:0:
407,280,13802,2,0,P|345:294|315:314,1,80.9999975280763,0|0,3:1|3:0,0:0:0:0:
203,173,14294,1,0,3:0:0:0:
117,244,14540,2,0,P|172:269|234:278,1,121.499996292114,8|0,0:0|0:0,0:0:0:0:
282,214,15032,6,0,B|296:174|336:155|336:155|293:148|259:101,1,161.999995056153,2|8,3:0|0:0,0:0:0:0:
146,0,15770,2,0,L|182:123,1,121.499996292114,0|0,3:0|0:0,0:0:0:0:
102,199,16262,5,8,1:3:0:0:
108,192,16384,1,0,0:0:0:0:
115,186,16507,2,0,L|197:210,1,80.9999975280763,4|0,1:3|0:0,0:0:0:0:
247,277,16999,5,0,1:0:0:0:
324,245,17245,1,2,0:0:0:0:
378,308,17491,1,2,0:0:0:0:
454,275,17737,2,0,L|465:229,1,33.7500012874604,0|2,1:2|0:0,0:0:0:0:
413,128,17983,2,8,L|397:193,1,67.5000025749208,8|2,0:0|0:0,0:0:0:0:
263,342,18475,2,0,L|247:276,1,67.5000025749208,2|0,3:2|3:0,0:0:0:0:
134,133,18966,5,2,0:0:0:0:
257,193,19212,1,0,0:0:0:0:
111,282,19458,2,0,P|120:237|182:218,1,101.250003862381,2|0,1:2|0:0,0:0:0:0:
176,228,19950,2,0,L|39:194,1,135.000005149842,10|2,0:0|0:0,0:0:0:0:
0,129,20688,1,0,0:0:0:0:
169,37,20934,6,0,P|213:77|195:166,1,135.000005149842,2|0,1:2|0:0,0:0:0:0:
167,215,21671,1,0,1:0:0:0:
300,318,21917,2,0,L|319:398,2,67.5000025749208,8|0|0,0:0|0:0|3:0,0:0:0:0:
412,172,22655,5,2,0:0:0:0:
288,226,22901,2,0,P|321:227|350:245,1,67.5000025749208,2|0,3:2|3:0,0:0:0:0:
512,295,23393,2,0,L|387:327,1,101.250003862381,0|0,1:0|0:0,0:0:0:0:
338,333,23884,5,10,0:0:0:0:
491,214,24130,1,0,0:0:0:0:
312,141,24376,2,0,L|298:97,1,33.7500012874604,10|0,0:0|0:0,0:0:0:0:
387,236,24622,5,8,0:0:0:0:
387,236,24745,1,8,0:0:0:0:
387,236,24868,2,0,L|416:121,1,101.250003862381,6|0,1:2|0:0,0:0:0:0:
470,85,25360,1,2,3:2:0:0:
398,2,25606,1,2,3:2:0:0:
313,57,25852,2,0,L|225:83,1,67.5000025749208,10|0,0:0|1:0,0:0:0:0:
52,197,26343,5,2,3:2:0:0:
124,114,26589,1,2,3:2:0:0:
209,169,26835,2,0,L|297:195,1,67.5000025749208,2|0,1:2|0:0,0:0:0:0:
338,353,27327,5,2,3:2:0:0:
405,293,27573,1,2,1:2:0:0:
374,195,27819,1,10,0:0:0:0:
271,281,28065,1,2,0:0:0:0:
443,382,28311,2,0,P|474:369|507:362,1,67.5000025749208,2|2,0:0|1:2,0:0:0:0:
274,188,28802,6,0,P|211:212|145:226,1,135.000005149842,2|0,1:2|3:0,0:0:0:0:
89,285,29540,1,0,3:0:0:0:
147,84,29786,2,0,P|173:114|173:154,1,67.5000025749208,8|0,0:0|1:0,0:0:0:0:
279,328,30278,6,0,P|304:306|312:273,1,67.5000025749208,2|0,0:0|0:0,0:0:0:0:
278,201,30647,1,2,0:0:0:0:
210,245,30770,2,0,P|178:233|145:226,3,67.5000025749208,0|0|0|0,1:0|0:0|3:0|1:0,0:0:0:0:
2,58,31753,2,0,P|33:69|66:76,3,67.5000025749208,8|0|0|0,0:0|3:0|3:0|1:0,0:0:0:0:
203,155,32737,5,0,1:0:0:0:
327,98,32983,1,2,0:0:0:0:
216,19,33229,1,2,0:0:0:0:
249,91,33475,1,2,1:2:0:0:
381,35,33721,2,0,P|415:81|523:87,1,161.999995056153,10|0,0:0|3:0,0:0:0:0:
380,175,34458,1,2,0:0:0:0:
498,277,34704,6,0,P|479:228|473:192,1,80.9999975280763,2|2,0:0|3:0,0:0:0:0:
268,164,35196,2,0,P|286:212|292:248,1,80.9999975280763,2|2,1:2|3:0,0:0:0:0:
275,318,35565,1,2,0:0:0:0:
202,288,35688,2,0,P|136:279|53:342,1,161.999995056153,8|0,0:0|0:0,0:0:0:0:
0,380,36425,1,0,0:0:0:0:
114,249,36671,5,0,1:0:0:0:
16,153,36917,1,2,0:0:0:0:
148,116,37163,1,2,0:0:0:0:
92,173,37409,1,2,1:2:0:0:
18,17,37655,2,0,B|76:-7|123:38|123:38|95:50|80:73,1,161.999995056153,10|0,0:0|3:0,0:0:0:0:
16,153,38393,1,2,0:0:0:0:
226,136,38639,6,0,P|187:122|148:115,1,80.9999975280763,2|2,0:0|3:0,0:0:0:0:
0,249,39130,2,0,P|38:235|77:228,1,80.9999975280763,2|2,1:2|3:0,0:0:0:0:
150,261,39499,1,2,0:0:0:0:
99,322,39622,2,0,P|60:335|21:342,1,80.9999975280763,8|0,0:0|1:0,0:0:0:0:
205,384,40114,2,0,L|218:323,1,40.4999987640381,8|0,0:0|0:0,0:0:0:0:
337,175,40360,5,8,0:0:0:0:
312,182,40483,1,8,0:0:0:0:
307,207,40606,2,0,P|346:245|433:242,1,135,6|0,1:2|0:0,0:0:0:0:
468,188,41098,1,10,0:0:0:0:
341,296,41343,1,2,0:0:0:0:
468,188,41589,2,0,L|445:90,1,90,2|0,0:0|1:0,0:0:0:0:
212,88,42081,5,10,0:0:0:0:
339,196,42326,1,2,0:0:0:0:
212,88,42572,2,0,L|235:-10,1,90,2|0,1:2|0:0,0:0:0:0:
339,59,43065,5,10,0:0:0:0:
234,196,43311,1,2,1:2:0:0:
379,286,43557,1,2,0:0:0:0:
339,196,43802,1,2,0:0:0:0:
498,129,44048,1,10,0:0:0:0:
440,208,44293,1,2,0:0:0:0:
263,103,44540,6,0,P|197:101|147:145,1,135,2|0,1:2|0:0,0:0:0:0:
64,184,45032,2,0,P|129:182|179:226,1,135,10|0,0:0|0:0,0:0:0:0:
289,274,45524,5,2,0:0:0:0:
132,336,45770,1,2,1:2:0:0:
241,383,46016,1,10,0:0:0:0:
179,226,46262,1,2,0:0:0:0:
392,120,46507,6,0,P|376:162|367:206,1,90,0|0,1:0|0:0,0:0:0:0:
248,86,46999,2,0,P|263:43|272:0,1,90,8|2,0:0|1:2,0:0:0:0:
448,187,47491,6,0,L|458:230,1,45,8|0,1:3|0:0,0:0:0:0:
368,206,47737,2,0,L|378:249,1,45,8|0,1:3|0:0,0:0:0:0:
234,300,47983,6,0,L|223:343,1,45,4|0,1:3|0:0,0:0:0:0:
314,319,48229,2,0,L|303:362,1,45,4|0,1:3|0:0,0:0:0:0:
271,202,48475,5,4,0:0:0:0:
152,238,48721,1,0,0:0:0:0:
62,153,48966,1,2,0:0:0:0:
62,153,49458,5,2,0:0:0:0:
160,142,49704,1,0,0:0:0:0:
196,53,49949,1,2,0:0:0:0:
196,53,50442,6,0,P|166:47|115:20,1,67.5000025749208,2|0,0:0|0:0,0:0:0:0:
61,70,50934,1,0,0:0:0:0:
205,212,51180,1,2,0:0:0:0:
205,212,52409,6,0,B|268:196|307:249|292:264|340:313|405:286,1,216,6|0,0:0|0:0,0:0:0:0:
442,233,54130,2,0,P|441:216|428:204,1,31.0500000473785,2|0,0:0|0:0,0:0:0:0:
205,212,54376,6,0,B|268:194|307:249|292:264|336:314|405:286,1,217.35000033165,4|0,0:0|0:0,0:0:0:0:
465,317,55360,6,0,B|478:326|478:326|450:325,1,33.7500012874604,2|0,0:3|0:0,0:0:0:0:
447,52,56343,6,0,B|429:30|422:8|422:8|317:84|384:227,1,270,6|0,1:2|3:0,0:0:0:0:
373,203,56835,1,8,0:0:0:0:
303,362,57081,1,2,1:2:0:0:
387,306,57327,1,2,0:0:0:0:
281,181,57573,1,2,1:2:0:0:
137,244,57819,6,0,P|101:235|80:203,1,58.4999973220826,10|0,0:0|0:0,0:0:0:0:
5,233,58065,2,0,P|-6:197|11:164,1,58.4999973220826,2|0,3:2|0:0,0:0:0:0:
126,140,58311,6,0,B|164:234|91:276|75:257|27:327|79:405,1,270,6|0,1:2|0:0,0:0:0:0:
67,383,58802,1,8,0:0:0:0:
210,287,59048,1,2,1:2:0:0:
164,371,59294,1,2,3:2:0:0:
142,208,59540,1,2,1:2:0:0:
307,261,59786,6,0,P|333:261|355:245,1,53.9999983520508,10|0,0:0|0:0,0:0:0:0:
331,164,60032,2,0,P|304:163|282:179,1,53.9999983520508,2|0,1:2|0:0,0:0:0:0:
341,346,60278,6,0,P|328:212|277:87,1,270,6|0,1:2|0:0,0:0:0:0:
277,87,60770,1,8,0:0:0:0:
63,24,61016,2,0,P|81:41|121:51,1,53.9999983520508,2|0,1:2|0:0,0:0:0:0:
209,26,61262,2,0,P|193:63|184:102,1,80.9999975280763,6|0,1:2|1:0,0:0:0:0:
124,325,61753,6,0,B|86:340|69:381|69:381|76:338|41:282,1,161.999995056153,8|0,0:0|0:0,0:0:0:0:
0,202,62245,6,0,L|229:258,1,215.999993408203,0|8,1:0|0:0,0:0:0:0:
405,310,62983,5,2,1:2:0:0:
340,379,63229,1,2,0:0:0:0:
248,356,63475,1,2,1:2:0:0:
289,211,63721,5,10,0:0:0:0:
295,224,63843,1,8,0:0:0:0:
288,245,63966,1,10,0:0:0:0:
254,264,64089,1,8,0:0:0:0:
209,253,64212,6,0,P|339:219|466:174,1,270,6|0,1:2|3:0,0:0:0:0:
466,174,64704,1,8,0:0:0:0:
311,116,64950,1,2,1:2:0:0:
415,76,65196,1,2,0:0:0:0:
361,213,65442,1,2,1:2:0:0:
222,147,65688,6,0,P|211:122|214:95,1,53.9999983520508,10|0,0:0|0:0,0:0:0:0:
140,42,65934,2,0,P|156:20|180:9,1,53.9999983520508,2|2,0:0|0:0,0:0:0:0:
311,116,66180,6,0,P|181:76|48:54,1,270,6|0,1:2|3:0,0:0:0:0:
48,54,66671,1,8,0:0:0:0:
128,210,66917,1,2,1:2:0:0:
36,257,67163,1,2,0:0:0:0:
131,111,67409,1,2,1:2:0:0:
210,267,67655,6,0,P|223:311|209:353,1,53.9999983520508,10|8,0:0|0:0,0:0:0:0:
379,362,67901,2,0,P|395:340|418:326,1,53.9999983520508,8|8,0:0|0:0,0:0:0:0:
291,384,68147,6,0,L|357:117,1,270,6|0,1:2|0:0,0:0:0:0:
355,121,68639,1,8,0:0:0:0:
162,0,68884,2,0,L|149:52,1,53.9999983520508,2|0,1:2|0:0,0:0:0:0:
199,116,69130,2,0,P|238:117|270:93,1,80.9999975280763,2|0,0:0|1:0,0:0:0:0:
489,76,69622,6,0,P|493:50|502:24,1,53.9999983520508,8|0,0:0|0:0,0:0:0:0:
417,0,69868,2,0,P|413:26|404:52,1,53.9999983520508,0|0,1:0|0:0,0:0:0:0:
512,177,70114,6,0,B|477:240|504:306|504:306|473:241|368:214,1,270,6|0,1:2|0:0,0:0:0:0:
330,284,70606,6,0,B|296:266|250:275|250:275|296:250|306:193,1,161.999995056153,10|0,0:0|0:0,0:0:0:0:
256,138,71098,6,0,B|259:117|253:97|253:97|263:119|285:129,1,80.9999975280763,10|0,0:0|0:0,0:0:0:0:
384,82,71589,6,0,P|370:113|364:146,1,67.5000025749208,10|8,0:0|1:3,0:0:0:0:
169,173,71835,1,4,1:3:0:0:
169,173,71958,1,4,1:3:0:0:
169,173,72081,2,0,P|195:194|214:221,1,67.5000025749208,4|0,1:2|0:0,0:0:0:0:
377,310,72327,5,2,0:0:0:0:
389,271,72450,1,2,0:0:0:0:
366,245,72573,2,0,P|332:248|301:260,1,67.5000025749208,10|0,0:0|0:0,0:0:0:0:
128,259,72819,2,0,P|142:307|227:310,1,135.000005149842,2|2,1:2|0:0,0:0:0:0:
351,151,73311,6,0,P|338:119|336:86,1,67.5000025749208,0|2,1:0|0:0,0:0:0:0:
132,21,73557,2,0,P|174:62|228:49,1,101.250003862381,10|0,0:0|0:0,0:0:0:0:
288,15,74048,5,4,1:2:0:0:
132,139,74294,2,0,P|144:170|146:203,1,67.5000025749208,2|0,0:0|0:0,0:0:0:0:
280,348,74540,6,0,P|300:323|302:273,1,67.5000025749208,10|0,0:0|0:0,0:0:0:0:
231,253,74786,2,0,P|211:278|209:328,1,67.5000025749208,2|0,1:2|0:0,0:0:0:0:
370,364,75032,2,0,P|442:361|464:294,1,135.000005149842,2|2,1:2|0:0,0:0:0:0:
258,163,75524,1,10,0:0:0:0:
440,103,75770,1,0,1:0:0:0:
305,288,76016,5,4,1:2:0:0:
140,177,76262,1,2,0:0:0:0:
280,99,76507,2,0,P|266:129|257:162,1,67.5000025749208,10|0,0:0|0:0,0:0:0:0:
212,252,76753,2,0,P|146:269|85:296,1,135.000005149842,2|2,1:2|0:0,0:0:0:0:
126,69,77245,6,0,P|139:38|148:5,1,67.5000025749208,2|0,1:2|0:0,0:0:0:0:
0,92,77491,2,0,P|38:134|78:123,1,90,10|2,0:0|0:0,0:0:0:0:
332,110,77983,6,0,P|231:117|155:216,1,202.500007724762,6|0,1:2|0:0,0:0:0:0:
163,186,78475,1,8,0:0:0:0:
381,260,78721,2,0,P|321:206|258:212,1,135.000005149842,0|2,1:0|0:0,0:0:0:0:
119,370,79212,1,2,1:2:0:0:
21,197,79458,5,10,0:0:0:0:
35,194,79580,1,8,0:0:0:0:
55,203,79703,1,2,1:2:0:0:
69,235,79826,1,0,1:0:0:0:
33,272,79950,6,0,P|68:141|122:17,1,270,6|0,1:2|3:0,0:0:0:0:
121,17,80442,1,8,0:0:0:0:
204,167,80688,1,2,1:2:0:0:
211,64,80934,1,2,0:0:0:0:
122,209,81180,1,2,1:2:0:0:
283,219,81425,6,0,P|312:208|329:150,1,53.9999983520508,10|0,0:0|0:0,0:0:0:0:
414,196,81671,2,0,P|418:165|377:121,1,53.9999983520508,2|0,0:0|0:0,0:0:0:0:
330,48,81917,6,0,P|370:176|393:309,1,270,6|0,1:2|0:0,0:0:0:0:
393,309,82409,1,8,0:0:0:0:
250,384,82655,1,2,1:2:0:0:
302,297,82901,1,2,1:2:0:0:
165,209,83147,1,2,1:2:0:0:
320,116,83393,6,0,P|326:143|352:181,1,53.9999983520508,10|8,0:0|0:0,0:0:0:0:
254,201,83639,2,0,P|248:174|222:136,1,53.9999983520508,10|8,0:0|0:0,0:0:0:0:
86,5,83884,6,0,B|67:26|46:36|46:36|142:132|268:39,1,270,6|0,1:2|3:0,0:0:0:0:
245,55,84376,1,8,0:0:0:0:
114,191,84622,2,0,P|140:196|165:209,1,53.9999983520508,2|0,1:2|0:0,0:0:0:0:
225,271,84868,2,0,P|251:240|254:201,1,80.9999975280763,2|0,0:0|1:0,0:0:0:0:
55,264,85360,6,0,P|34:275|-6:282,1,53.9999983520508,8|0,0:0|0:0,0:0:0:0:
29,377,85606,2,0,P|50:366|90:359,1,53.9999983520508,0|0,1:0|0:0,0:0:0:0:
165,209,85852,6,0,B|205:116|110:70|110:70|59:118|111:190,1,270,6|0,1:2|0:0,0:0:0:0:
254,201,86343,6,8,B|298:249|361:215|361:215|350:187|310:188,1,161.999995056153,14|0,0:0|0:0,0:0:0:0:
211,282,86835,6,0,B|188:309|206:344|206:344|219:321,1,80.9999975280763,6|0,1:2|0:0,0:0:0:0:
297,358,87327,6,0,P|211:306|110:311,1,202.500007724762,8|8,0:0|0:0,0:0:0:0:
46,384,87819,6,0,L|11:237,1,135.000005149842,2|0,0:0|0:0,0:0:0:0:
35,175,88557,1,0,1:0:0:0:
230,164,88802,2,0,P|178:204|113:197,1,135.000005149842,8|0,0:0|0:0,0:0:0:0:
146,95,89540,2,0,P|152:110|155:127,1,33.7500012874604,0|0,1:0|0:0,0:0:0:0:
190,243,89786,5,4,1:2:0:0:
281,274,90032,1,2,0:0:0:0:
353,211,90278,1,2,0:0:0:0:
334,118,90524,2,0,P|309:104|281:103,1,33.7500012874604,2|0,1:2|0:0,0:0:0:0:
202,41,90770,2,0,P|267:25|329:0,1,135.000005149842,8|0,0:0|0:0,0:0:0:0:
453,90,91507,5,2,0:0:0:0:
453,90,91630,1,2,0:0:0:0:
453,90,91753,2,0,P|426:152|411:217,1,135.000005149842,6|0,1:2|0:0,0:0:0:0:
355,271,92491,1,2,1:2:0:0:
512,380,92737,2,0,P|447:337|381:351,1,135.000005149842,8|2,0:0|0:0,0:0:0:0:
279,237,93475,2,0,P|272:217|249:182,1,33.7500012874604
67,311,93721,6,0,P|97:347|130:353,1,67.5000025749208,2|0,1:2|0:0,0:0:0:0:
192,333,94089,1,0,1:0:0:0:
198,253,94212,2,0,P|151:260|130:286,1,67.5000025749208,2|0,0:0|1:0,0:0:0:0:
268,384,94704,2,0,P|281:317|309:257,1,135.000005149842,10|2,0:0|0:0,0:0:0:0:
488,158,95442,5,2,1:2:0:0:
488,158,95565,1,2,0:0:0:0:
488,158,95688,2,0,P|445:201|366:199,1,135.000005149842,4|0,1:2|0:0,0:0:0:0:
321,143,96425,1,2,1:2:0:0:
420,0,96671,2,0,P|435:58|394:126,1,135.000005149842,8|2,0:0|0:0,0:0:0:0:
318,44,97409,2,0,P|334:49|350:52,1,33.7500012874604,0|0,1:0|0:0,0:0:0:0:
321,143,97655,5,2,1:2:0:0:
229,116,97901,1,2,0:0:0:0:
159,182,98147,1,2,0:0:0:0:
181,275,98393,2,0,P|204:280|229:291,1,33.7500012874604,2|0,1:2|0:0,0:0:0:0:
303,324,98639,2,0,P|284:251|249:185,1,135.000005149842,8|0,0:0|0:0,0:0:0:0:
155,106,99376,5,2,0:0:0:0:
155,106,99499,1,2,0:0:0:0:
155,106,99622,2,0,P|91:112|23:63,1,135.000005149842,6|0,1:2|0:0,0:0:0:0:
5,2,100360,1,2,1:2:0:0:
205,25,100606,2,0,P|242:77|233:160,1,135.000005149842,8|2,0:0|0:0,0:0:0:0:
86,268,101343,2,0,P|73:252|76:220,1,33.7500012874604
135,187,101589,6,0,P|167:221|167:247,1,67.5000025749208,2|2,1:2|0:0,0:0:0:0:
249,243,101958,1,0,1:0:0:0:
244,323,102081,2,0,P|210:355|184:355,1,67.5000025749208,2|2,0:0|1:2,0:0:0:0:
25,378,102573,6,0,B|-43:303|5:213|83:197|117:272|80:311,1,270.000010299683,8|0,0:0|0:0,0:0:0:0:
