osu file format v14

[General]
AudioFilename: audio.mp3
AudioLeadIn: 0
PreviewTime: 2582
Countdown: 1
SampleSet: None
StackLeniency: 0.5
Mode: 0
LetterboxInBreaks: 0
WidescreenStoryboard: 1

[Editor]
Bookmarks: 12687,22792,32897,43003,53108,63213,73318,83424,93529,103634,113739,123845,133950,144055,154160,166792,176897,187003,197108,199792
DistanceSpacing: 1
BeatDivisor: 4
GridSize: 32
TimelineZoom: 1.9

[Metadata]
Title:rin len maid factor
TitleUnicode:凛恋メイドファクター
Artist:YogarasuP
ArtistUnicode:夜烏P
Creator:Noffy
Version:My Angel Rin
Source:
Tags:VOCALOID 黎 Hajimu クロイ Kuroi 鏡音リン 鏡音レン Kagamine Rin Koi Ren Love Len Maid Factor Made Factory Middle School Romance Inhuman speed singing Denpa song cute vocaloid4 meido
BeatmapID:1944838
BeatmapSetID:931419

[Difficulty]
HPDrainRate:8
CircleSize:4
OverallDifficulty:9
ApproachRate:9.5
SliderMultiplier:1.6
SliderTickRate:1

[Events]
//Background and Video events
Video,0,"maid 1.avi"
0,0,"angels.jpg",0,0
//Break Periods
//Storyboard Layer 0 (Background)
//Storyboard Layer 1 (Fail)
//Storyboard Layer 2 (Pass)
//Storyboard Layer 3 (Foreground)
//Storyboard Sound Samples

[TimingPoints]
2582,315.789473684211,4,2,0,100,1,0
27529,-66.6666666666667,4,2,0,100,0,0
27845,-100,4,2,0,100,0,0
42371,-66.6666666666667,4,2,0,100,0,0
43003,-100,4,2,0,100,0,1
63213,-100,4,2,0,100,0,0
93529,-100,4,2,0,100,0,1
113739,-100,4,2,0,100,0,0
154160,-133.333333333333,4,2,0,100,0,0
159213,-113.636363636364,4,2,0,100,0,0
166792,-100,4,2,0,100,0,1
187003,-100,4,2,0,100,0,0

[Colours]
Combo1 : 128,238,17
Combo2 : 245,226,158
Combo3 : 129,168,201
Combo4 : 255,166,247

[HitObjects]
134,50,2582,6,0,P|164:88|180:151,1,80
175,169,2818,1,0,0:0:0:0:
156,217,2897,1,0,0:0:0:0:
378,334,3213,2,0,P|348:296|332:233,1,80
337,215,3449,1,0,0:0:0:0:
356,167,3528,1,0,0:0:0:0:
253,57,3845,5,0,0:0:0:0:
161,121,4003,1,0,0:0:0:0:
59,73,4160,1,0,0:0:0:0:
161,121,4318,1,0,0:0:0:0:
59,191,4476,1,0,0:0:0:0:
161,121,4634,1,0,0:0:0:0:
173,255,4792,1,0,0:0:0:0:
161,121,4950,1,0,0:0:0:0:
279,23,5108,6,0,P|309:61|325:124,1,80
320,142,5344,1,0,0:0:0:0:
301,190,5423,1,0,0:0:0:0:
213,335,5739,2,0,P|183:297|167:234,1,80
172,216,5975,1,0,0:0:0:0:
191,168,6054,1,0,0:0:0:0:
256,33,6371,5,0,0:0:0:0:
309,124,6528,1,0,0:0:0:0:
205,124,6686,1,0,0:0:0:0:
256,33,6844,1,0,0:0:0:0:
373,181,7003,2,0,P|332:205|289:209,1,80
256,33,7318,1,0,0:0:0:0:
134,165,7634,6,0,P|160:188|204:204,1,80
254,205,7870,1,0,0:0:0:0:
305,185,7949,1,0,0:0:0:0:
427,344,8266,2,0,P|401:367|357:383,1,80
307,384,8502,1,0,0:0:0:0:
256,364,8581,1,0,0:0:0:0:
146,281,8897,5,0,0:0:0:0:
126,171,9055,1,0,0:0:0:0:
20,133,9212,1,0,0:0:0:0:
126,171,9370,1,0,0:0:0:0:
103,50,9528,1,0,0:0:0:0:
126,171,9686,1,0,0:0:0:0:
229,85,9844,1,0,0:0:0:0:
126,171,10002,1,0,0:0:0:0:
26,294,10160,6,0,P|52:317|96:333,1,80
146,334,10396,1,0,0:0:0:0:
197,314,10475,1,0,0:0:0:0:
486,294,10792,2,0,P|460:317|416:333,1,80
366,334,11028,1,0,0:0:0:0:
315,314,11107,1,0,0:0:0:0:
256,196,11424,5,0,0:0:0:0:
309,105,11581,1,0,0:0:0:0:
205,105,11739,1,0,0:0:0:0:
256,196,11897,1,0,0:0:0:0:
373,48,12056,2,0,P|332:24|289:20,1,80
133,76,12371,2,0,P|174:100|217:104,1,80
349,168,12687,6,0,L|443:168,1,80
470,264,13003,1,0,0:0:0:0:
417,353,13160,1,0,0:0:0:0:
417,353,13239,1,0,0:0:0:0:
417,353,13318,2,0,L|331:336,1,80
236,311,13634,1,0,0:0:0:0:
371,210,13792,1,0,0:0:0:0:
371,210,14108,5,0,0:0:0:0:
264,119,14266,1,0,0:0:0:0:
168,226,14423,1,0,0:0:0:0:
168,226,14502,1,0,0:0:0:0:
168,226,14582,2,0,L|246:276,1,80
348,344,14897,2,0,P|363:295|354:248,1,80
360,267,15371,5,0,0:0:0:0:
285,193,15529,1,0,0:0:0:0:
340,105,15686,1,0,0:0:0:0:
340,105,15765,1,0,0:0:0:0:
340,105,15845,2,0,L|398:170,1,80
458,245,16160,1,0,0:0:0:0:
281,256,16318,1,0,0:0:0:0:
281,256,16634,5,0,0:0:0:0:
180,347,16792,1,0,0:0:0:0:
99,238,16949,1,0,0:0:0:0:
99,238,17029,1,0,0:0:0:0:
99,238,17108,2,0,L|167:184,1,80
165,51,17424,2,0,L|102:100,1,80
230,275,17739,6,0,L|293:226,1,80
378,164,18055,1,0,0:0:0:0:
416,67,18212,1,0,0:0:0:0:
416,67,18291,1,0,0:0:0:0:
416,67,18370,2,0,P|369:59|319:80,1,80
290,160,18686,1,0,0:0:0:0:
458,160,18844,1,0,0:0:0:0:
458,160,19160,5,0,0:0:0:0:
375,268,19318,1,0,0:0:0:0:
290,160,19475,1,0,0:0:0:0:
290,160,19554,1,0,0:0:0:0:
290,160,19634,1,0,0:0:0:0:
200,261,19791,1,0,0:0:0:0:
124,147,19949,1,0,0:0:0:0:
208,39,20107,1,0,0:0:0:0:
208,39,20424,5,0,0:0:0:0:
288,104,20582,1,0,0:0:0:0:
223,184,20738,1,0,0:0:0:0:
223,184,20817,1,0,0:0:0:0:
223,184,20896,2,0,L|142:119,1,80
66,180,21212,1,0,0:0:0:0:
196,286,21371,1,0,0:0:0:0:
196,286,21687,6,0,B|253:303|253:303|325:276,1,120
341,239,22003,2,0,P|381:193|445:176,1,120
487,181,22318,2,0,L|510:267,2,80
444,83,22792,6,0,P|402:73|321:97,1,120
287,124,23108,2,0,B|233:153|233:153|181:124,1,120
146,86,23424,2,0,P|107:78|68:83,1,80
34,199,23739,2,0,L|34:241,2,40
146,243,24055,6,0,P|156:294|224:348,1,120
263,337,24371,2,0,L|270:252,1,80
373,196,24687,2,0,L|365:285,1,80
453,359,25003,1,0,0:0:0:0:
471,241,25160,1,0,0:0:0:0:
498,124,25318,6,0,L|495:68,1,40
448,95,25476,2,0,L|443:38,1,40
396,58,25634,2,0,B|337:73|337:73|266:56,1,120
236,36,25950,2,0,P|199:31|155:42,1,80
71,123,26265,2,0,L|77:174,2,40
185,348,26582,5,0,0:0:0:0:
135,252,26739,2,0,P|177:244|240:259,1,80
341,216,27055,2,0,P|371:244|476:264,1,120
456,54,27529,6,0,L|425:170,1,120.000004577637
345,335,27845,6,0,P|307:315|270:264,1,80
264,242,28082,2,0,L|289:206,2,40
155,245,28318,1,0,0:0:0:0:
155,245,28397,1,0,0:0:0:0:
155,245,28476,2,0,L|127:139,1,80
145,31,28792,2,0,P|173:24|199:22,2,40
34,111,29108,6,0,P|19:167|29:214,1,80
70,316,29424,1,0,0:0:0:0:
188,298,29582,1,0,0:0:0:0:
188,298,29660,1,0,0:0:0:0:
188,298,29739,1,0,0:0:0:0:
115,178,29897,5,0,0:0:0:0:
184,60,30055,1,0,0:0:0:0:
252,178,30213,1,0,0:0:0:0:
356,323,30371,6,0,L|409:235,1,80
433,221,30608,2,0,L|481:253,2,40
396,140,30844,1,0,0:0:0:0:
396,140,30923,1,0,0:0:0:0:
396,140,31003,2,0,L|356:57,1,80
265,139,31318,2,0,L|285:189,2,40
139,143,31634,5,0,0:0:0:0:
36,50,31792,1,0,0:0:0:0:
4,182,31950,1,0,0:0:0:0:
104,273,32108,1,0,0:0:0:0:
104,273,32186,1,0,0:0:0:0:
104,273,32266,2,0,P|144:287|210:282,1,80
268,178,32582,2,0,P|228:164|162:169,1,80
28,54,32897,6,0,P|41:98|79:137,1,80
129,47,33371,1,0,0:0:0:0:
217,83,33529,1,0,0:0:0:0:
143,144,33687,1,0,0:0:0:0:
300,24,33845,1,0,0:0:0:0:
307,119,34003,1,0,0:0:0:0:
166,248,34160,6,0,P|126:253|89:240,1,80
137,157,34634,1,0,0:0:0:0:
229,182,34792,1,0,0:0:0:0:
204,89,34950,1,0,0:0:0:0:
258,273,35108,1,0,0:0:0:0:
325,204,35266,1,0,0:0:0:0:
270,36,35424,6,0,P|237:14|198:6,1,80
203,102,35898,1,0,0:0:0:0:
183,195,36055,2,0,P|182:241|197:284,1,80
283,350,36371,2,0,P|294:311|292:271,1,80
267,153,36687,5,0,0:0:0:0:
181,237,36845,1,0,0:0:0:0:
292,271,37003,1,0,0:0:0:0:
382,193,37160,1,0,0:0:0:0:
382,193,37239,1,0,0:0:0:0:
382,193,37318,2,0,P|382:145|369:107,1,80
275,42,37634,1,0,0:0:0:0:
117,221,37950,6,0,P|109:179|123:126,1,80
164,59,38424,1,0,0:0:0:0:
213,141,38582,1,0,0:0:0:0:
115,142,38740,1,0,0:0:0:0:
164,59,38898,1,0,0:0:0:0:
213,141,39056,1,0,0:0:0:0:
38,196,39213,6,0,P|26:158|28:119,1,80
68,31,39687,1,0,0:0:0:0:
122,109,39845,1,0,0:0:0:0:
183,182,40003,1,0,0:0:0:0:
238,103,40161,1,0,0:0:0:0:
288,21,40319,1,0,0:0:0:0:
379,50,40477,6,0,P|391:86|389:126,1,80
306,213,40792,2,0,P|346:220|384:213,1,80
487,147,41108,2,0,P|485:186|473:225,1,80
386,312,41424,2,0,P|426:319|464:312,1,80
381,225,41739,5,0,0:0:0:0:
279,200,41897,1,0,0:0:0:0:
246,195,41976,1,0,0:0:0:0:
215,201,42055,1,0,0:0:0:0:
186,216,42134,1,0,0:0:0:0:
164,239,42212,1,0,0:0:0:0:
93,321,42371,6,0,P|78:274|47:312,1,120.000004577637
47,312,42687,2,0,L|33:152,1,120.000004577637
25,96,43003,5,0,0:0:0:0:
59,75,43081,1,0,0:0:0:0:
97,66,43160,1,0,0:0:0:0:
137,69,43239,1,0,0:0:0:0:
175,82,43318,1,0,0:0:0:0:
211,100,43397,1,0,0:0:0:0:
247,115,43476,1,0,0:0:0:0:
286,123,43555,5,0,0:0:0:0:
326,121,43634,1,0,0:0:0:0:
364,107,43713,1,0,0:0:0:0:
397,85,43792,1,0,0:0:0:0:
422,53,43871,1,0,0:0:0:0:
452,78,43950,2,0,P|464:114|464:159,1,80
370,292,44266,5,0,0:0:0:0:
348,325,44344,1,0,0:0:0:0:
312,343,44423,1,0,0:0:0:0:
197,313,44582,1,0,0:0:0:0:
220,278,44660,1,0,0:0:0:0:
258,260,44739,1,0,0:0:0:0:
297,261,44818,6,0,P|339:272|379:300,1,80
396,321,45055,1,0,0:0:0:0:
288,376,45213,1,0,0:0:0:0:
197,313,45371,1,0,0:0:0:0:
297,261,45529,5,0,0:0:0:0:
300,221,45607,1,0,0:0:0:0:
304,181,45686,1,0,0:0:0:0:
307,141,45765,1,0,0:0:0:0:
310,101,45845,1,0,0:0:0:0:
301,62,45923,1,0,0:0:0:0:
272,37,46003,1,0,0:0:0:0:
232,37,46081,1,0,0:0:0:0:
198,58,46160,6,0,L|173:162,1,80
58,229,46476,2,0,L|76:150,1,80
108,25,46792,5,0,0:0:0:0:
76,151,46950,2,0,P|125:163|176:135,1,80
245,107,47266,1,0,0:0:0:0:
316,183,47424,6,0,P|317:207|309:244,1,40
272,253,47582,2,0,P|270:286|276:312,1,40
320,305,47739,2,0,L|418:322,1,80
469,173,48055,5,0,0:0:0:0:
491,67,48213,1,0,0:0:0:0:
497,269,48371,1,0,0:0:0:0:
398,318,48529,5,0,0:0:0:0:
358,325,48607,1,0,0:0:0:0:
319,318,48687,1,0,0:0:0:0:
284,300,48765,1,0,0:0:0:0:
256,271,48844,1,0,0:0:0:0:
238,234,48924,1,0,0:0:0:0:
227,195,49003,2,0,L|138:187,1,80
66,63,49318,5,0,0:0:0:0:
106,67,49396,1,0,0:0:0:0:
146,71,49475,1,0,0:0:0:0:
186,75,49554,1,0,0:0:0:0:
226,79,49633,1,0,0:0:0:0:
377,105,49792,5,0,0:0:0:0:
379,144,49870,1,0,0:0:0:0:
369,183,49949,1,0,0:0:0:0:
348,217,50028,1,0,0:0:0:0:
319,244,50107,1,0,0:0:0:0:
283,261,50186,1,0,0:0:0:0:
242,263,50266,2,0,L|247:153,1,80
84,102,50582,5,0,0:0:0:0:
81,142,50660,1,0,0:0:0:0:
77,182,50739,1,0,0:0:0:0:
74,222,50818,1,0,0:0:0:0:
71,262,50897,1,0,0:0:0:0:
80,301,50976,1,0,0:0:0:0:
109,326,51056,1,0,0:0:0:0:
149,326,51134,1,0,0:0:0:0:
183,305,51213,6,0,L|208:201,1,80,0|0,0:0|0:0,0:0:0:0:
183,118,51529,2,0,P|232:130|283:102,1,80
374,42,51845,5,0,0:0:0:0:
458,162,52003,2,0,P|464:115|442:72,1,80
384,205,52319,1,0,0:0:0:0:
413,311,52476,6,0,P|390:316|364:315,1,40
327,341,52634,2,0,P|307:343|275:336,1,40
253,300,52792,2,0,P|212:294|158:312,1,80
35,349,53108,5,0,0:0:0:0:
43,309,53186,1,0,0:0:0:0:
51,270,53265,1,0,0:0:0:0:
60,231,53344,1,0,0:0:0:0:
68,192,53423,1,0,0:0:0:0:
102,70,53582,1,0,0:0:0:0:
122,104,53661,1,0,0:0:0:0:
159,117,53740,1,0,0:0:0:0:
295,84,53897,5,0,0:0:0:0:
304,123,53976,1,0,0:0:0:0:
312,163,54055,1,0,0:0:0:0:
321,202,54134,1,0,0:0:0:0:
329,241,54212,1,0,0:0:0:0:
367,353,54371,5,0,0:0:0:0:
402,334,54449,1,0,0:0:0:0:
429,305,54528,1,0,0:0:0:0:
445,269,54607,1,0,0:0:0:0:
448,229,54686,1,0,0:0:0:0:
350,207,54845,1,0,0:0:0:0:
329,241,54924,1,0,0:0:0:0:
295,262,55003,1,0,0:0:0:0:
266,165,55160,5,0,0:0:0:0:
251,127,55239,1,0,0:0:0:0:
235,89,55318,2,0,L|209:13,1,80
85,81,55634,5,0,0:0:0:0:
76,206,55792,1,0,0:0:0:0:
82,245,55871,1,0,0:0:0:0:
87,284,55950,1,0,0:0:0:0:
178,348,56108,1,0,0:0:0:0:
188,309,56187,1,0,0:0:0:0:
200,270,56266,6,0,L|222:187,1,80
163,59,56582,2,0,L|136:141,1,80
96,265,56897,5,0,0:0:0:0:
60,132,57055,2,0,P|98:123|137:134,1,80
257,179,57371,1,0,0:0:0:0:
261,315,57529,6,0,L|314:315,1,40
347,289,57687,2,0,L|400:289,1,40
439,289,57844,2,0,P|470:262|484:224,1,80
512,116,58160,5,0,0:0:0:0:
379,38,58318,1,0,0:0:0:0:
274,143,58476,1,0,0:0:0:0:
315,300,58634,5,0,0:0:0:0:
352,282,58714,1,0,0:0:0:0:
381,254,58793,1,0,0:0:0:0:
399,219,58871,1,0,0:0:0:0:
406,180,58951,1,0,0:0:0:0:
399,140,59029,1,0,0:0:0:0:
389,101,59108,2,0,P|366:66|322:38,1,80
197,84,59424,5,0,0:0:0:0:
160,102,59504,1,0,0:0:0:0:
131,130,59583,1,0,0:0:0:0:
113,165,59661,1,0,0:0:0:0:
106,204,59741,1,0,0:0:0:0:
113,244,59819,1,0,0:0:0:0:
123,283,59898,1,0,0:0:0:0:
144,316,59976,1,0,0:0:0:0:
176,340,60055,5,0,0:0:0:0:
267,218,60212,1,0,0:0:0:0:
339,350,60371,2,0,P|385:318|404:264,1,80
328,145,60687,5,0,0:0:0:0:
290,131,60765,1,0,0:0:0:0:
249,131,60844,1,0,0:0:0:0:
213,144,60923,1,0,0:0:0:0:
184,171,61002,1,0,0:0:0:0:
149,192,61081,1,0,0:0:0:0:
109,190,61160,1,0,0:0:0:0:
71,177,61239,1,0,0:0:0:0:
39,152,61318,6,0,L|52:63,1,80
152,15,61634,2,0,L|140:94,1,80
115,244,61950,5,0,0:0:0:0:
264,267,62108,1,0,0:0:0:0:
290,116,62266,1,0,0:0:0:0:
140,94,62424,1,0,0:0:0:0:
115,244,62582,2,0,P|142:321|216:372,1,160
340,303,63055,1,0,0:0:0:0:
340,303,63134,1,0,0:0:0:0:
340,303,63213,1,0,0:0:0:0:
