osu file format v14

[General]
AudioFilename: audio.mp3
AudioLeadIn: 0
PreviewTime: 89978
Countdown: 0
SampleSet: Soft
StackLeniency: 0.7
Mode: 3
LetterboxInBreaks: 0
SpecialStyle: 0
WidescreenStoryboard: 1

[Editor]
DistanceSpacing: 0.8
BeatDivisor: 8
GridSize: 32
TimelineZoom: 2.5

[Metadata]
Title:Astrolab
TitleUnicode:Astrolab
Artist:Yoann Laulan
ArtistUnicode:Yoann Laulan
Creator:Rush_FTK
Version:2 Boss Cell
Source:Dead Cells
Tags:
BeatmapID:2003158
BeatmapSetID:955789

[Difficulty]
HPDrainRate:8
CircleSize:4
OverallDifficulty:8
ApproachRate:5
SliderMultiplier:1.4
SliderTickRate:1

[Events]
//Background and Video events
0,0,"BG.jpg",0,0
//Break Periods
//Storyboard Layer 0 (Background)
//Storyboard Layer 1 (Fail)
//Storyboard Layer 2 (Pass)
//Storyboard Layer 3 (Foreground)
//Storyboard Sound Samples

[TimingPoints]
57,375,3,2,0,20,1,0
36057,-100,3,2,0,20,0,1
54057,-100,3,2,0,20,0,0
94557,-100,3,2,0,20,0,1
103463,-100,3,2,0,20,0,0
121557,-100,3,2,0,20,0,1
130744,-100,3,2,0,20,0,0
193557,-100,3,2,0,20,0,1
202557,-100,3,2,0,20,0,0
234057,-100,3,2,0,20,0,1
252057,-100,3,2,0,20,0,0

[HitObjects]
64,192,15807,5,0,0:0:0:0:
448,192,16932,1,0,0:0:0:0:
64,192,17682,1,0,0:0:0:0:
192,192,17682,1,0,0:0:0:0:
320,192,18057,128,0,20400:0:0:0:0:
448,192,18057,1,4,0:0:0:0:
192,192,20400,128,0,22510:0:0:0:0:
64,192,22557,128,0,24807:0:0:0:0:
448,192,24807,1,4,0:0:0:0:
320,192,24807,128,0,25932:0:0:0:0:
64,192,25932,1,4,0:0:0:0:
192,192,25932,128,0,27057:0:0:0:0:
448,192,26682,1,0,0:0:0:0:
320,192,27057,128,0,29307:0:0:0:0:
64,192,27057,1,4,0:0:0:0:
192,192,27432,1,0,0:0:0:0:
64,192,27619,1,0,0:0:0:0:
192,192,27807,1,0,0:0:0:0:
64,192,27994,1,0,0:0:0:0:
448,192,28182,1,0,0:0:0:0:
448,192,28557,1,0,0:0:0:0:
192,192,28932,1,0,0:0:0:0:
64,192,28932,1,0,0:0:0:0:
448,192,29119,1,0,0:0:0:0:
64,192,29307,128,0,31557:0:0:0:0:
192,192,29307,1,4,0:0:0:0:
320,192,29682,1,0,0:0:0:0:
192,192,29869,1,0,0:0:0:0:
448,192,30244,1,0,0:0:0:0:
192,192,30432,1,0,0:0:0:0:
320,192,30807,1,0,0:0:0:0:
192,192,31182,1,0,0:0:0:0:
448,192,31557,128,0,33807:0:0:0:0:
320,192,31557,1,0,0:0:0:0:
320,192,31932,1,0,0:0:0:0:
192,192,32119,1,0,0:0:0:0:
64,192,32307,1,0,0:0:0:0:
320,192,32494,1,0,0:0:0:0:
64,192,32682,1,0,0:0:0:0:
192,192,32869,1,0,0:0:0:0:
64,192,33057,1,0,0:0:0:0:
192,192,33432,1,0,0:0:0:0:
64,192,33432,1,0,0:0:0:0:
320,192,33619,1,0,0:0:0:0:
320,192,33807,128,0,34932:0:0:0:0:
64,192,33807,1,4,0:0:0:0:
192,192,34182,1,0,0:0:0:0:
64,192,34369,1,0,0:0:0:0:
64,192,34744,1,0,0:0:0:0:
192,192,34932,128,0,36057:0:0:0:0:
448,192,35307,1,0,0:0:0:0:
64,192,35307,128,0,36057:0:0:0:0:
320,192,35682,1,0,0:0:0:0:
448,192,35869,1,0,0:0:0:0:
448,192,36057,1,0,0:0:0:0:
320,192,36057,1,4,0:0:0:0:
64,192,36432,1,0,0:0:0:0:
192,192,36619,1,0,0:0:0:0:
320,192,36619,1,0,0:0:0:0:
448,192,36807,1,0,0:0:0:0:
320,192,36994,1,0,0:0:0:0:
192,192,37182,1,0,0:0:0:0:
64,192,37182,1,0,0:0:0:0:
448,192,37557,1,0,0:0:0:0:
320,192,37557,1,0,0:0:0:0:
192,192,37932,1,0,0:0:0:0:
64,192,37932,1,0,0:0:0:0:
320,192,38307,1,0,0:0:0:0:
448,192,38307,1,0,0:0:0:0:
64,192,38682,1,0,0:0:0:0:
192,192,38869,1,0,0:0:0:0:
320,192,38869,1,0,0:0:0:0:
448,192,39057,1,0,0:0:0:0:
320,192,39244,1,0,0:0:0:0:
192,192,39432,1,0,0:0:0:0:
64,192,39432,1,0,0:0:0:0:
448,192,39807,1,0,0:0:0:0:
448,192,40182,1,0,0:0:0:0:
64,192,40369,1,0,0:0:0:0:
320,192,40557,1,0,0:0:0:0:
448,192,40557,1,0,0:0:0:0:
192,192,40932,1,0,0:0:0:0:
448,192,41119,1,0,0:0:0:0:
320,192,41119,1,0,0:0:0:0:
64,192,41307,1,0,0:0:0:0:
320,192,41494,1,0,0:0:0:0:
64,192,41682,1,0,0:0:0:0:
192,192,41682,1,0,0:0:0:0:
448,192,41869,1,0,0:0:0:0:
192,192,42057,1,0,0:0:0:0:
192,192,42432,1,0,0:0:0:0:
320,192,42432,1,0,0:0:0:0:
64,192,42807,1,0,0:0:0:0:
448,192,42807,1,0,0:0:0:0:
192,192,43182,1,0,0:0:0:0:
64,192,43369,1,0,0:0:0:0:
320,192,43369,1,0,0:0:0:0:
448,192,43557,1,0,0:0:0:0:
192,192,43744,1,0,0:0:0:0:
64,192,43932,1,0,0:0:0:0:
320,192,43932,1,0,0:0:0:0:
192,192,44307,1,0,0:0:0:0:
320,192,44682,1,0,0:0:0:0:
448,192,44682,1,0,0:0:0:0:
192,192,45057,1,0,0:0:0:0:
64,192,45057,1,0,0:0:0:0:
320,192,45432,1,0,0:0:0:0:
192,192,45619,1,0,0:0:0:0:
64,192,45619,1,0,0:0:0:0:
320,192,45807,1,0,0:0:0:0:
448,192,45994,1,0,0:0:0:0:
192,192,46182,1,0,0:0:0:0:
64,192,46182,1,0,0:0:0:0:
320,192,46557,1,0,0:0:0:0:
192,192,46557,1,0,0:0:0:0:
320,192,46932,1,0,0:0:0:0:
448,192,46932,1,0,0:0:0:0:
64,192,47119,1,0,0:0:0:0:
192,192,47307,1,0,0:0:0:0:
320,192,47307,1,0,0:0:0:0:
448,192,47682,1,0,0:0:0:0:
320,192,47869,1,0,0:0:0:0:
192,192,47869,1,0,0:0:0:0:
64,192,48057,1,0,0:0:0:0:
192,192,48244,1,0,0:0:0:0:
448,192,48432,1,0,0:0:0:0:
320,192,48432,1,0,0:0:0:0:
192,192,48807,1,0,0:0:0:0:
448,192,48994,1,0,0:0:0:0:
320,192,49182,1,0,0:0:0:0:
64,192,49369,1,0,0:0:0:0:
320,192,49557,1,0,0:0:0:0:
448,192,49557,1,0,0:0:0:0:
64,192,49932,1,0,0:0:0:0:
192,192,50119,1,0,0:0:0:0:
320,192,50119,1,0,0:0:0:0:
448,192,50307,1,0,0:0:0:0:
320,192,50494,1,0,0:0:0:0:
192,192,50682,1,0,0:0:0:0:
64,192,50682,1,0,0:0:0:0:
448,192,51057,1,0,0:0:0:0:
64,192,51432,1,0,0:0:0:0:
192,192,51432,1,0,0:0:0:0:
448,192,51619,1,0,0:0:0:0:
64,192,51807,1,0,0:0:0:0:
192,192,51807,1,0,0:0:0:0:
192,192,52182,1,0,0:0:0:0:
448,192,52369,1,0,0:0:0:0:
320,192,52369,1,0,0:0:0:0:
320,192,52744,1,0,0:0:0:0:
64,192,52932,1,0,0:0:0:0:
448,192,52932,128,0,54057:0:0:0:0:
192,192,52932,1,0,0:0:0:0:
320,192,53307,1,0,0:0:0:0:
64,192,53682,1,0,0:0:0:0:
192,192,53682,1,0,0:0:0:0:
320,192,53869,1,0,0:0:0:0:
64,192,54057,1,0,0:0:0:0:
320,192,54057,128,0,55088:0:0:0:0:
320,192,55182,128,0,55932:0:0:0:0:
64,192,55932,1,0,0:0:0:0:
448,192,55932,1,0,0:0:0:0:
64,192,56307,1,0,0:0:0:0:
448,192,56307,1,0,0:0:0:0:
320,192,56682,1,0,0:0:0:0:
320,192,56869,1,0,0:0:0:0:
192,192,57057,1,0,0:0:0:0:
192,192,57244,1,0,0:0:0:0:
448,192,57432,1,0,0:0:0:0:
448,192,57619,1,0,0:0:0:0:
64,192,57807,1,0,0:0:0:0:
64,192,57994,1,0,0:0:0:0:
320,192,58182,1,0,0:0:0:0:
448,192,58182,1,0,0:0:0:0:
192,192,58557,1,0,0:0:0:0:
64,192,58557,1,0,0:0:0:0:
320,192,58932,1,0,0:0:0:0:
320,192,59119,1,0,0:0:0:0:
64,192,59307,1,0,0:0:0:0:
192,192,59494,1,0,0:0:0:0:
448,192,59682,1,0,0:0:0:0:
320,192,59744,1,0,0:0:0:0:
64,192,59869,1,0,0:0:0:0:
192,192,60057,1,0,0:0:0:0:
448,192,60244,1,0,0:0:0:0:
320,192,60338,1,0,0:0:0:0:
192,192,60432,1,0,0:0:0:0:
64,192,60432,1,0,0:0:0:0:
448,192,60619,1,0,0:0:0:0:
192,192,60807,1,0,0:0:0:0:
64,192,60807,1,0,0:0:0:0:
320,192,61182,1,0,0:0:0:0:
320,192,61369,1,0,0:0:0:0:
64,192,61557,1,0,0:0:0:0:
192,192,61744,1,0,0:0:0:0:
448,192,61932,1,0,0:0:0:0:
320,192,61932,1,0,0:0:0:0:
64,192,62307,1,0,0:0:0:0:
192,192,62494,1,0,0:0:0:0:
448,192,62682,1,0,0:0:0:0:
320,192,62682,1,0,0:0:0:0:
64,192,62869,1,0,0:0:0:0:
320,192,63057,1,0,0:0:0:0:
192,192,63057,1,0,0:0:0:0:
64,192,63432,1,0,0:0:0:0:
320,192,63619,1,0,0:0:0:0:
448,192,63619,1,0,0:0:0:0:
64,192,63807,1,0,0:0:0:0:
192,192,63994,1,0,0:0:0:0:
448,192,64182,1,0,0:0:0:0:
320,192,64182,1,0,0:0:0:0:
192,192,64244,1,0,0:0:0:0:
320,192,64369,1,0,0:0:0:0:
64,192,64557,1,0,0:0:0:0:
192,192,64744,1,0,0:0:0:0:
448,192,64932,1,0,0:0:0:0:
320,192,65119,1,0,0:0:0:0:
448,192,65307,1,0,0:0:0:0:
64,192,65307,1,0,0:0:0:0:
448,192,65682,1,0,0:0:0:0:
448,192,65869,1,0,0:0:0:0:
320,192,66057,1,0,0:0:0:0:
192,192,66244,1,0,0:0:0:0:
64,192,66432,1,0,0:0:0:0:
192,192,66807,1,0,0:0:0:0:
320,192,66994,1,0,0:0:0:0:
448,192,66994,1,0,0:0:0:0:
192,192,67182,1,0,0:0:0:0:
64,192,67182,1,0,0:0:0:0:
320,192,67369,1,0,0:0:0:0:
64,192,67557,1,0,0:0:0:0:
448,192,67557,1,0,0:0:0:0:
320,192,67932,1,0,0:0:0:0:
192,192,68119,1,0,0:0:0:0:
64,192,68119,1,0,0:0:0:0:
448,192,68307,1,0,0:0:0:0:
320,192,68494,1,0,0:0:0:0:
64,192,68682,1,0,0:0:0:0:
192,192,68682,1,0,0:0:0:0:
320,192,68744,1,0,0:0:0:0:
192,192,68869,1,0,0:0:0:0:
64,192,69057,1,0,0:0:0:0:
192,192,69244,1,0,0:0:0:0:
448,192,69338,1,0,0:0:0:0:
320,192,69432,1,0,0:0:0:0:
192,192,69619,1,0,0:0:0:0:
448,192,69619,128,0,70744:0:0:0:0:
192,192,69807,1,0,0:0:0:0:
64,192,69807,1,0,0:0:0:0:
64,192,70182,1,0,0:0:0:0:
192,192,70182,1,0,0:0:0:0:
192,192,70369,1,0,0:0:0:0:
64,192,70369,1,0,0:0:0:0:
192,192,70557,1,0,0:0:0:0:
64,192,70557,1,0,0:0:0:0:
320,192,70650,1,0,0:0:0:0:
64,192,70744,1,0,0:0:0:0:
64,192,70932,128,0,71869:0:0:0:0:
320,192,70932,1,0,0:0:0:0:
448,192,70932,1,0,0:0:0:0:
448,192,71244,1,0,0:0:0:0:
320,192,71307,1,0,0:0:0:0:
320,192,71494,1,0,0:0:0:0:
448,192,71494,1,0,0:0:0:0:
192,192,71682,1,0,0:0:0:0:
320,192,71682,1,0,0:0:0:0:
320,192,72057,1,0,0:0:0:0:
448,192,72057,1,0,0:0:0:0:
320,192,72432,1,0,0:0:0:0:
192,192,72619,1,0,0:0:0:0:
64,192,72619,1,0,0:0:0:0:
448,192,72807,1,0,0:0:0:0:
320,192,72994,1,0,0:0:0:0:
64,192,73182,1,0,0:0:0:0:
192,192,73182,1,0,0:0:0:0:
320,192,73244,1,0,0:0:0:0:
192,192,73369,1,0,0:0:0:0:
448,192,73557,1,0,0:0:0:0:
320,192,73744,1,0,0:0:0:0:
64,192,73838,1,0,0:0:0:0:
192,192,73885,1,0,0:0:0:0:
320,192,73932,1,0,0:0:0:0:
192,192,74119,1,0,0:0:0:0:
320,192,74307,128,0,75432:0:0:0:0:
448,192,74307,1,0,0:0:0:0:
192,192,74682,1,0,0:0:0:0:
64,192,74869,1,0,0:0:0:0:
192,192,75057,1,0,0:0:0:0:
64,192,75244,1,0,0:0:0:0:
192,192,75432,1,0,0:0:0:0:
448,192,75432,128,0,76557:0:0:0:0:
64,192,75807,1,0,0:0:0:0:
192,192,75994,1,0,0:0:0:0:
64,192,76182,1,0,0:0:0:0:
192,192,76275,1,0,0:0:0:0:
320,192,76369,1,0,0:0:0:0:
192,192,76463,1,0,0:0:0:0:
64,192,76557,1,0,0:0:0:0:
320,192,76932,1,0,0:0:0:0:
448,192,76932,1,0,0:0:0:0:
192,192,77119,1,0,0:0:0:0:
64,192,77119,1,0,0:0:0:0:
320,192,77307,1,0,0:0:0:0:
192,192,77494,1,0,0:0:0:0:
64,192,77494,1,0,0:0:0:0:
448,192,77494,1,0,0:0:0:0:
448,192,77682,1,0,0:0:0:0:
320,192,77682,1,0,0:0:0:0:
192,192,77744,1,0,0:0:0:0:
320,192,77869,1,0,0:0:0:0:
192,192,78057,1,0,0:0:0:0:
64,192,78057,1,0,0:0:0:0:
320,192,78244,1,0,0:0:0:0:
448,192,78432,1,0,0:0:0:0:
64,192,78432,1,0,0:0:0:0:
320,192,78619,1,0,0:0:0:0:
448,192,78619,1,0,0:0:0:0:
64,192,78713,1,0,0:0:0:0:
192,192,78713,1,0,0:0:0:0:
448,192,78807,1,0,0:0:0:0:
320,192,78807,1,0,0:0:0:0:
64,192,79182,1,0,0:0:0:0:
192,192,79182,1,0,0:0:0:0:
448,192,79369,1,0,0:0:0:0:
320,192,79557,1,0,0:0:0:0:
64,192,79650,1,0,0:0:0:0:
192,192,79697,1,0,0:0:0:0:
320,192,79744,1,0,0:0:0:0:
448,192,79744,1,0,0:0:0:0:
64,192,79932,1,0,0:0:0:0:
192,192,79932,1,0,0:0:0:0:
448,192,80119,1,0,0:0:0:0:
192,192,80307,1,0,0:0:0:0:
448,192,80494,1,0,0:0:0:0:
64,192,80494,1,0,0:0:0:0:
192,192,80682,1,0,0:0:0:0:
320,192,80682,1,0,0:0:0:0:
320,192,81057,1,0,0:0:0:0:
448,192,81057,1,0,0:0:0:0:
192,192,81432,1,0,0:0:0:0:
64,192,81432,1,0,0:0:0:0:
448,192,81432,1,0,0:0:0:0:
320,192,81619,1,0,0:0:0:0:
448,192,81619,1,0,0:0:0:0:
192,192,81807,1,0,0:0:0:0:
320,192,81994,1,0,0:0:0:0:
448,192,81994,1,0,0:0:0:0:
64,192,81994,1,0,0:0:0:0:
64,192,82182,1,0,0:0:0:0:
448,192,82182,1,0,0:0:0:0:
192,192,82244,1,0,0:0:0:0:
320,192,82369,1,0,0:0:0:0:
64,192,82557,1,0,0:0:0:0:
448,192,82557,1,0,0:0:0:0:
192,192,82744,1,0,0:0:0:0:
320,192,82744,1,0,0:0:0:0:
448,192,82932,1,0,0:0:0:0:
320,192,82932,1,0,0:0:0:0:
320,192,83119,1,0,0:0:0:0:
192,192,83119,1,0,0:0:0:0:
64,192,83119,1,0,0:0:0:0:
448,192,83307,1,0,0:0:0:0:
192,192,83682,1,0,0:0:0:0:
64,192,83682,1,0,0:0:0:0:
320,192,83869,1,0,0:0:0:0:
448,192,84057,1,0,0:0:0:0:
320,192,84244,1,0,0:0:0:0:
192,192,84244,1,0,0:0:0:0:
448,192,84432,1,0,0:0:0:0:
64,192,84432,1,0,0:0:0:0:
192,192,84807,1,0,0:0:0:0:
320,192,84807,1,0,0:0:0:0:
192,192,84994,1,0,0:0:0:0:
320,192,84994,1,0,0:0:0:0:
64,192,85182,1,0,0:0:0:0:
320,192,85275,1,0,0:0:0:0:
64,192,85369,1,0,0:0:0:0:
320,192,85463,1,0,0:0:0:0:
192,192,85557,1,0,0:0:0:0:
448,192,85557,1,0,0:0:0:0:
64,192,85932,1,0,0:0:0:0:
192,192,85932,1,0,0:0:0:0:
448,192,85932,1,0,0:0:0:0:
320,192,86119,1,0,0:0:0:0:
64,192,86307,1,0,0:0:0:0:
192,192,86307,1,0,0:0:0:0:
64,192,86494,1,0,0:0:0:0:
192,192,86494,1,0,0:0:0:0:
448,192,86494,1,0,0:0:0:0:
448,192,86682,1,0,0:0:0:0:
320,192,86682,1,0,0:0:0:0:
192,192,86744,1,0,0:0:0:0:
64,192,86869,1,0,0:0:0:0:
192,192,87057,1,0,0:0:0:0:
320,192,87244,1,0,0:0:0:0:
448,192,87432,1,0,0:0:0:0:
192,192,87432,1,0,0:0:0:0:
320,192,87619,1,0,0:0:0:0:
64,192,87713,1,0,0:0:0:0:
192,192,87807,1,0,0:0:0:0:
448,192,87807,1,0,0:0:0:0:
320,192,88182,1,0,0:0:0:0:
448,192,88182,1,0,0:0:0:0:
192,192,88369,1,0,0:0:0:0:
64,192,88557,1,0,0:0:0:0:
192,192,88557,1,0,0:0:0:0:
320,192,88744,1,0,0:0:0:0:
448,192,88744,1,0,0:0:0:0:
64,192,88932,1,0,0:0:0:0:
448,192,88932,1,0,0:0:0:0:
320,192,88932,1,0,0:0:0:0:
192,192,89119,1,0,0:0:0:0:
448,192,89307,1,0,0:0:0:0:
192,192,89494,1,0,0:0:0:0:
320,192,89494,1,0,0:0:0:0:
64,192,89682,1,0,0:0:0:0:
192,192,89682,1,0,0:0:0:0:
320,192,90057,1,0,0:0:0:0:
448,192,90057,1,0,0:0:0:0:
64,192,90432,1,0,0:0:0:0:
448,192,90432,1,0,0:0:0:0:
192,192,90619,1,0,0:0:0:0:
320,192,90619,1,0,0:0:0:0:
448,192,90807,1,0,0:0:0:0:
320,192,90807,1,0,0:0:0:0:
192,192,90994,1,0,0:0:0:0:
64,192,90994,1,0,0:0:0:0:
448,192,90994,1,0,0:0:0:0:
64,192,91182,1,0,0:0:0:0:
192,192,91182,1,0,0:0:0:0:
320,192,91244,1,0,0:0:0:0:
448,192,91369,1,0,0:0:0:0:
192,192,91557,1,0,0:0:0:0:
64,192,91557,1,0,0:0:0:0:
320,192,91744,1,0,0:0:0:0:
192,192,91932,1,0,0:0:0:0:
64,192,91932,1,0,0:0:0:0:
320,192,92119,1,0,0:0:0:0:
192,192,92119,1,0,0:0:0:0:
320,192,92307,128,0,93432:0:0:0:0:
448,192,92307,1,0,0:0:0:0:
192,192,92682,1,0,0:0:0:0:
192,192,92869,1,0,0:0:0:0:
64,192,93057,1,0,0:0:0:0:
448,192,93244,1,0,0:0:0:0:
192,192,93432,128,0,94557:0:0:0:0:
64,192,93432,1,0,0:0:0:0:
448,192,93807,1,0,0:0:0:0:
448,192,93994,1,0,0:0:0:0:
320,192,94182,1,0,0:0:0:0:
64,192,94275,1,0,0:0:0:0:
320,192,94369,1,0,0:0:0:0:
64,192,94463,1,0,0:0:0:0:
448,192,94557,128,0,96807:0:0:0:0:
320,192,94557,1,0,0:0:0:0:
64,192,94932,1,0,0:0:0:0:
192,192,94932,1,0,0:0:0:0:
320,192,95119,1,0,0:0:0:0:
192,192,95307,1,0,0:0:0:0:
64,192,95494,1,0,0:0:0:0:
192,192,95682,1,0,0:0:0:0:
192,192,96057,1,0,0:0:0:0:
320,192,96057,1,0,0:0:0:0:
64,192,96244,1,0,0:0:0:0:
192,192,96432,1,0,0:0:0:0:
320,192,96619,1,0,0:0:0:0:
64,192,96713,1,0,0:0:0:0:
192,192,96807,128,0,99057:0:0:0:0:
448,192,97182,1,0,0:0:0:0:
64,192,97182,1,0,0:0:0:0:
320,192,97369,1,0,0:0:0:0:
448,192,97557,1,0,0:0:0:0:
64,192,97744,1,0,0:0:0:0:
448,192,97932,1,0,0:0:0:0:
64,192,98307,1,0,0:0:0:0:
448,192,98494,1,0,0:0:0:0:
64,192,98682,1,0,0:0:0:0:
448,192,99057,128,0,101307:0:0:0:0:
320,192,99057,1,0,0:0:0:0:
320,192,99432,1,0,0:0:0:0:
64,192,99432,1,0,0:0:0:0:
192,192,99619,1,0,0:0:0:0:
320,192,99807,1,0,0:0:0:0:
192,192,99994,1,0,0:0:0:0:
320,192,100182,1,0,0:0:0:0:
64,192,100557,1,0,0:0:0:0:
320,192,100744,1,0,0:0:0:0:
64,192,100932,1,0,0:0:0:0:
320,192,101119,1,0,0:0:0:0:
64,192,101307,128,0,103557:0:0:0:0:
192,192,101307,1,0,0:0:0:0:
448,192,101682,1,0,0:0:0:0:
192,192,101682,1,0,0:0:0:0:
320,192,101869,1,0,0:0:0:0:
448,192,102057,1,0,0:0:0:0:
192,192,102244,1,0,0:0:0:0:
448,192,102432,1,0,0:0:0:0:
320,192,102807,1,0,0:0:0:0:
448,192,102994,1,0,0:0:0:0:
192,192,103182,1,0,0:0:0:0:
320,192,103275,1,0,0:0:0:0:
448,192,103369,1,0,0:0:0:0:
192,192,103463,1,0,0:0:0:0:
320,192,103557,1,0,0:0:0:0:
320,192,103932,1,0,0:0:0:0:
320,192,104119,1,0,0:0:0:0:
64,192,104307,1,0,0:0:0:0:
192,192,104494,1,0,0:0:0:0:
448,192,104682,1,0,0:0:0:0:
448,192,105432,1,0,0:0:0:0:
320,192,105619,1,0,0:0:0:0:
192,192,105807,1,0,0:0:0:0:
64,192,105807,1,0,0:0:0:0:
320,192,106182,1,0,0:0:0:0:
320,192,106369,1,0,0:0:0:0:
64,192,106557,1,0,0:0:0:0:
192,192,106744,1,0,0:0:0:0:
448,192,106932,1,0,0:0:0:0:
320,192,107307,1,0,0:0:0:0:
192,192,107494,1,0,0:0:0:0:
64,192,107682,1,0,0:0:0:0:
320,192,108057,1,0,0:0:0:0:
448,192,108057,1,0,0:0:0:0:
192,192,108432,1,0,0:0:0:0:
192,192,108619,1,0,0:0:0:0:
64,192,108807,1,0,0:0:0:0:
192,192,108994,1,0,0:0:0:0:
448,192,109182,1,0,0:0:0:0:
448,192,109557,1,0,0:0:0:0:
192,192,109932,1,0,0:0:0:0:
64,192,109932,1,0,0:0:0:0:
448,192,110119,1,0,0:0:0:0:
320,192,110307,1,0,0:0:0:0:
192,192,110307,1,0,0:0:0:0:
192,192,110682,1,0,0:0:0:0:
192,192,110869,1,0,0:0:0:0:
320,192,111057,1,0,0:0:0:0:
320,192,111244,1,0,0:0:0:0:
448,192,111432,1,0,0:0:0:0:
64,192,111807,1,0,0:0:0:0:
192,192,111994,1,0,0:0:0:0:
64,192,112182,1,0,0:0:0:0:
320,192,112557,1,0,0:0:0:0:
448,192,112557,1,0,0:0:0:0:
192,192,112557,1,0,0:0:0:0:
64,192,112932,1,0,0:0:0:0:
320,192,113119,1,0,0:0:0:0:
448,192,113119,1,0,0:0:0:0:
192,192,113307,1,0,0:0:0:0:
64,192,113494,1,0,0:0:0:0:
320,192,113682,1,0,0:0:0:0:
448,192,113682,1,0,0:0:0:0:
64,192,114057,1,0,0:0:0:0:
448,192,114432,1,0,0:0:0:0:
320,192,114619,1,0,0:0:0:0:
192,192,114807,1,0,0:0:0:0:
64,192,114807,1,0,0:0:0:0:
448,192,115182,1,0,0:0:0:0:
320,192,115369,1,0,0:0:0:0:
64,192,115369,1,0,0:0:0:0:
192,192,115557,1,0,0:0:0:0:
320,192,115744,1,0,0:0:0:0:
448,192,115932,1,0,0:0:0:0:
64,192,115932,1,0,0:0:0:0:
448,192,116307,1,0,0:0:0:0:
320,192,116307,1,0,0:0:0:0:
64,192,116400,1,0,0:0:0:0:
192,192,116494,1,0,0:0:0:0:
64,192,116682,1,0,0:0:0:0:
448,192,116682,1,0,0:0:0:0:
192,192,116869,1,0,0:0:0:0:
320,192,117057,1,0,0:0:0:0:
448,192,117057,1,0,0:0:0:0:
320,192,117432,1,0,0:0:0:0:
192,192,117619,1,0,0:0:0:0:
64,192,117619,1,0,0:0:0:0:
448,192,117807,1,0,0:0:0:0:
64,192,117994,1,0,0:0:0:0:
320,192,118182,1,0,0:0:0:0:
448,192,118182,1,0,0:0:0:0:
320,192,118557,1,0,0:0:0:0:
448,192,118557,1,0,0:0:0:0:
192,192,118744,1,0,0:0:0:0:
64,192,118744,1,0,0:0:0:0:
448,192,118932,1,0,0:0:0:0:
320,192,118932,1,0,0:0:0:0:
64,192,119119,1,0,0:0:0:0:
448,192,119307,1,0,0:0:0:0:
320,192,119307,1,0,0:0:0:0:
448,192,119682,1,0,0:0:0:0:
64,192,119869,1,0,0:0:0:0:
448,192,119869,1,0,0:0:0:0:
320,192,120057,1,0,0:0:0:0:
192,192,120244,1,0,0:0:0:0:
64,192,120244,1,0,0:0:0:0:
320,192,120338,1,0,0:0:0:0:
448,192,120432,1,0,0:0:0:0:
64,192,120432,1,0,0:0:0:0:
320,192,120619,1,0,0:0:0:0:
64,192,120807,1,0,0:0:0:0:
192,192,120807,1,0,0:0:0:0:
192,192,120994,1,0,0:0:0:0:
320,192,120994,1,0,0:0:0:0:
448,192,121182,1,0,0:0:0:0:
192,192,121369,1,0,0:0:0:0:
448,192,121557,128,0,123807:0:0:0:0:
320,192,121557,1,0,0:0:0:0:
192,192,121932,1,0,0:0:0:0:
192,192,122119,1,0,0:0:0:0:
64,192,122307,1,0,0:0:0:0:
64,192,122494,1,0,0:0:0:0:
320,192,122682,1,0,0:0:0:0:
192,192,122682,1,0,0:0:0:0:
192,192,123057,1,0,0:0:0:0:
192,192,123244,1,0,0:0:0:0:
64,192,123432,1,0,0:0:0:0:
64,192,123619,1,0,0:0:0:0:
192,192,123807,128,0,126057:0:0:0:0:
320,192,123807,1,0,0:0:0:0:
448,192,124182,1,0,0:0:0:0:
448,192,124369,1,0,0:0:0:0:
320,192,124557,1,0,0:0:0:0:
320,192,124744,1,0,0:0:0:0:
64,192,124932,1,0,0:0:0:0:
448,192,124932,1,0,0:0:0:0:
448,192,125307,1,0,0:0:0:0:
448,192,125494,1,0,0:0:0:0:
320,192,125682,1,0,0:0:0:0:
320,192,125869,1,0,0:0:0:0:
448,192,126057,128,0,128307:0:0:0:0:
64,192,126057,1,0,0:0:0:0:
192,192,126432,1,0,0:0:0:0:
320,192,126619,1,0,0:0:0:0:
64,192,126807,1,0,0:0:0:0:
320,192,127182,1,0,0:0:0:0:
192,192,127182,1,0,0:0:0:0:
320,192,127557,1,0,0:0:0:0:
64,192,127744,1,0,0:0:0:0:
320,192,127932,1,0,0:0:0:0:
64,192,128119,1,0,0:0:0:0:
192,192,128307,128,0,130557:0:0:0:0:
448,192,128682,1,0,0:0:0:0:
64,192,128869,1,0,0:0:0:0:
448,192,129057,1,0,0:0:0:0:
448,192,129432,1,0,0:0:0:0:
320,192,129432,1,0,0:0:0:0:
448,192,129807,1,0,0:0:0:0:
64,192,129994,1,0,0:0:0:0:
448,192,130182,1,0,0:0:0:0:
64,192,130557,128,0,133932:0:0:0:0:
448,192,130557,128,0,132807:0:0:0:0:
448,192,133932,128,0,135057:0:0:0:0:
320,192,135057,128,0,137307:0:0:0:0:
448,192,137307,128,0,139557:0:0:0:0:
192,192,139557,128,0,142932:0:0:0:0:
448,192,142932,128,0,144057:0:0:0:0:
320,192,144057,128,0,146307:0:0:0:0:
64,192,146307,128,0,148557:0:0:0:0:
320,192,148557,1,0,0:0:0:0:
448,192,148744,1,0,0:0:0:0:
192,192,148932,1,0,0:0:0:0:
320,192,149119,1,0,0:0:0:0:
64,192,149307,1,0,0:0:0:0:
448,192,149682,1,0,0:0:0:0:
320,192,149869,1,0,0:0:0:0:
64,192,150057,1,0,0:0:0:0:
320,192,150244,1,0,0:0:0:0:
448,192,150432,1,0,0:0:0:0:
320,192,150619,1,0,0:0:0:0:
64,192,150807,1,0,0:0:0:0:
320,192,150994,1,0,0:0:0:0:
448,192,151182,1,0,0:0:0:0:
320,192,151369,1,0,0:0:0:0:
64,192,151557,1,0,0:0:0:0:
192,192,151744,1,0,0:0:0:0:
320,192,151932,1,0,0:0:0:0:
448,192,151932,1,0,0:0:0:0:
192,192,152119,1,0,0:0:0:0:
64,192,152307,1,0,0:0:0:0:
448,192,152494,1,0,0:0:0:0:
320,192,152682,1,0,0:0:0:0:
64,192,152869,1,0,0:0:0:0:
192,192,153057,1,0,0:0:0:0:
320,192,153057,1,0,0:0:0:0:
448,192,153244,1,0,0:0:0:0:
64,192,153432,1,0,0:0:0:0:
192,192,153619,1,0,0:0:0:0:
448,192,153807,1,0,0:0:0:0:
320,192,153994,1,0,0:0:0:0:
64,192,154182,1,0,0:0:0:0:
448,192,154182,1,0,0:0:0:0:
192,192,154369,1,0,0:0:0:0:
448,192,154557,1,0,0:0:0:0:
320,192,154744,1,0,0:0:0:0:
64,192,154932,1,0,0:0:0:0:
448,192,155119,1,0,0:0:0:0:
192,192,155307,1,0,0:0:0:0:
64,192,155307,1,0,0:0:0:0:
320,192,155494,1,0,0:0:0:0:
448,192,155682,1,0,0:0:0:0:
320,192,155869,1,0,0:0:0:0:
192,192,156057,1,0,0:0:0:0:
320,192,156244,1,0,0:0:0:0:
64,192,156432,1,0,0:0:0:0:
448,192,156432,1,0,0:0:0:0:
320,192,156619,1,0,0:0:0:0:
192,192,156807,1,0,0:0:0:0:
320,192,156994,1,0,0:0:0:0:
448,192,157182,1,0,0:0:0:0:
320,192,157369,1,0,0:0:0:0:
192,192,157557,1,0,0:0:0:0:
64,192,157557,1,0,0:0:0:0:
320,192,157744,1,0,0:0:0:0:
448,192,157932,1,0,0:0:0:0:
64,192,158119,1,0,0:0:0:0:
192,192,158307,1,0,0:0:0:0:
448,192,158494,1,0,0:0:0:0:
192,192,158682,1,0,0:0:0:0:
64,192,158682,1,0,0:0:0:0:
320,192,158869,1,0,0:0:0:0:
448,192,159057,1,0,0:0:0:0:
64,192,159244,1,0,0:0:0:0:
192,192,159432,1,0,0:0:0:0:
448,192,159619,1,0,0:0:0:0:
64,192,159807,1,0,0:0:0:0:
320,192,159994,1,0,0:0:0:0:
192,192,160182,1,0,0:0:0:0:
448,192,160369,1,0,0:0:0:0:
64,192,160557,1,0,0:0:0:0:
448,192,160744,1,0,0:0:0:0:
192,192,160932,1,0,0:0:0:0:
64,192,160932,1,0,0:0:0:0:
448,192,161119,1,0,0:0:0:0:
320,192,161307,1,0,0:0:0:0:
64,192,161494,1,0,0:0:0:0:
192,192,161682,1,0,0:0:0:0:
64,192,161869,1,0,0:0:0:0:
320,192,162057,1,0,0:0:0:0:
448,192,162057,1,0,0:0:0:0:
192,192,162244,1,0,0:0:0:0:
64,192,162432,1,0,0:0:0:0:
448,192,162619,1,0,0:0:0:0:
320,192,162807,1,0,0:0:0:0:
192,192,162994,1,0,0:0:0:0:
320,192,163182,1,0,0:0:0:0:
448,192,163369,1,0,0:0:0:0:
192,192,163557,1,0,0:0:0:0:
64,192,163744,1,0,0:0:0:0:
320,192,163932,1,0,0:0:0:0:
448,192,164119,1,0,0:0:0:0:
192,192,164307,1,0,0:0:0:0:
64,192,164307,1,0,0:0:0:0:
320,192,164494,1,0,0:0:0:0:
192,192,164682,1,0,0:0:0:0:
320,192,164869,1,0,0:0:0:0:
64,192,165057,1,0,0:0:0:0:
192,192,165244,1,0,0:0:0:0:
320,192,165432,1,0,0:0:0:0:
448,192,165432,1,0,0:0:0:0:
192,192,165619,1,0,0:0:0:0:
64,192,165807,1,0,0:0:0:0:
192,192,165994,1,0,0:0:0:0:
448,192,166182,1,0,0:0:0:0:
320,192,166369,1,0,0:0:0:0:
64,192,166557,128,0,169932:0:0:0:0:
448,192,166557,1,0,0:0:0:0:
320,192,166744,1,0,0:0:0:0:
192,192,166932,1,0,0:0:0:0:
448,192,167119,1,0,0:0:0:0:
320,192,167307,1,0,0:0:0:0:
192,192,167682,1,0,0:0:0:0:
448,192,167869,1,0,0:0:0:0:
320,192,168057,1,0,0:0:0:0:
192,192,168244,1,0,0:0:0:0:
448,192,168432,1,0,0:0:0:0:
320,192,168619,1,0,0:0:0:0:
192,192,168807,1,0,0:0:0:0:
448,192,168994,1,0,0:0:0:0:
320,192,169182,1,0,0:0:0:0:
192,192,169369,1,0,0:0:0:0:
448,192,169557,1,0,0:0:0:0:
192,192,169744,1,0,0:0:0:0:
320,192,169932,128,0,171057:0:0:0:0:
448,192,169932,1,0,0:0:0:0:
192,192,170119,1,0,0:0:0:0:
64,192,170307,1,0,0:0:0:0:
448,192,170494,1,0,0:0:0:0:
192,192,170682,1,0,0:0:0:0:
64,192,170869,1,0,0:0:0:0:
192,192,171057,128,0,173307:0:0:0:0:
448,192,171057,1,0,0:0:0:0:
64,192,171244,1,0,0:0:0:0:
448,192,171432,1,0,0:0:0:0:
320,192,171619,1,0,0:0:0:0:
64,192,171807,1,0,0:0:0:0:
448,192,171994,1,0,0:0:0:0:
320,192,172182,1,0,0:0:0:0:
64,192,172369,1,0,0:0:0:0:
448,192,172557,1,0,0:0:0:0:
320,192,172744,1,0,0:0:0:0:
64,192,172932,1,0,0:0:0:0:
448,192,173119,1,0,0:0:0:0:
448,192,173307,128,0,175557:0:0:0:0:
320,192,173307,1,0,0:0:0:0:
192,192,173494,1,0,0:0:0:0:
64,192,173682,1,0,0:0:0:0:
320,192,173869,1,0,0:0:0:0:
192,192,174057,1,0,0:0:0:0:
320,192,174244,1,0,0:0:0:0:
64,192,174432,1,0,0:0:0:0:
320,192,174619,1,0,0:0:0:0:
192,192,174807,1,0,0:0:0:0:
64,192,174994,1,0,0:0:0:0:
320,192,175182,1,0,0:0:0:0:
192,192,175369,1,0,0:0:0:0:
320,192,175557,128,0,178932:0:0:0:0:
64,192,175557,1,0,0:0:0:0:
192,192,175744,1,0,0:0:0:0:
64,192,175932,1,0,0:0:0:0:
192,192,176119,1,0,0:0:0:0:
448,192,176307,1,0,0:0:0:0:
192,192,176494,1,0,0:0:0:0:
64,192,176682,1,0,0:0:0:0:
192,192,176869,1,0,0:0:0:0:
448,192,177057,1,0,0:0:0:0:
192,192,177244,1,0,0:0:0:0:
448,192,177432,1,0,0:0:0:0:
64,192,177619,1,0,0:0:0:0:
192,192,177807,1,0,0:0:0:0:
64,192,177994,1,0,0:0:0:0:
448,192,178182,1,0,0:0:0:0:
64,192,178369,1,0,0:0:0:0:
192,192,178557,1,0,0:0:0:0:
64,192,178744,1,0,0:0:0:0:
64,192,178932,128,0,180057:0:0:0:0:
192,192,178932,1,0,0:0:0:0:
448,192,178932,1,0,0:0:0:0:
192,192,179119,1,0,0:0:0:0:
448,192,179307,1,0,0:0:0:0:
192,192,179494,1,0,0:0:0:0:
320,192,179682,1,0,0:0:0:0:
448,192,179869,1,0,0:0:0:0:
448,192,180057,128,0,182307:0:0:0:0:
192,192,180057,1,0,0:0:0:0:
320,192,180244,1,0,0:0:0:0:
64,192,180432,1,0,0:0:0:0:
320,192,180619,1,0,0:0:0:0:
192,192,180807,1,0,0:0:0:0:
64,192,180807,1,0,0:0:0:0:
320,192,180994,1,0,0:0:0:0:
64,192,181182,1,0,0:0:0:0:
192,192,181182,1,0,0:0:0:0:
320,192,181369,1,0,0:0:0:0:
64,192,181557,1,0,0:0:0:0:
192,192,181744,1,0,0:0:0:0:
320,192,181932,1,0,0:0:0:0:
64,192,181932,1,0,0:0:0:0:
64,192,182119,1,0,0:0:0:0:
192,192,182119,1,0,0:0:0:0:
320,192,182307,128,0,184557:0:0:0:0:
192,192,182307,1,0,0:0:0:0:
64,192,182494,1,0,0:0:0:0:
448,192,182682,1,0,0:0:0:0:
192,192,182869,1,0,0:0:0:0:
448,192,183057,1,0,0:0:0:0:
64,192,183057,1,0,0:0:0:0:
192,192,183244,1,0,0:0:0:0:
192,192,183432,1,0,0:0:0:0:
448,192,183432,1,0,0:0:0:0:
192,192,183807,1,0,0:0:0:0:
448,192,183807,128,0,184557:0:0:0:0:
64,192,183994,1,0,0:0:0:0:
192,192,184182,1,0,0:0:0:0:
64,192,184369,1,0,0:0:0:0:
192,192,184557,1,0,0:0:0:0:
320,192,184932,1,0,0:0:0:0:
192,192,185682,1,0,0:0:0:0:
64,192,185682,1,0,0:0:0:0:
448,192,186057,1,0,0:0:0:0:
320,192,186244,1,0,0:0:0:0:
64,192,186432,1,0,0:0:0:0:
192,192,186619,1,0,0:0:0:0:
320,192,186807,1,0,0:0:0:0:
448,192,186807,1,0,0:0:0:0:
448,192,187182,1,0,0:0:0:0:
320,192,187369,1,0,0:0:0:0:
64,192,187557,1,0,0:0:0:0:
192,192,187744,1,0,0:0:0:0:
320,192,187932,1,0,0:0:0:0:
448,192,187932,1,0,0:0:0:0:
448,192,188307,1,0,0:0:0:0:
192,192,188494,1,0,0:0:0:0:
64,192,188494,1,0,0:0:0:0:
320,192,188682,1,0,0:0:0:0:
448,192,188869,1,0,0:0:0:0:
192,192,189057,1,0,0:0:0:0:
64,192,189057,1,0,0:0:0:0:
320,192,189432,1,0,0:0:0:0:
448,192,189432,1,0,0:0:0:0:
192,192,189619,1,0,0:0:0:0:
448,192,189807,1,0,0:0:0:0:
320,192,189807,1,0,0:0:0:0:
64,192,189994,1,0,0:0:0:0:
320,192,190182,1,0,0:0:0:0:
448,192,190182,1,0,0:0:0:0:
192,192,190557,1,0,0:0:0:0:
64,192,190557,1,0,0:0:0:0:
448,192,190744,1,0,0:0:0:0:
192,192,190932,1,0,0:0:0:0:
64,192,190932,1,0,0:0:0:0:
320,192,191119,1,0,0:0:0:0:
448,192,191119,1,0,0:0:0:0:
64,192,191307,1,0,0:0:0:0:
192,192,191307,1,0,0:0:0:0:
320,192,191682,1,0,0:0:0:0:
448,192,191682,1,0,0:0:0:0:
192,192,191869,1,0,0:0:0:0:
64,192,192057,1,0,0:0:0:0:
320,192,192057,1,0,0:0:0:0:
448,192,192244,1,0,0:0:0:0:
64,192,192432,1,0,0:0:0:0:
320,192,192432,1,0,0:0:0:0:
192,192,192619,1,0,0:0:0:0:
448,192,192807,1,0,0:0:0:0:
320,192,192807,1,0,0:0:0:0:
64,192,192994,1,0,0:0:0:0:
320,192,193182,1,0,0:0:0:0:
448,192,193182,1,0,0:0:0:0:
64,192,193369,1,0,0:0:0:0:
192,192,193369,1,0,0:0:0:0:
320,192,193463,1,0,0:0:0:0:
448,192,193463,1,0,0:0:0:0:
64,192,193557,1,0,0:0:0:0:
192,192,193557,1,0,0:0:0:0:
320,192,193932,1,0,0:0:0:0:
192,192,193932,1,0,0:0:0:0:
448,192,194119,1,0,0:0:0:0:
64,192,194119,1,0,0:0:0:0:
64,192,194307,1,0,0:0:0:0:
192,192,194307,1,0,0:0:0:0:
192,192,194494,1,0,0:0:0:0:
320,192,194494,1,0,0:0:0:0:
64,192,194588,1,0,0:0:0:0:
320,192,194682,1,0,0:0:0:0:
448,192,194682,1,0,0:0:0:0:
192,192,194869,1,0,0:0:0:0:
64,192,194963,1,0,0:0:0:0:
320,192,195057,1,0,0:0:0:0:
448,192,195057,1,0,0:0:0:0:
320,192,195244,1,0,0:0:0:0:
448,192,195338,1,0,0:0:0:0:
192,192,195432,1,0,0:0:0:0:
64,192,195432,1,0,0:0:0:0:
320,192,195619,1,0,0:0:0:0:
448,192,195713,1,0,0:0:0:0:
64,192,195807,1,0,0:0:0:0:
192,192,195807,1,0,0:0:0:0:
192,192,195994,1,0,0:0:0:0:
64,192,196088,1,0,0:0:0:0:
320,192,196182,1,0,0:0:0:0:
448,192,196182,1,0,0:0:0:0:
320,192,196369,1,0,0:0:0:0:
64,192,196463,1,0,0:0:0:0:
192,192,196557,1,0,0:0:0:0:
448,192,196557,1,0,0:0:0:0:
192,192,196744,1,0,0:0:0:0:
448,192,196838,1,0,0:0:0:0:
320,192,196932,1,0,0:0:0:0:
64,192,196932,1,0,0:0:0:0:
320,192,197119,1,0,0:0:0:0:
448,192,197213,1,0,0:0:0:0:
192,192,197307,1,0,0:0:0:0:
64,192,197307,1,0,0:0:0:0:
192,192,197494,1,0,0:0:0:0:
64,192,197588,1,0,0:0:0:0:
320,192,197682,1,0,0:0:0:0:
448,192,197682,1,0,0:0:0:0:
192,192,197869,1,0,0:0:0:0:
64,192,197963,1,0,0:0:0:0:
320,192,198057,1,0,0:0:0:0:
448,192,198057,1,0,0:0:0:0:
192,192,198057,1,0,0:0:0:0:
192,192,198244,1,0,0:0:0:0:
448,192,198338,1,0,0:0:0:0:
192,192,198432,1,0,0:0:0:0:
64,192,198432,1,0,0:0:0:0:
448,192,198619,1,0,0:0:0:0:
192,192,198713,1,0,0:0:0:0:
448,192,198807,1,0,0:0:0:0:
320,192,198807,1,0,0:0:0:0:
64,192,198994,1,0,0:0:0:0:
320,192,199088,1,0,0:0:0:0:
64,192,199182,1,0,0:0:0:0:
192,192,199182,1,0,0:0:0:0:
448,192,199182,1,0,0:0:0:0:
448,192,199369,1,0,0:0:0:0:
192,192,199463,1,0,0:0:0:0:
448,192,199557,1,0,0:0:0:0:
320,192,199557,1,0,0:0:0:0:
64,192,199744,1,0,0:0:0:0:
320,192,199838,1,0,0:0:0:0:
64,192,199932,1,0,0:0:0:0:
192,192,199932,1,0,0:0:0:0:
448,192,200119,1,0,0:0:0:0:
192,192,200213,1,0,0:0:0:0:
448,192,200307,1,0,0:0:0:0:
320,192,200307,1,0,0:0:0:0:
64,192,200307,1,0,0:0:0:0:
192,192,200682,1,0,0:0:0:0:
64,192,200682,1,0,0:0:0:0:
320,192,200869,1,0,0:0:0:0:
448,192,200869,1,0,0:0:0:0:
64,192,201057,1,0,0:0:0:0:
192,192,201057,1,0,0:0:0:0:
448,192,201244,1,0,0:0:0:0:
320,192,201244,1,0,0:0:0:0:
448,192,201432,1,0,0:0:0:0:
320,192,201432,1,0,0:0:0:0:
64,192,201432,1,0,0:0:0:0:
448,192,201807,1,0,0:0:0:0:
64,192,201900,1,0,0:0:0:0:
320,192,201994,1,0,0:0:0:0:
448,192,202182,1,0,0:0:0:0:
64,192,202275,1,0,0:0:0:0:
320,192,202369,1,0,0:0:0:0:
192,192,202463,1,0,0:0:0:0:
448,192,202557,5,0,0:0:0:0:
320,192,202557,1,0,0:0:0:0:
448,192,203682,5,0,0:0:0:0:
448,192,204432,1,0,0:0:0:0:
192,192,204432,1,0,0:0:0:0:
64,192,204807,1,0,0:0:0:0:
320,192,204807,1,0,0:0:0:0:
448,192,205182,1,0,0:0:0:0:
448,192,205369,1,0,0:0:0:0:
192,192,205557,1,0,0:0:0:0:
192,192,205744,1,0,0:0:0:0:
320,192,205932,1,0,0:0:0:0:
320,192,206119,1,0,0:0:0:0:
320,192,206682,1,0,0:0:0:0:
64,192,206682,1,0,0:0:0:0:
192,192,207057,1,0,0:0:0:0:
448,192,207057,1,0,0:0:0:0:
320,192,207432,1,0,0:0:0:0:
192,192,207619,1,0,0:0:0:0:
192,192,207994,1,0,0:0:0:0:
320,192,208182,1,0,0:0:0:0:
448,192,208557,1,0,0:0:0:0:
192,192,208932,1,0,0:0:0:0:
64,192,208932,1,0,0:0:0:0:
448,192,209119,1,0,0:0:0:0:
320,192,209307,1,0,0:0:0:0:
192,192,209307,1,0,0:0:0:0:
64,192,209494,1,0,0:0:0:0:
448,192,209682,1,0,0:0:0:0:
320,192,209869,1,0,0:0:0:0:
64,192,210244,1,0,0:0:0:0:
192,192,210432,1,0,0:0:0:0:
320,192,210432,1,0,0:0:0:0:
448,192,210619,1,0,0:0:0:0:
64,192,210807,1,0,0:0:0:0:
192,192,210994,1,0,0:0:0:0:
320,192,211182,1,0,0:0:0:0:
448,192,211182,1,0,0:0:0:0:
64,192,211369,1,0,0:0:0:0:
320,192,211557,1,0,0:0:0:0:
448,192,211557,1,0,0:0:0:0:
320,192,211932,1,0,0:0:0:0:
64,192,212119,1,0,0:0:0:0:
192,192,212307,1,0,0:0:0:0:
448,192,212494,1,0,0:0:0:0:
192,192,212682,1,0,0:0:0:0:
64,192,212682,1,0,0:0:0:0:
320,192,212869,1,0,0:0:0:0:
64,192,213057,1,0,0:0:0:0:
192,192,213057,1,0,0:0:0:0:
320,192,213244,1,0,0:0:0:0:
192,192,213432,1,0,0:0:0:0:
448,192,213432,1,0,0:0:0:0:
64,192,213619,1,0,0:0:0:0:
192,192,213713,1,0,0:0:0:0:
448,192,213807,1,0,0:0:0:0:
320,192,213807,1,0,0:0:0:0:
192,192,213994,1,0,0:0:0:0:
320,192,214182,1,0,0:0:0:0:
64,192,214369,1,0,0:0:0:0:
448,192,214557,1,0,0:0:0:0:
192,192,214744,1,0,0:0:0:0:
320,192,214932,1,0,0:0:0:0:
448,192,214932,1,0,0:0:0:0:
64,192,215119,1,0,0:0:0:0:
192,192,215307,1,0,0:0:0:0:
64,192,215494,1,0,0:0:0:0:
320,192,215682,1,0,0:0:0:0:
448,192,215682,1,0,0:0:0:0:
192,192,215869,1,0,0:0:0:0:
64,192,215869,1,0,0:0:0:0:
320,192,216057,128,0,217932:0:0:0:0:
448,192,216057,1,0,0:0:0:0:
64,192,216057,1,0,0:0:0:0:
192,192,216244,1,0,0:0:0:0:
448,192,216432,1,0,0:0:0:0:
448,192,216619,1,0,0:0:0:0:
192,192,216619,1,0,0:0:0:0:
64,192,216807,1,0,0:0:0:0:
192,192,216994,1,0,0:0:0:0:
448,192,217182,1,0,0:0:0:0:
64,192,217182,1,0,0:0:0:0:
64,192,217369,1,0,0:0:0:0:
448,192,217557,1,0,0:0:0:0:
64,192,217744,1,0,0:0:0:0:
192,192,217932,128,0,218307:0:0:0:0:
448,192,217932,1,0,0:0:0:0:
64,192,218119,1,0,0:0:0:0:
448,192,218307,128,0,219432:0:0:0:0:
320,192,218307,1,0,0:0:0:0:
320,192,218682,1,0,0:0:0:0:
192,192,218682,1,0,0:0:0:0:
64,192,218869,1,0,0:0:0:0:
192,192,218869,1,0,0:0:0:0:
192,192,219057,1,0,0:0:0:0:
64,192,219244,1,0,0:0:0:0:
320,192,219432,128,0,220463:0:0:0:0:
192,192,219432,1,0,0:0:0:0:
64,192,219619,1,0,0:0:0:0:
448,192,219807,1,0,0:0:0:0:
192,192,219994,1,0,0:0:0:0:
448,192,220182,1,0,0:0:0:0:
320,192,220557,128,0,222807:0:0:0:0:
448,192,220557,1,0,0:0:0:0:
64,192,220744,1,0,0:0:0:0:
448,192,220932,1,0,0:0:0:0:
192,192,221119,1,0,0:0:0:0:
64,192,221119,1,0,0:0:0:0:
448,192,221307,1,0,0:0:0:0:
192,192,221494,1,0,0:0:0:0:
448,192,221682,1,0,0:0:0:0:
64,192,221682,1,0,0:0:0:0:
448,192,222057,1,0,0:0:0:0:
64,192,222432,1,0,0:0:0:0:
448,192,222619,1,0,0:0:0:0:
64,192,222713,1,0,0:0:0:0:
192,192,222807,128,0,223932:0:0:0:0:
448,192,222807,1,0,0:0:0:0:
64,192,223182,1,0,0:0:0:0:
320,192,223182,1,0,0:0:0:0:
448,192,223369,1,0,0:0:0:0:
320,192,223557,1,0,0:0:0:0:
64,192,223932,128,0,225057:0:0:0:0:
320,192,223932,1,0,0:0:0:0:
448,192,224119,1,0,0:0:0:0:
192,192,224307,1,0,0:0:0:0:
320,192,224682,1,0,0:0:0:0:
448,192,224682,1,0,0:0:0:0:
320,192,225057,128,0,226932:0:0:0:0:
448,192,225057,1,0,0:0:0:0:
64,192,225432,1,0,0:0:0:0:
192,192,225619,1,0,0:0:0:0:
64,192,225619,1,0,0:0:0:0:
448,192,225807,1,0,0:0:0:0:
192,192,225994,1,0,0:0:0:0:
448,192,226182,1,0,0:0:0:0:
64,192,226182,1,0,0:0:0:0:
64,192,226557,1,0,0:0:0:0:
192,192,226932,128,0,227307:0:0:0:0:
448,192,226932,1,0,0:0:0:0:
448,192,227307,128,0,228432:0:0:0:0:
64,192,227307,1,0,0:0:0:0:
320,192,227682,1,0,0:0:0:0:
64,192,227869,1,0,0:0:0:0:
192,192,227869,1,0,0:0:0:0:
320,192,228057,1,0,0:0:0:0:
320,192,228432,128,0,229463:0:0:0:0:
64,192,228432,1,0,0:0:0:0:
448,192,228619,1,0,0:0:0:0:
192,192,228807,1,0,0:0:0:0:
64,192,228807,1,0,0:0:0:0:
448,192,229182,1,0,0:0:0:0:
192,192,229182,1,0,0:0:0:0:
320,192,229557,128,0,231807:0:0:0:0:
64,192,229557,1,0,0:0:0:0:
448,192,229744,1,0,0:0:0:0:
192,192,229932,1,0,0:0:0:0:
448,192,230119,1,0,0:0:0:0:
64,192,230119,1,0,0:0:0:0:
64,192,230307,1,0,0:0:0:0:
192,192,230494,1,0,0:0:0:0:
448,192,230682,1,0,0:0:0:0:
64,192,230682,1,0,0:0:0:0:
192,192,231057,1,0,0:0:0:0:
448,192,231432,1,0,0:0:0:0:
64,192,231432,1,0,0:0:0:0:
64,192,231619,1,0,0:0:0:0:
448,192,231713,1,0,0:0:0:0:
192,192,231807,128,0,232932:0:0:0:0:
64,192,231807,1,0,0:0:0:0:
64,192,232182,1,0,0:0:0:0:
448,192,232369,1,0,0:0:0:0:
64,192,232369,1,0,0:0:0:0:
320,192,232557,1,0,0:0:0:0:
64,192,232557,1,0,0:0:0:0:
64,192,232932,128,0,234057:0:0:0:0:
448,192,232932,1,0,0:0:0:0:
320,192,233119,1,0,0:0:0:0:
448,192,233307,1,0,0:0:0:0:
192,192,233307,1,0,0:0:0:0:
320,192,233682,1,0,0:0:0:0:
448,192,233682,1,0,0:0:0:0:
192,192,234057,128,0,236307:0:0:0:0:
448,192,234057,1,0,0:0:0:0:
448,192,234432,1,0,0:0:0:0:
320,192,234619,1,0,0:0:0:0:
64,192,234807,1,0,0:0:0:0:
320,192,234994,1,0,0:0:0:0:
448,192,235182,1,0,0:0:0:0:
320,192,235557,1,0,0:0:0:0:
448,192,235557,1,0,0:0:0:0:
64,192,235932,1,0,0:0:0:0:
320,192,235932,1,0,0:0:0:0:
448,192,236119,1,0,0:0:0:0:
320,192,236119,1,0,0:0:0:0:
320,192,236307,128,0,238557:0:0:0:0:
64,192,236307,1,0,0:0:0:0:
192,192,236869,1,0,0:0:0:0:
448,192,236869,1,0,0:0:0:0:
64,192,237057,1,0,0:0:0:0:
192,192,237244,1,0,0:0:0:0:
448,192,237432,1,0,0:0:0:0:
64,192,237432,1,0,0:0:0:0:
64,192,237807,1,0,0:0:0:0:
448,192,237807,1,0,0:0:0:0:
192,192,238182,1,0,0:0:0:0:
448,192,238369,1,0,0:0:0:0:
64,192,238557,128,0,240807:0:0:0:0:
192,192,238557,1,0,0:0:0:0:
448,192,238932,1,0,0:0:0:0:
320,192,239119,1,0,0:0:0:0:
192,192,239307,1,0,0:0:0:0:
448,192,239494,1,0,0:0:0:0:
320,192,239682,1,0,0:0:0:0:
192,192,239682,1,0,0:0:0:0:
448,192,240057,1,0,0:0:0:0:
192,192,240244,1,0,0:0:0:0:
320,192,240432,1,0,0:0:0:0:
192,192,240525,1,0,0:0:0:0:
448,192,240619,1,0,0:0:0:0:
192,192,240713,1,0,0:0:0:0:
320,192,240807,128,0,241932:0:0:0:0:
448,192,240807,1,0,0:0:0:0:
192,192,241182,1,0,0:0:0:0:
448,192,241182,1,0,0:0:0:0:
64,192,241369,1,0,0:0:0:0:
192,192,241557,1,0,0:0:0:0:
448,192,241557,1,0,0:0:0:0:
192,192,241932,128,0,243057:0:0:0:0:
448,192,241932,1,0,0:0:0:0:
64,192,242307,1,0,0:0:0:0:
448,192,242307,1,0,0:0:0:0:
320,192,242682,1,0,0:0:0:0:
448,192,242682,1,0,0:0:0:0:
64,192,243057,128,0,245307:0:0:0:0:
448,192,243057,1,0,0:0:0:0:
320,192,243057,1,0,0:0:0:0:
320,192,243432,1,0,0:0:0:0:
448,192,243432,1,0,0:0:0:0:
192,192,243619,1,0,0:0:0:0:
448,192,243807,1,0,0:0:0:0:
320,192,243994,1,0,0:0:0:0:
192,192,244182,1,0,0:0:0:0:
448,192,244182,1,0,0:0:0:0:
448,192,244557,1,0,0:0:0:0:
320,192,244557,1,0,0:0:0:0:
448,192,244932,1,0,0:0:0:0:
192,192,245119,1,0,0:0:0:0:
320,192,245307,128,0,247557:0:0:0:0:
448,192,245307,1,0,0:0:0:0:
64,192,245869,1,0,0:0:0:0:
192,192,245869,1,0,0:0:0:0:
448,192,246057,1,0,0:0:0:0:
192,192,246244,1,0,0:0:0:0:
448,192,246432,1,0,0:0:0:0:
64,192,246432,1,0,0:0:0:0:
448,192,246807,1,0,0:0:0:0:
192,192,246807,1,0,0:0:0:0:
448,192,247182,1,0,0:0:0:0:
192,192,247182,1,0,0:0:0:0:
64,192,247369,1,0,0:0:0:0:
448,192,247369,1,0,0:0:0:0:
192,192,247557,128,0,249807:0:0:0:0:
448,192,247557,1,0,0:0:0:0:
64,192,247932,1,0,0:0:0:0:
448,192,248119,1,0,0:0:0:0:
320,192,248307,1,0,0:0:0:0:
64,192,248494,1,0,0:0:0:0:
320,192,248682,1,0,0:0:0:0:
448,192,248682,1,0,0:0:0:0:
448,192,249057,1,0,0:0:0:0:
320,192,249057,1,0,0:0:0:0:
64,192,249432,1,0,0:0:0:0:
448,192,249525,1,0,0:0:0:0:
320,192,249619,1,0,0:0:0:0:
64,192,249713,1,0,0:0:0:0:
448,192,249807,128,0,250932:0:0:0:0:
320,192,249807,1,0,0:0:0:0:
320,192,250182,1,0,0:0:0:0:
192,192,250182,1,0,0:0:0:0:
64,192,250369,1,0,0:0:0:0:
192,192,250557,1,0,0:0:0:0:
320,192,250557,1,0,0:0:0:0:
64,192,250932,128,0,252057:0:0:0:0:
192,192,250932,1,0,0:0:0:0:
448,192,251307,128,0,252057:0:0:0:0:
320,192,251307,1,0,0:0:0:0:
192,192,251682,1,0,0:0:0:0:
320,192,251775,1,0,0:0:0:0:
192,192,251869,1,0,0:0:0:0:
320,192,251963,1,0,0:0:0:0:
192,192,252057,128,0,253088:0:0:0:0:
192,192,253182,128,0,253932:0:0:0:0:
64,192,253932,1,0,0:0:0:0:
448,192,253932,1,0,0:0:0:0:
64,192,254307,1,0,0:0:0:0:
448,192,254307,1,0,0:0:0:0:
320,192,254682,1,0,0:0:0:0:
320,192,254869,1,0,0:0:0:0:
192,192,255057,1,0,0:0:0:0:
192,192,255244,1,0,0:0:0:0:
192,192,256182,1,0,0:0:0:0:
320,192,256182,1,0,0:0:0:0:
64,192,256557,1,0,0:0:0:0:
448,192,256557,1,0,0:0:0:0:
