osu file format v14

[General]
AudioFilename: audio.mp3
AudioLeadIn: 0
PreviewTime: 42489
Countdown: 0
SampleSet: Soft
StackLeniency: 0.3
Mode: 0
LetterboxInBreaks: 0
WidescreenStoryboard: 0

[Editor]
Bookmarks: 75964,131469,166636,175390,189560,224018,259168,298701,321245
DistanceSpacing: 2
BeatDivisor: 4
GridSize: 4
TimelineZoom: 2.2

[Metadata]
Title:Joutsenlaulu
TitleUnicode:Joutsenlaulu
Artist:Yo
ArtistUnicode:Yö
Creator:-Kemsyt
Version:Tuska
Source:
Tags:suomirock rock pop suomi finland finnish nuorallatanssija swan song pain melancholy jussi hakulinen maakkeli makeli mäkeli Eero Safka Pekkonen Petri Salonen Jani Viitanen Veikko Lehtiranta mkl
BeatmapID:3528684
BeatmapSetID:1726605

[Difficulty]
HPDrainRate:5
CircleSize:4.2
OverallDifficulty:8.2
ApproachRate:8
SliderMultiplier:1.8
SliderTickRate:1

[Events]
//Background and Video events
0,0,"bg.jpg",0,0
//Break Periods
//Storyboard Layer 0 (Background)
//Storyboard Layer 1 (Fail)
//Storyboard Layer 2 (Pass)
//Storyboard Layer 3 (Foreground)
//Storyboard Layer 4 (Overlay)
//Storyboard Sound Samples

[TimingPoints]
404,352.941176470588,4,2,1,50,1,0
404,-125,4,2,1,50,0,0
580,465.116279069767,4,2,1,50,1,0
580,-125,4,2,1,50,0,0
1277,-200,4,2,1,50,0,0
2324,-200,4,2,1,5,0,0
2440,300,4,2,1,50,1,0
2440,-125,4,2,1,50,0,0
2590,476.190476190476,4,2,1,50,1,0
2590,-125,4,2,1,50,0,0
3066,491.803278688525,4,2,1,50,1,0
3066,-125,4,2,1,50,0,0
4049,428.571428571429,4,2,1,50,1,0
4049,-125,4,2,1,50,0,0
4477,491.803278688525,4,2,1,70,1,0
4477,-83.3333333333333,4,2,1,70,0,0
5952,-71.4285714285714,4,2,1,70,0,0
6321,-71.4285714285714,4,2,1,5,0,0
6444,-83.3333333333333,4,2,1,70,0,0
7919,-100,4,2,1,70,0,0
8288,-100,4,2,1,5,0,0
8411,512.820512820513,4,2,1,70,1,0
8411,-83.3333333333333,4,2,1,70,0,0
10334,-83.3333333333333,4,2,1,5,0,0
10462,-83.3333333333333,4,2,1,70,0,0
12513,504.201680672269,4,2,1,50,1,0
12513,-100,4,2,1,50,0,0
16042,476.190476190476,4,2,1,50,1,0
16518,504.201680672269,4,2,1,50,1,0
18534,508.474576271187,4,2,1,50,1,0
19550,491.803278688525,4,2,1,50,1,0
19550,-90.9090909090909,4,2,1,50,0,0
20533,504.201680672269,4,2,1,50,1,0
20533,-100,4,2,1,50,0,0
21163,-100,4,2,1,5,0,0
21289,-100,4,2,1,50,0,0
23180,-100,4,2,1,5,0,0
23306,-100,4,2,1,50,0,0
24566,508.474576271187,4,2,1,50,1,0
24566,-90.9090909090909,4,2,1,50,0,0
26599,517.241379310345,4,2,1,50,1,0
28667,508.474576271186,4,2,1,50,1,0
28921,-100,4,2,1,5,0,0
29048,-100,4,2,1,50,0,0
29302,-100,4,2,1,5,0,0
29429,-100,4,2,1,50,0,0
30700,512.820512820513,4,2,1,50,1,0
34802,504.201680672269,4,2,1,50,1,0
36314,521.739130434783,4,2,1,50,1,0
36835,517.241379310345,4,2,1,50,1,0
38903,-83.3333333333333,4,2,1,50,0,0
39291,-83.3333333333333,4,2,1,5,0,0
39421,-100,4,2,1,50,0,0
39938,500,4,2,1,50,1,0
40938,517.241379310345,4,2,1,50,1,0
40938,-83.3333333333333,4,2,1,50,0,0
41713,-100,4,2,1,50,0,0
43006,491.803278688525,4,2,1,30,1,0
43251,-100,4,2,1,35,0,0
43497,-100,4,2,1,40,0,0
43743,-100,4,2,1,45,0,0
43989,-100,4,2,1,50,0,0
44235,-100,4,2,1,55,0,0
44481,-100,4,2,1,60,0,0
44973,521.739130434783,4,2,1,70,1,0
44973,-76.9230769230769,4,2,1,70,0,1
47059,512.820512820513,4,2,1,70,1,1
47059,-76.9230769230769,4,2,1,70,0,1
47443,-76.9230769230769,4,2,1,5,0,1
47571,-76.9230769230769,4,2,1,70,0,1
51161,526.315789473684,4,2,1,70,1,1
51161,-76.9230769230769,4,2,1,70,0,1
53266,521.739130434783,4,2,1,70,1,1
53266,-76.9230769230769,4,2,1,70,0,1
55874,517.241379310345,4,2,1,70,1,1
55874,-76.9230769230769,4,2,1,70,0,1
57425,468.75,4,2,1,70,1,1
57425,-86.9565217391304,4,2,1,70,0,1
57893,631.578947368421,4,2,1,70,1,1
57893,-86.9565217391304,4,2,1,70,0,1
58208,545.454545454545,4,2,1,70,1,1
58208,-86.9565217391304,4,2,1,70,0,1
58480,512.820512820513,4,2,1,70,1,1
58480,-86.9565217391304,4,2,1,70,0,1
59505,530.973451327434,4,2,1,70,1,1
61628,521.739130434783,4,2,1,70,1,1
63714,-86.9565217391304,4,2,1,70,0,1
65801,454.545454545455,4,2,1,50,1,0
66255,480,4,2,1,50,1,0
66255,-133.333333333333,4,2,1,50,0,0
67215,560.747663551402,4,2,1,50,1,0
67215,-333.333333333333,4,2,1,50,0,0
67635,-333.333333333333,4,2,1,5,0,0
67775,495.867768595042,4,2,1,50,1,0
67775,-86.9565217391304,4,2,1,50,0,0
68766,517.241379310345,4,2,1,50,1,0
68766,-86.9565217391304,4,2,1,50,0,0
69800,500,4,2,1,50,1,0
69800,-86.9565217391304,4,2,1,50,0,0
71800,535.714285714286,4,2,1,50,1,0
71800,-76.9230769230769,4,2,1,50,0,0
72871,512.820512820513,4,2,1,50,1,0
72871,-76.9230769230769,4,2,1,50,0,0
73255,-76.9230769230769,4,2,1,5,0,0
73383,-76.9230769230769,4,2,1,50,0,0
73896,517.241379310345,4,2,1,30,1,0
73896,-76.9230769230769,4,2,1,30,0,0
74154,-76.9230769230769,4,2,1,40,0,0
74413,-76.9230769230769,4,2,1,50,0,0
74671,-76.9230769230769,4,2,1,60,0,0
74930,-76.9230769230769,4,2,1,70,0,0
75189,-76.9230769230769,4,2,1,50,0,0
75964,512.820512820513,4,2,1,50,1,0
77374,-100,4,2,1,5,0,0
77502,-100,4,2,1,50,0,0
83528,-100,4,2,1,5,0,0
83656,-100,4,2,1,50,0,0
88271,508.474576271186,4,2,1,50,1,0
90304,512.820512820513,4,2,1,50,1,0
91842,500,4,2,1,50,1,0
92342,512.820512820513,4,2,1,50,1,0
102598,517.241379310345,4,2,1,50,1,0
105701,508.474576271186,4,2,1,50,1,0
106209,-100,4,2,1,20,0,0
106463,-100,4,2,1,25,0,0
106717,500,4,2,1,30,1,0
106967,-100,4,2,1,35,0,0
107217,-100,4,2,1,40,0,0
107467,-100,4,2,1,45,0,0
107717,-100,4,2,1,50,0,0
107967,-100,4,2,1,55,0,0
108217,535.714285714286,4,2,1,60,1,0
108752,521.739130434783,4,2,1,70,1,0
108752,-83.3333333333333,4,2,1,70,0,1
110186,-83.3333333333333,4,2,1,5,0,1
110317,-83.3333333333333,4,2,1,70,0,1
112273,-83.3333333333333,4,2,1,5,0,1
112404,-83.3333333333333,4,2,1,70,0,1
114360,-83.3333333333333,4,2,1,5,0,1
114491,508.474576271186,4,2,1,70,1,1
114491,-83.3333333333333,4,2,1,70,0,1
114999,504.201680672269,4,2,1,70,1,1
114999,-83.3333333333333,4,2,1,70,0,1
116007,530.973451327434,4,2,1,70,1,1
116007,-83.3333333333333,4,2,1,70,0,1
117068,512.820512820513,4,2,1,70,1,1
117068,-83.3333333333333,4,2,1,70,0,1
121170,521.739130434783,4,2,1,70,1,1
121170,-83.3333333333333,4,2,1,70,0,1
122213,545.454545454546,4,2,1,70,1,1
122213,-83.3333333333333,4,2,1,70,0,1
122622,-83.3333333333333,4,2,1,5,0,1
122758,500,4,2,1,70,1,1
122758,-83.3333333333333,4,2,1,70,0,1
123256,517.241379310345,4,2,1,70,1,1
123256,-83.3333333333333,4,2,1,70,0,1
124678,-83.3333333333333,4,2,1,5,0,1
124807,-83.3333333333333,4,2,1,70,0,1
128428,504.201680672269,4,2,1,70,1,1
128428,-83.3333333333333,4,2,1,70,0,1
129436,508.474576271186,4,2,1,50,1,0
131469,500,4,2,1,50,1,0
131969,550.45871559633,4,2,1,50,1,0
132519,504.201680672269,4,2,1,50,1,0
133023,-250,4,2,1,50,0,0
133401,-250,4,2,1,5,0,0
133527,508.474576271187,4,2,1,50,1,0
133527,-100,4,2,1,50,0,0
134035,555.555555555556,4,2,1,50,1,0
134590,512.820512820513,4,2,1,50,1,0
135615,521.739130434783,4,2,1,50,1,0
137701,512.820512820513,4,2,1,50,1,0
142188,-100,4,2,1,5,0,0
142316,-100,4,2,1,50,0,0
143342,-250,4,2,1,50,0,0
143726,-250,4,2,1,5,0,0
143854,-100,4,2,1,50,0,0
144880,508.474576271186,4,2,1,50,1,0
145261,-100,4,2,1,5,0,0
145388,-100,4,2,1,50,0,0
145896,500,4,2,1,30,1,0
146146,-100,4,2,1,35,0,0
146396,-100,4,2,1,40,0,0
146646,-100,4,2,1,45,0,0
146896,-100,4,2,1,50,0,0
147146,-100,4,2,1,55,0,0
147396,526.315789473684,4,2,1,65,1,0
147396,-500,4,2,1,65,0,0
147790,-500,4,2,1,5,0,0
147922,521.739130434783,4,2,1,70,1,0
147922,-76.9230769230769,4,2,1,70,0,1
149356,-76.9230769230769,4,2,1,5,0,1
149487,-76.9230769230769,4,2,1,70,0,1
152095,517.241379310345,4,2,1,70,1,1
152095,-76.9230769230769,4,2,1,70,0,1
152482,-76.9230769230769,4,2,1,5,0,1
152612,-76.9230769230769,4,2,1,70,0,1
154551,-76.9230769230769,4,2,1,5,0,1
154681,-76.9230769230769,4,2,1,70,0,1
156232,540.540540540541,4,2,1,70,1,1
156232,-76.9230769230769,4,2,1,70,0,1
157132,-64.9350649350649,4,2,1,70,0,1
157313,512.820512820513,4,2,1,70,1,1
157825,-76.9230769230769,4,2,1,70,0,1
158338,512.820512820513,4,2,1,70,1,1
158338,-76.9230769230769,4,2,1,70,0,1
160389,508.474576271186,4,2,1,70,1,1
160389,-86.9565217391304,4,2,1,70,0,1
160770,-86.9565217391304,4,2,1,5,0,1
160897,-86.9565217391304,4,2,1,70,0,1
161405,582.52427184466,4,2,1,70,1,1
161405,-86.9565217391304,4,2,1,70,0,1
161987,512.820512820513,4,2,1,70,1,1
161987,-86.9565217391304,4,2,1,70,0,1
162499,512.820512820513,4,2,1,70,1,1
163524,530.973451327434,4,2,1,70,1,1
164585,512.820512820513,4,2,1,70,1,1
165354,-100,4,2,1,60,0,1
165610,-100,4,2,1,70,0,1
165867,-100,4,2,1,80,0,1
166123,-500,4,2,1,70,0,0
166508,-500,4,2,1,5,0,0
166636,545.454545454546,4,2,1,70,1,1
166908,-100,4,2,1,70,0,1
167090,-100,4,2,1,5,0,1
167181,-80,4,2,1,70,0,1
167363,-80,4,2,1,5,0,1
167454,-66.6666666666667,4,2,1,70,0,1
167636,-66.6666666666667,4,2,1,5,0,1
167726,517.241379310345,4,2,1,70,1,1
169277,-196.463654223969,4,2,1,70,0,1
169794,582.52427184466,4,2,1,70,1,1
170376,495.867768595042,4,2,1,70,1,1
170871,535.714285714286,4,2,1,70,1,1
171138,-100,4,2,1,70,0,1
171317,-100,4,2,1,5,0,1
171406,-80,4,2,1,70,0,1
171585,-80,4,2,1,5,0,1
171674,-66.6666666666667,4,2,1,70,0,1
171853,-66.6666666666667,4,2,1,5,0,1
171942,-100,4,2,1,70,0,1
173013,517.241379310345,4,2,1,70,1,1
173013,-200,4,2,1,70,0,1
175081,618.556701030928,4,2,1,70,1,1
175390,-100,4,2,1,70,0,1
175596,-100,4,2,1,5,0,1
175699,465.116279069767,4,2,1,70,1,1
175699,-80,4,2,1,70,0,1
175854,-80,4,2,1,5,0,1
175931,-66.6666666666667,4,2,1,70,0,1
176086,-66.6666666666667,4,2,1,5,0,1
176164,512.820512820513,4,2,1,70,1,1
178215,521.739130434783,4,2,1,70,1,1
178475,-66.6666666666667,4,2,1,70,0,1
178649,-66.6666666666667,4,2,1,5,0,1
178736,-80,4,2,1,70,0,1
178910,-80,4,2,1,5,0,1
178997,-100,4,2,1,70,0,1
179171,-100,4,2,1,5,0,1
179258,517.241379310345,4,2,1,70,1,1
180292,530.973451327434,4,2,1,70,1,1
180557,-66.6666666666667,4,2,1,70,0,1
180734,-66.6666666666667,4,2,1,5,0,1
180822,-80,4,2,1,70,0,1
180999,-80,4,2,1,5,0,1
181088,-100,4,2,1,70,0,1
181265,-100,4,2,1,5,0,1
181353,526.315789473684,4,2,1,70,1,1
181353,-200,4,2,1,70,0,1
183458,517.241379310345,4,2,1,70,1,1
183458,-200,4,2,1,70,0,1
184751,-80,4,2,1,70,0,1
185526,512.820512820513,4,2,1,70,1,1
185526,-66.6666666666667,4,2,1,70,0,1
185696,-66.6666666666667,4,2,1,5,0,1
185782,-80,4,2,1,70,0,1
185953,-80,4,2,1,5,0,1
186038,-200,4,2,1,70,0,1
187320,-100,4,2,1,70,0,1
187577,521.739130434783,4,2,1,70,1,1
188359,-80,4,2,1,70,0,1
188533,-80,4,2,1,5,0,1
188620,-66.6666666666667,4,2,1,70,0,1
188794,-66.6666666666667,4,2,1,5,0,1
188881,-80,4,2,1,70,0,1
189055,-80,4,2,1,5,0,1
189142,-100,4,2,1,70,0,1
189316,-100,4,2,1,5,0,1
189403,-100,4,2,1,70,0,1
189560,517.241379310345,4,2,1,50,1,1
189560,-86.9565217391304,4,2,1,50,0,0
193051,-86.9565217391304,4,2,1,5,0,0
193180,-86.9565217391304,4,2,1,50,0,0
193697,550.45871559633,4,2,1,50,1,0
193697,-100,4,2,1,50,0,0
194797,508.474576271187,4,2,1,50,1,0
195813,517.241379310345,4,2,1,50,1,0
197881,535.714285714286,4,2,1,50,1,0
197881,-125,4,2,1,50,0,0
198952,508.474576271186,4,2,1,50,1,0
198952,-125,4,2,1,50,0,0
199968,508.474576271186,4,2,1,50,1,0
200222,-100,4,2,1,50,0,0
200730,-83.3333333333333,4,2,1,50,0,0
202001,500,4,2,1,50,1,0
202251,-125,4,2,1,50,0,0
202667,-125,4,2,1,5,0,0
202751,-125,4,2,1,50,0,0
202917,-125,4,2,1,5,0,0
203001,-125,4,2,1,50,0,0
203417,-125,4,2,1,5,0,0
203501,-125,4,2,1,50,0,0
204001,-100,4,2,1,50,0,0
204751,-83.3333333333333,4,2,1,50,0,0
205876,-83.3333333333333,4,2,1,5,0,0
206001,555.555555555556,4,2,1,50,1,0
206001,-83.3333333333333,4,2,1,50,0,0
206556,454.545454545455,4,2,1,50,1,0
206556,-83.3333333333333,4,2,1,50,0,0
207010,500,4,2,1,50,1,0
207010,-100,4,2,1,50,0,0
207385,-100,4,2,1,5,0,0
207510,-100,4,2,1,50,0,0
208010,500,4,2,1,50,1,0
208010,-83.3333333333333,4,2,1,50,0,0
208510,-100,4,2,1,50,0,0
208885,-100,4,2,1,5,0,0
209010,521.739130434783,4,2,1,50,1,0
209531,500,4,2,1,50,1,0
210031,508.474576271186,4,2,1,50,1,0
210031,-83.3333333333333,4,2,1,50,0,0
210539,-125,4,2,1,50,0,0
212318,375,4,2,1,50,1,0
212505,560.747663551402,4,2,1,50,1,0
213065,517.241379310345,4,2,1,50,1,0
213065,-125,4,2,1,50,0,0
214099,545.454545454546,4,2,1,50,1,0
214371,-83.3333333333333,4,2,1,50,0,0
214644,461.538461538462,4,2,1,50,1,0
214874,-83.3333333333333,4,2,1,50,0,0
215105,504.201680672269,4,2,1,50,1,0
215105,-125,4,2,1,50,0,0
215987,-125,4,2,1,5,0,0
216113,434.782608695652,4,2,1,50,1,0
216330,-83.3333333333333,4,2,1,50,0,0
216547,491.803278688525,4,2,1,50,1,0
217038,571.428571428571,4,2,1,50,1,0
217038,-125,4,2,1,50,0,0
217609,504.201680672269,4,2,1,50,1,0
217609,-125,4,2,1,50,0,0
218113,545.454545454546,4,2,1,50,1,0
219203,422.535211267606,4,2,1,50,1,0
219625,491.803278688525,4,2,1,50,1,0
219625,-90.9090909090909,4,2,1,50,0,0
220116,491.803278688525,4,2,1,50,1,0
220116,-111.111111111111,4,2,1,50,0,0
220607,-83.3333333333333,4,2,1,50,0,0
222083,483.870967741936,4,2,1,50,1,0
224018,530.973451327434,4,2,1,50,1,0
225079,508.474576271186,4,2,1,50,1,0
225460,-100,4,2,1,5,0,0
225587,-100,4,2,1,50,0,0
226095,512.820512820513,4,2,1,50,1,0
229556,-100,4,2,1,5,0,0
229684,-200,4,2,1,50,0,0
230069,-200,4,2,1,5,0,0
230197,-100,4,2,1,50,0,0
231223,508.474576271186,4,2,1,50,1,0
231604,-100,4,2,1,5,0,0
231731,-100,4,2,1,50,0,0
233256,517.241379310345,4,2,1,50,1,0
234290,500,4,2,1,50,1,0
234790,535.714285714286,4,2,1,50,1,0
235861,517.241379310345,4,2,1,50,1,0
236373,500,4,2,1,20,1,0
236873,-100,4,2,1,25,0,0
237123,-100,4,2,1,30,0,0
237373,-100,4,2,1,35,0,0
237623,-100,4,2,1,40,0,0
237873,-100,4,2,1,45,0,0
238123,-100,4,2,1,50,0,0
238373,-100,4,2,1,55,0,0
240373,535.714285714286,4,2,1,70,1,0
240373,-80,4,2,1,70,0,1
241846,-80,4,2,1,5,0,1
241980,-80,4,2,1,70,0,1
242515,512.820512820513,4,2,1,70,1,1
242515,-80,4,2,1,70,0,1
243925,-80,4,2,1,5,0,1
244053,-80,4,2,1,70,0,1
245976,-80,4,2,1,5,0,1
246104,-80,4,2,1,70,0,1
246617,535.714285714286,4,2,1,70,1,1
246617,-80,4,2,1,70,0,1
248090,-80,4,2,1,5,0,1
248224,-80,4,2,1,70,0,1
248759,526.315789473685,4,2,1,70,1,1
248759,-80,4,2,1,70,0,1
250206,-80,4,2,1,5,0,1
250337,-80,4,2,1,70,0,1
250864,517.241379310345,4,2,1,70,1,1
250864,-80,4,2,1,70,0,1
252286,-80,4,2,1,5,0,1
252415,-80,4,2,1,70,0,1
254355,-80,4,2,1,5,0,1
254484,530.973451327434,4,2,1,70,1,1
254484,-80,4,2,1,70,0,1
255014,512.820512820513,4,2,1,70,1,1
255014,-80,4,2,1,70,0,1
255526,571.428571428572,4,2,1,70,1,1
255526,-80,4,2,1,70,0,1
256097,458.015267175573,4,2,1,70,1,1
256097,-80,4,2,1,70,0,1
256555,545.454545454546,4,2,1,70,1,1
256555,-80,4,2,1,70,0,1
257100,517.241379310345,4,2,1,30,1,1
257100,-80,4,2,1,30,0,1
257358,-80,4,2,1,37,0,1
257617,-80,4,2,1,44,0,1
257875,-80,4,2,1,51,0,1
258134,-80,4,2,1,58,0,1
258393,-80,4,2,1,63,0,1
258651,-80,4,2,1,70,0,0
259168,550.45871559633,4,2,2,80,1,1
259168,-66.6666666666667,4,2,2,80,0,1
259993,-74.0740740740741,4,2,2,80,0,1
260268,512.820512820513,4,2,2,80,1,1
260268,-74.0740740740741,4,2,2,80,0,1
260652,-74.0740740740741,4,2,2,5,0,1
260780,-74.0740740740741,4,2,2,80,0,1
261293,521.739130434783,4,2,2,80,1,1
261293,-74.0740740740741,4,2,2,80,0,1
263379,530.973451327434,4,2,2,80,1,1
263379,-66.6666666666667,4,2,2,80,0,1
264440,512.820512820513,4,2,2,80,1,1
264440,-74.0740740740741,4,2,2,80,0,1
265465,500,4,2,2,80,1,1
265465,-133.333333333333,4,2,2,80,0,1
266215,-166.666666666667,4,2,2,40,0,1
266465,-166.666666666667,4,2,2,46,0,1
266715,-166.666666666667,4,2,2,52,0,1
266965,-166.666666666667,4,2,2,58,0,1
267215,-166.666666666667,4,2,2,64,0,1
267465,521.739130434783,4,2,2,80,1,1
267465,-66.6666666666667,4,2,2,80,0,1
268247,-74.0740740740741,4,2,2,80,0,1
269551,512.820512820513,4,2,2,80,1,1
269551,-100,4,2,2,80,0,1
270576,521.739130434783,4,2,2,80,1,1
270576,-74.0740740740741,4,2,2,80,0,1
271619,512.820512820513,4,2,2,80,1,1
272901,-66.6666666666667,4,2,2,80,0,1
273670,-74.0740740740741,4,2,2,80,0,1
275080,-74.0740740740741,4,2,2,5,0,1
275208,550.45871559633,4,2,2,80,1,1
275758,526.315789473685,4,2,2,80,1,1
275758,-74.0740740740741,4,2,2,80,0,1
277863,-66.6666666666667,4,2,2,80,0,1
278915,504.201680672269,4,2,2,80,1,1
278915,-125,4,2,2,80,0,1
279293,-125,4,2,2,5,0,1
279419,-74.0740740740741,4,2,2,80,0,1
279923,434.782608695652,4,2,2,80,1,0
280357,465.116279069767,4,2,2,80,1,0
280822,508.474576271187,4,2,2,80,1,0
281920,545.454545454546,4,2,2,50,1,0
281920,-125,4,2,2,50,0,0
283420,-125,4,2,2,5,0,0
283556,-125,4,2,2,50,0,0
284101,521.739130434783,4,2,2,50,1,0
284101,-166.666666666667,4,2,2,50,0,0
285535,-166.666666666667,4,2,2,5,0,0
285666,-125,4,2,2,50,0,0
286057,-125,4,2,2,5,0,0
286187,540.540540540541,4,2,2,50,1,0
287268,526.315789473685,4,2,2,50,1,0
288320,526.315789473685,4,2,2,50,1,0
290425,521.739130434783,4,2,2,50,1,0
290425,-86.9565217391304,4,2,2,50,0,0
291468,526.315789473685,4,2,2,50,1,0
291468,-86.9565217391304,4,2,2,50,0,0
291862,-86.9565217391304,4,2,2,5,0,0
291994,-86.9565217391304,4,2,2,50,0,0
292520,526.315789473685,4,2,2,50,1,0
292520,-86.9565217391304,4,2,2,50,0,0
293046,-100,4,2,2,50,0,0
293967,-100,4,2,2,5,0,0
294098,-100,4,2,2,50,0,0
294625,517.241379310345,4,2,2,50,1,0
294625,-90.9090909090909,4,2,2,50,0,0
296047,-90.9090909090909,4,2,2,5,0,0
296176,-90.9090909090909,4,2,2,50,0,0
296693,495.867768595041,4,2,2,50,1,0
296693,-80,4,2,2,50,0,0
298180,521.739130434783,4,2,2,50,1,0
298701,530.973451327434,4,2,2,50,1,0
298701,-133.333333333333,4,2,2,50,0,0
299762,517.241379310345,4,2,2,50,1,0
300279,-80,4,2,2,50,0,0
300666,-80,4,2,2,5,0,0
300796,517.241379310345,4,2,2,50,1,0
300796,-133.333333333333,4,2,2,50,0,0
301183,-133.333333333333,4,2,2,5,0,0
301313,-200,4,2,2,50,0,0
302347,-80,4,2,2,50,0,0
302735,-80,4,2,2,5,0,0
302864,-133.333333333333,4,2,2,50,0,0
304416,-100,4,2,2,50,0,0
304933,-200,4,2,2,50,0,0
306227,-100,4,2,2,50,0,0
307002,521.739130434783,4,2,2,50,1,0
307002,-133.333333333333,4,2,2,50,0,0
308567,-80,4,2,2,50,0,0
309349,-200,4,2,2,50,0,0
310002,-200,4,2,2,5,0,0
310132,-100,4,2,2,50,0,0
310523,-100,4,2,2,5,0,0
310654,512.820512820513,4,2,2,50,1,0
310654,-66.6666666666667,4,2,2,50,0,0
311038,-66.6666666666667,4,2,2,5,0,0
311166,530.973451327434,4,2,2,50,1,0
311166,-200,4,2,2,50,0,0
312227,508.474576271186,4,2,2,50,1,0
312227,-133.333333333333,4,2,2,50,0,0
313243,495.867768595041,4,2,2,50,1,0
313243,-100,4,2,2,20,0,0
313490,-100,4,2,2,25,0,0
313738,-100,4,2,2,30,0,0
313986,-100,4,2,2,35,0,0
314234,-100,4,2,2,40,0,0
314482,-100,4,2,2,45,0,0
314730,512.820512820513,4,2,2,50,1,0
314986,-100,4,2,2,55,0,0
315242,-100,4,2,2,60,0,0
315499,-100,4,2,2,65,0,0
315755,-100,4,2,2,70,0,0
316012,-100,4,2,2,75,0,0
316268,530.973451327434,4,2,2,80,1,0
316798,618.556701030928,4,2,2,80,1,0
317416,659.34065934066,4,2,2,80,1,0
317416,-732.600732600733,4,2,2,70,0,0
318075,722.89156626506,4,2,2,60,1,0
318075,-100,4,2,2,50,0,0
318797,612.244897959184,4,2,2,40,1,0
318797,-100,4,2,2,30,0,0
319409,-100,4,2,2,20,0,0
320021,-100,4,2,2,10,0,0
320633,-100,4,2,2,5,0,0
321243,-100,4,2,2,5,0,0

[Colours]
Combo1 : 122,197,145
Combo2 : 237,201,92
Combo3 : 184,183,165
Combo4 : 102,182,213

[HitObjects]
148,86,404,6,0,B|151:76|151:76|148:74|148:74|150:64,3,24,2|2|2|2,0:2|0:2|0:2|0:2,0:2:0:0:
209,135,812,5,2,0:2:0:0:
75,171,1045,1,2,0:2:0:0:
234,128,1277,2,0,B|198:178|240:233|243:229|245:225|284:272|263:328,1,202.5,2|0,0:2|0:2,0:2:0:0:
322,369,2440,6,0,B|331:366|331:366|333:370|333:370|343:367,3,24,2|2|2|2,0:2|0:2|0:2|0:2,0:2:0:0:
166,297,2828,5,2,0:2:0:0:
92,382,3066,1,2,0:2:0:0:
0,301,3311,1,2,0:2:0:0:
100,189,3557,6,0,P|89:223|86:259,1,72,2|2,0:2|0:2,0:2:0:0:
77,178,4049,2,0,P|74:143|63:109,1,72,2|2,0:2|0:2,0:2:0:0:
136,2,4477,6,0,B|198:6|259:41|259:41|291:28|291:28|308:48|328:69,1,215.999993408203,2|0,3:2|0:2,0:2:0:0:
449,183,5214,1,0,3:2:0:0:
356,142,5460,2,0,B|306:162|306:162|290:140|263:132,1,107.999996704102,0|0,3:2|0:2,0:2:0:0:
486,37,5952,6,0,B|474:98|508:150|508:150|484:182|448:183,1,188.999994232178,10|0,0:2|0:2,0:2:0:0:
379,221,6444,6,0,B|432:251|442:311|442:311|462:322|462:322|425:341|419:386,1,215.999993408203,2|0,3:2|0:2,0:2:0:0:
503,263,7181,1,0,3:2:0:0:
343,321,7427,2,0,B|312:333|286:347|286:347|262:344|262:344|244:367,1,107.999996704102,0|0,3:2|0:2,0:2:0:0:
81,257,7919,6,0,B|111:278|127:317|127:317|159:269,1,135,10|0,0:2|0:2,0:2:0:0:
239,266,8411,6,0,B|235:217|192:196|192:196|203:177|203:177|209:123|192:72,1,215.999993408203,2|0,3:2|0:2,0:2:0:0:
296,163,9180,1,0,3:2:0:0:
411,85,9436,2,0,B|377:90|348:107|348:107|333:94|312:88,1,107.999996704102,0|0,3:2|0:2,0:2:0:0:
136,21,9949,2,0,B|26:53|26:53|5:37|0:12,1,161.999995056153,8|0,0:2|0:2,0:2:0:0:
69,72,10462,5,2,3:2:0:0:
0,191,10718,1,10,0:2:0:0:
117,269,10975,1,2,0:2:0:0:
84,187,11231,1,2,3:2:0:0:
8,309,11487,1,2,3:2:0:0:
183,372,11744,6,0,B|252:360|252:360|256:364|256:364|288:359,2,107.999996704102,2|10|2,0:2|0:2|0:2,0:2:0:0:
359,376,12513,6,0,B|365:348|352:324|352:324|360:312|360:312|347:278,1,90,2|2,3:2|0:2,0:2:0:0:
303,181,13017,1,2,0:2:0:0:
358,113,13269,1,2,0:2:0:0:
284,205,13521,2,0,P|240:194|196:204,1,90,0|0,3:2|0:2,0:2:0:0:
53,95,14025,1,8,0:2:0:0:
94,192,14277,1,0,0:2:0:0:
147,38,14529,6,0,P|191:33|233:17,1,90,2|2,3:2|0:2,0:2:0:0:
371,80,15034,1,2,0:2:0:0:
365,61,15160,2,0,B|352:33|352:33|344:69|329:87,1,90,2|2,0:2|0:2,0:2:0:0:
453,95,15538,2,0,L|421:9,1,90,2|2,3:2|0:2,0:2:0:0:
460,112,15916,1,2,0:2:0:0:
428,181,16042,2,0,B|446:228|446:228|460:235|460:235|460:247|458:261,1,90,10|2,0:2|0:2,0:2:0:0:
426,353,16399,1,2,0:2:0:0:
432,336,16518,6,0,P|388:329|346:345,1,90,2|2,3:2|0:2,0:2:0:0:
271,384,17022,1,2,0:2:0:0:
183,243,17274,1,2,3:2:0:0:
193,349,17526,2,0,L|199:255,1,90,0|0,3:2|0:2,0:2:0:0:
284,163,18030,1,8,0:2:0:0:
323,236,18282,1,0,0:2:0:0:
159,186,18534,5,0,3:2:0:0:
327,88,18788,2,0,B|303:39|303:39|299:39|299:39|285:9,2,90,2|2|2,0:2|0:2|3:2,0:2:0:0:
509,149,19550,6,0,B|477:149|444:128|444:128|426:145|423:170,1,99.0000030212403,2|2,3:2|0:2,0:2:0:0:
445,310,20041,2,0,P|452:261|464:214,1,99.0000030212403,10|2,0:2|0:2,0:2:0:0:
389,214,20410,1,2,0:2:0:0:
369,226,20533,2,0,P|325:214|280:208,1,90,2|2,3:2|0:2,0:2:0:0:
218,176,20911,2,0,P|237:216|234:260,1,90,2|0,0:2|0:2,0:2:0:0:
300,281,21289,2,0,P|292:302|276:316,1,45,2|0,3:2|0:2,0:2:0:0:
207,326,21541,5,0,3:2:0:0:
280,138,21793,1,2,0:2:0:0:
202,72,22045,2,0,B|173:76|150:80|150:80|136:77|136:77|116:89,1,90,10|2,0:2|0:2,0:2:0:0:
56,54,22423,1,2,0:2:0:0:
50,70,22549,2,0,P|49:114|77:147,1,90,2|2,3:2|0:2,0:2:0:0:
51,210,22927,2,0,P|91:191|135:184,1,90,2|0,0:2|0:2,0:2:0:0:
192,142,23306,2,0,P|202:161|205:183,1,45,2|0,3:2|0:2,0:2:0:0:
170,247,23558,5,0,3:2:0:0:
274,193,23810,1,0,0:2:0:0:
346,233,24062,1,8,0:2:0:0:
350,305,24314,1,0,0:2:0:0:
286,365,24566,6,0,B|329:328|385:358|385:358|443:389|500:378|508:314|445:293|417:342,1,297.000009063721,2|0,3:2|3:2,0:2:0:0:
274,381,25582,2,0,P|226:387|187:359,1,99.0000030212403,0|2,3:2|0:2,0:2:0:0:
186,222,26091,1,10,0:2:0:0:
247,311,26345,1,2,0:2:0:0:
179,211,26599,5,2,3:2:0:0:
228,86,26857,1,2,0:2:0:0:
122,29,27116,1,2,0:2:0:0:
156,129,27374,1,2,3:2:0:0:
50,72,27633,5,2,3:2:0:0:
203,7,27892,1,2,0:2:0:0:
284,149,28150,1,10,0:2:0:0:
156,129,28409,1,2,0:2:0:0:
63,238,28667,6,0,P|87:277|96:320,1,90,2|0,3:2|0:2,0:2:0:0:
149,367,29048,2,0,P|192:376|234:359,1,90,2|0,0:2|0:2,0:2:0:0:
272,301,29429,1,2,3:2:0:0:
403,234,29683,6,0,B|391:228|378:227|378:227|352:245|317:246,1,90,0|0,3:2|0:2,0:2:0:0:
484,318,30192,2,0,B|469:292|469:292|487:234,1,90,8|0,0:2|0:2,0:2:0:0:
389,41,30700,5,0,3:2:0:0:
512,115,30956,1,2,0:0:0:0:
467,112,31084,2,0,L|423:109,1,45,2|2,0:2|0:2,0:2:0:0:
351,19,31341,1,2,0:0:0:0:
306,16,31469,1,2,3:2:0:0:
196,72,31725,6,0,B|201:113|201:113|199:118|199:118|209:141|211:168,1,90,2|0,3:2|0:2,0:2:0:0:
343,246,32238,1,10,0:2:0:0:
365,177,32494,1,2,0:2:0:0:
292,299,32751,6,0,P|246:301|202:269,2,90,2|2|2,3:2|0:2|0:2,0:2:0:0:
419,233,33520,1,2,3:2:0:0:
371,381,33776,2,0,L|368:292,1,90,0|0,3:2|0:2,0:2:0:0:
271,127,34289,1,8,0:2:0:0:
268,217,34546,1,0,0:2:0:0:
145,312,34802,6,0,P|99:310|55:342,1,90,0|2,3:2|0:2,0:2:0:0:
0,291,35180,1,2,0:2:0:0:
0,291,35306,2,0,L|7:194,1,90,2|2,0:2|3:2,0:2:0:0:
68,152,35684,1,2,0:2:0:0:
68,152,35810,2,0,L|61:55,1,90,2|2,3:2|0:2,0:2:0:0:
177,0,36314,1,10,0:2:0:0:
247,18,36574,1,2,0:2:0:0:
347,100,36835,5,2,3:2:0:0:
417,118,37093,1,2,0:2:0:0:
326,95,37352,1,2,0:2:0:0:
479,56,37610,1,2,3:2:0:0:
512,206,37869,6,0,P|502:249|482:290,1,90,0|2,3:2|0:2,0:2:0:0:
358,325,38386,1,10,0:2:0:0:
434,350,38645,1,2,0:2:0:0:
304,381,38903,6,0,B|307:341|307:341|298:330|298:330|312:280|324:214,1,161.999995056153,2|0,3:2|0:2,0:2:0:0:
393,218,39421,2,0,P|377:177|339:154,1,90,2|2,0:2|3:2,0:2:0:0:
253,26,39938,5,2,3:2:0:0:
181,0,40188,1,2,0:2:0:0:
72,46,40438,1,10,0:2:0:0:
0,20,40688,1,2,0:2:0:0:
32,199,40938,6,0,B|24:255|53:310|53:310|55:328|55:328|85:344|122:380,1,215.999993408203,2|0,3:2|0:2,0:2:0:0:
300,251,41713,1,0,3:2:0:0:
207,384,41972,2,0,P|210:339|215:294,1,90,2|2,3:2|0:2,0:2:0:0:
135,187,42489,1,10,0:2:0:0:
317,257,42748,2,0,B|337:250|337:250|340:253|340:253|358:246,1,45,2|0,0:2|0:2,0:2:0:0:
511,203,43006,5,10,0:2:0:0:
480,117,43251,1,10,0:2:0:0:
386,50,43497,1,10,0:2:0:0:
253,48,43743,1,10,0:2:0:0:
145,141,43989,1,10,0:2:0:0:
121,292,44235,1,10,0:2:0:0:
365,314,44481,6,0,P|385:285|338:286,1,90,10|0,0:2|0:2,0:2:0:0:
130,368,44973,6,0,B|102:371|77:357|77:357|72:364|72:364|43:364|8:354,1,116.999994644165,4|2,3:2|0:2,0:2:0:0:
193,227,45494,1,2,0:2:0:0:
334,330,45755,2,0,L|345:272,1,58.4999973220826,2|0,3:2|0:2,0:2:0:0:
475,176,46016,2,0,B|459:208|446:250|446:250|416:214,1,116.999994644165,2|2,3:2|0:2,0:2:0:0:
333,195,46407,1,2,0:2:0:0:
333,195,46538,2,0,L|345:137,1,58.4999973220826,10|0,0:2|0:2,0:2:0:0:
414,103,46799,2,0,L|402:45,1,58.4999973220826,2|0,0:2|0:2,0:2:0:0:
338,0,47059,6,0,B|228:17|228:17|196:5|166:-1,1,175.499991966248,2|2,3:2|0:2,0:2:0:0:
101,39,47571,2,0,B|95:83|88:111|88:111|80:115|80:115|85:159,1,116.999994644165,0|2,0:2|3:2,0:2:0:0:
66,237,47956,1,2,0:2:0:0:
22,214,48084,1,2,3:2:0:0:
138,276,48341,1,0,0:2:0:0:
234,171,48597,2,0,B|239:215|247:243|247:243|255:247|255:247|250:291,1,116.999994644165,8|0,0:2|0:2,0:2:0:0:
236,384,49110,1,0,3:2:0:0:
462,289,49366,5,2,0:2:0:0:
403,371,49623,1,2,0:2:0:0:
366,270,49879,2,0,L|397:211,1,58.4999973220826,2|0,3:2|0:2,0:2:0:0:
391,126,50135,2,0,B|428:194|428:194|447:182|472:171,1,116.999994644165,2|2,3:2|0:2,0:2:0:0:
309,92,50648,2,0,B|346:24|346:24|365:36|390:47,1,116.999994644165,10|2,0:2|0:2,0:2:0:0:
234,144,51161,6,0,B|171:160|171:160|84:112|84:112|50:132|45:174,1,233.999989288331,2|0,3:2|0:2,0:2:0:0:
83,330,51950,1,2,3:2:0:0:
83,330,52082,1,2,0:2:0:0:
83,330,52213,2,0,B|99:315|104:288|104:288|109:283|109:283|116:253|111:221,1,116.999994644165,2|2,3:2|0:2,0:2:0:0:
45,167,52608,1,2,0:2:0:0:
45,167,52739,1,10,0:2:0:0:
0,46,53003,1,0,0:2:0:0:
119,17,53266,1,4,3:2:0:0:
270,69,53526,6,0,P|328:79|386:76,2,116.999994644165,2|2|2,0:2|0:2|3:2,0:2:0:0:
425,5,54309,2,0,B|416:46|407:84|407:84|421:96|439:102,1,116.999994644165,2|2,3:2|0:2,0:2:0:0:
486,159,54700,2,0,P|471:245|445:329,1,175.499991966248,2|2,0:2|0:2,0:2:0:0:
290,372,55352,6,0,B|244:378|213:332|222:330|188:284|142:293,1,175.499991966248,2|2,3:2|0:2,0:2:0:0:
66,308,55874,2,0,B|111:314|142:268|133:266|167:220|213:229,1,175.499991966248,2|2,0:2|0:2,0:2:0:0:
272,277,56391,1,2,3:2:0:0:
38,117,56649,6,0,B|46:162|67:198|67:198|68:215|64:229,2,116.999994644165,2|10|2,0:2|0:2|0:2,0:2:0:0:
146,18,57425,6,0,B|211:32|269:58|269:58|296:41,1,155.250002961159,2|2,3:2|0:2,0:2:0:0:
324,147,57893,2,0,B|295:129|295:129|354:93,1,103.500001974106,2|2,0:2|3:2,0:2:0:0:
445,35,58480,1,0,3:2:0:0:
508,177,58736,2,0,P|498:233|479:286,2,103.500001974106,2|10|2,0:2|0:2|0:2,0:2:0:0:
510,354,59505,6,0,B|470:299|402:295|402:295|403:324|422:343,1,180,2|0,3:2|0:2,0:2:0:0:
421,342,60301,1,0,3:2:0:0:
282,384,60566,5,2,3:2:0:0:
232,308,60832,1,0,0:2:0:0:
305,163,61097,1,8,0:2:0:0:
255,87,61363,1,0,0:2:0:0:
233,218,61628,6,0,P|189:217|145:206,1,90,2|0,3:2|0:2,0:2:0:0:
48,141,62149,1,0,0:2:0:0:
0,267,62410,2,0,P|-1:289|3:311,1,45,2|2,3:2|0:2,0:2:0:0:
60,365,62671,2,0,P|103:356|148:359,1,90,2|2,3:2|0:2,0:2:0:0:
300,268,63193,1,10,0:2:0:0:
233,218,63454,1,2,0:2:0:0:
299,33,63714,6,0,P|312:109|308:187,2,155.250002961159,2|2|2,3:2|0:2|3:2,0:2:0:0:
233,218,64758,1,0,3:2:0:0:
316,283,65019,1,0,0:2:0:0:
484,244,65280,2,0,L|382:232,1,103.500001974106,8|0,0:2|0:2,0:2:0:0:
58,192,65801,5,8,0:2:0:0:
379,25,67215,6,0,L|375:65,1,40.4999987640381,0|0,0:2|0:2,0:2:0:0:
419,129,67775,5,2,3:2:0:0:
512,75,68022,1,2,0:2:0:0:
402,139,68270,2,0,P|421:186|431:237,1,103.500001974106,2|0,0:2|3:2,0:2:0:0:
270,344,68766,6,0,B|278:297|336:279|373:308|373:308|412:340|461:321,2,207.000003948212,2|2|2,3:2|0:2|3:2,0:2:0:0:
464,321,70050,1,2,0:2:0:0:
309,270,70300,2,0,P|294:221|311:172,1,103.500001974106,2|0,0:2|3:2,0:2:0:0:
416,72,70800,1,2,3:2:0:0:
367,12,71050,1,2,0:2:0:0:
262,112,71300,2,0,P|210:109|159:101,1,103.500001974106,2|0,0:2|3:2,0:2:0:0:
4,26,71800,6,0,B|8:11|8:11|47:32|66:89|66:89|58:94|58:94|30:156|44:233|44:233|59:187|92:164,1,350.999983932496,6|0,3:2|3:2,0:2:0:0:
262,112,72871,2,0,B|289:133|289:133|377:101|377:101|402:106|420:137,1,175.499991966248,0|0,3:2|0:2,0:2:0:0:
441,197,73383,2,0,P|425:253|419:311,1,116.999994644165,8|0,0:2|0:2,0:2:0:0:
512,384,73896,5,2,3:2:0:0:
401,315,74154,1,2,0:2:0:0:
512,384,74413,1,2,0:2:0:0:
326,361,74671,1,2,3:2:0:0:
271,174,74930,1,2,3:2:0:0:
318,106,75189,6,0,P|380:114|438:112,2,116.999994644165,2|10|2,0:2|0:2|0:2,0:2:0:0:
127,41,75964,6,0,P|137:82|147:133,2,90,2|2|2,3:2|0:2|0:2,0:2:0:0:
74,167,76733,1,2,3:2:0:0:
74,167,76989,2,0,P|157:172|198:216,1,135,0|0,3:2|0:2,0:2:0:0:
211,280,77502,1,8,0:2:0:0:
211,280,78015,6,0,B|262:273|294:299|277:307|311:347|388:333,1,180,2|2,3:2|0:2,0:2:0:0:
374,216,78784,5,2,3:2:0:0:
374,216,78912,1,2,0:2:0:0:
374,216,79040,2,0,P|359:233|349:253,1,45,2|0,3:2|0:2,0:2:0:0:
459,318,79297,2,0,P|451:296|438:278,1,45,2|0,0:2|0:2,0:2:0:0:
374,334,79553,1,10,0:2:0:0:
374,334,80066,6,0,P|398:250|429:160,1,180,2|2,3:2|0:2,0:2:0:0:
490,97,80835,5,2,3:2:0:0:
402,74,81092,1,2,3:2:0:0:
345,3,81348,1,2,0:2:0:0:
288,212,81605,1,10,0:2:0:0:
288,212,82117,6,0,B|246:204|208:198|208:198|196:206|196:206|154:199|105:190,1,180,2|2,3:2|0:2,0:2:0:0:
16,13,82887,1,2,3:2:0:0:
16,13,83143,2,0,P|58:39|70:128,1,135,2|0,3:2|0:2,0:2:0:0:
33,192,83656,1,10,0:2:0:0:
33,192,84169,6,0,P|43:236|55:291,1,90,2|2,3:2|0:2,0:2:0:0:
214,237,84681,1,2,0:2:0:0:
128,210,84938,1,2,3:2:0:0:
268,111,85194,6,0,P|296:151|289:203,1,90,2|2,3:2|0:2,0:2:0:0:
214,237,85707,1,10,0:2:0:0:
214,237,86220,6,0,P|298:220|401:206,1,180,2|2,3:2|0:2,0:2:0:0:
486,166,86989,2,0,P|477:208|469:259,1,90,2|0,3:2|3:2,0:2:0:0:
364,352,87502,6,0,P|369:323|375:294,1,45,2|2,0:2|0:2,0:2:0:0:
391,206,87758,1,10,0:2:0:0:
391,206,88271,6,0,P|350:211|296:220,1,90,2|2,3:2|0:2,0:2:0:0:
305,214,88609,1,2,0:2:0:0:
308,209,88694,1,2,0:2:0:0:
311,204,88779,1,2,0:0:0:0:
246,142,89033,1,2,3:2:0:0:
208,260,89287,6,0,P|219:306|230:358,1,90,2|0,3:2|0:2,0:2:0:0:
303,296,89796,1,8,0:2:0:0:
129,199,90050,1,2,0:2:0:0:
129,199,90304,6,0,P|119:242|109:286,1,90,2|2,3:2|0:2,0:2:0:0:
105,281,90645,1,2,0:2:0:0:
101,276,90731,1,2,0:2:0:0:
97,271,90816,1,2,0:0:0:0:
48,347,91073,1,2,3:2:0:0:
139,365,91329,2,0,P|185:355|239:345,1,90,0|2,3:2|0:2,0:2:0:0:
48,347,91842,1,10,0:2:0:0:
48,347,92342,6,0,P|70:259|90:162,1,180,2|2,3:2|0:2,0:2:0:0:
93,178,92983,1,2,0:2:0:0:
98,185,93111,1,2,3:2:0:0:
186,171,93367,2,0,P|179:137|167:73,1,90,2|2,3:2|0:2,0:2:0:0:
59,40,93880,1,10,0:2:0:0:
59,40,94393,6,0,P|116:62|213:-4,1,180,2|2,3:2|0:2,0:2:0:0:
336,38,95162,2,0,L|401:19,1,45,2|0,3:2|0:2,0:2:0:0:
425,46,95418,2,0,L|265:16,1,135,2|2,3:2|0:2,0:2:0:0:
210,3,95931,1,8,0:2:0:0:
210,3,96444,6,0,B|231:82|231:82|245:89|245:89|269:190,1,180,2|2,3:2|0:2,0:2:0:0:
176,146,97213,1,2,3:2:0:0:
340,233,97470,2,0,P|295:242|252:253,1,90,2|2,3:2|0:2,0:2:0:0:
331,115,97983,1,10,0:2:0:0:
331,115,98495,6,0,P|426:129|521:149,1,180,2|2,3:2|0:2,0:2:0:0:
425,91,99265,1,2,3:2:0:0:
478,306,99521,6,0,P|502:265|483:215,1,90,2|2,3:2|0:2,0:2:0:0:
410,171,100034,2,0,P|386:212|405:262,1,90,10|2,0:2|0:2,0:2:0:0:
217,330,100547,6,0,P|176:323|95:310,1,90,2|2,3:2|0:2,0:2:0:0:
132,310,100889,1,2,0:2:0:0:
135,305,100974,1,2,0:2:0:0:
138,300,101059,1,2,0:2:0:0:
104,216,101316,1,2,3:2:0:0:
267,143,101572,5,2,3:2:0:0:
233,227,101829,1,2,0:2:0:0:
188,46,102085,1,10,0:2:0:0:
188,46,102598,6,0,P|179:93|166:143,1,90,2|2,3:2|0:2,0:2:0:0:
164,129,102942,1,2,0:2:0:0:
160,124,103029,1,2,0:2:0:0:
156,119,103115,1,2,0:2:0:0:
98,198,103373,1,2,3:2:0:0:
309,232,103632,5,2,3:2:0:0:
251,153,103890,1,2,0:2:0:0:
443,232,104149,1,10,0:2:0:0:
443,232,104666,6,0,P|451:187|464:119,1,90,2|2,3:2|0:2,0:2:0:0:
454,147,105011,1,2,0:2:0:0:
449,151,105098,1,2,0:2:0:0:
444,154,105184,1,2,0:2:0:0:
357,129,105442,1,2,3:2:0:0:
357,129,105701,2,0,P|349:84|336:16,1,90,2|2,3:2|0:2,0:2:0:0:
305,207,106209,5,10,0:2:0:0:
282,230,106463,1,10,0:2:0:0:
210,275,106717,1,10,0:2:0:0:
115,248,106967,1,10,0:2:0:0:
56,156,107217,1,10,0:2:0:0:
79,44,107467,1,10,0:2:0:0:
196,0,107717,1,10,0:2:0:0:
338,9,107967,1,10,0:2:0:0:
416,135,108217,1,10,0:2:0:0:
416,135,108752,6,0,P|403:223|387:361,1,215.999993408203,6|2,3:2|0:2,0:2:0:0:
250,295,109534,1,2,3:2:0:0:
280,272,109665,1,2,0:2:0:0:
317,273,109795,2,0,P|234:279|163:223,1,161.999995056153,2|0,3:2|0:2,0:2:0:0:
142,166,110317,1,8,0:2:0:0:
66,337,110578,1,2,0:2:0:0:
66,337,110708,1,2,0:2:0:0:
66,337,110838,6,0,P|58:242|29:105,1,215.999993408203,2|0,3:2|0:2,0:2:0:0:
74,12,111621,1,2,3:2:0:0:
39,27,111752,1,2,0:2:0:0:
0,27,111882,2,0,P|94:39|139:105,1,161.999995056153,2|0,3:2|0:2,0:2:0:0:
142,166,112404,1,8,0:2:0:0:
402,54,112665,1,2,0:2:0:0:
402,54,112795,1,2,0:2:0:0:
402,54,112925,6,0,B|303:36|303:36|288:48|288:48|171:27,1,215.999993408203,2|0,3:2|0:2,0:2:0:0:
301,188,113708,1,2,3:2:0:0:
326,160,113838,1,2,0:2:0:0:
329,122,113969,2,0,P|315:170|361:267,1,161.999995056153,2|0,3:2|0:2,0:2:0:0:
425,327,114491,2,0,P|378:336|313:350,1,107.999996704102,10|2,0:2|0:2,0:2:0:0:
329,354,114872,1,2,0:2:0:0:
339,360,114999,5,2,3:2:0:0:
255,291,115251,1,2,0:2:0:0:
147,278,115503,1,2,0:2:0:0:
50,327,115755,1,2,3:2:0:0:
192,125,116007,6,0,P|222:158|205:230,1,107.999996704102,2|0,3:2|0:2,0:2:0:0:
10,70,116537,2,0,P|62:61|115:48,1,107.999996704102,10|2,0:2|0:2,0:2:0:0:
107,41,116936,1,2,0:2:0:0:
97,34,117068,6,0,B|77:134|77:134|87:148|87:148|63:259,1,215.999993408203,2|0,3:2|0:2,0:2:0:0:
184,350,117837,1,2,3:2:0:0:
147,359,117965,1,2,0:2:0:0:
110,368,118093,2,0,B|135:382|135:382|241:349,1,107.999996704102,2|2,3:2|0:2,0:2:0:0:
291,202,118606,2,0,P|264:257|288:317,1,107.999996704102,10|2,0:2|0:2,0:2:0:0:
282,307,118991,1,2,0:2:0:0:
290,314,119119,6,0,P|401:296|517:280,1,215.999993408203,2|0,3:2|0:2,0:2:0:0:
423,159,119888,1,2,3:2:0:0:
396,185,120016,1,2,0:2:0:0:
394,222,120144,2,0,P|413:142|306:38,1,215.999993408203,2|8,3:2|0:2,0:2:0:0:
199,33,120914,1,2,0:2:0:0:
199,33,121042,1,2,0:2:0:0:
199,33,121170,6,0,P|300:18|426:-2,1,215.999993408203,2|0,3:2|0:2,0:2:0:0:
307,150,121952,1,2,3:2:0:0:
269,144,122083,1,2,0:2:0:0:
231,138,122213,2,0,P|152:124|64:109,1,161.999995056153,2|0,3:2|0:2,0:2:0:0:
0,95,122758,1,8,0:2:0:0:
0,95,123256,6,0,P|24:205|40:313,1,215.999993408203,2|0,3:2|0:2,0:2:0:0:
198,365,124031,1,2,3:2:0:0:
167,342,124161,1,2,0:2:0:0:
129,339,124290,2,0,P|204:354|264:295,1,161.999995056153,2|0,3:2|0:2,0:2:0:0:
258,227,124807,1,8,0:2:0:0:
435,267,125066,5,2,0:2:0:0:
469,282,125195,1,2,0:2:0:0:
506,278,125324,2,0,P|429:272|327:362,1,215.999993408203,2|0,3:2|0:2,0:2:0:0:
328,165,126100,5,2,3:2:0:0:
327,127,126230,1,2,0:2:0:0:
300,99,126359,2,0,P|338:159|488:161,1,215.999993408203,2|8,3:2|0:2,0:2:0:0:
472,171,127393,6,0,P|480:121|492:51,1,107.999996704102,2|2,3:2|0:2,0:2:0:0:
484,69,127738,1,2,0:2:0:0:
478,74,127824,1,2,0:2:0:0:
472,79,127911,1,2,0:2:0:0:
300,99,128169,5,2,3:2:0:0:
263,88,128299,1,2,0:2:0:0:
225,77,128428,1,2,3:2:0:0:
149,132,128680,1,0,0:2:0:0:
328,187,128932,1,8,0:2:0:0:
149,132,129184,5,2,0:2:0:0:
95,147,129310,1,2,0:2:0:0:
39,161,129436,1,10,0:2:0:0:
39,160,131469,6,0,B|63:141|97:143|126:171|119:187|134:216|175:227|212:199,1,180,6|2,3:2|0:2,0:2:0:0:
268,163,132244,1,2,3:2:0:0:
334,240,132519,2,0,P|362:205|367:161,1,90,2|2,3:2|0:2,0:2:0:0:
507,70,133023,6,0,L|500:137,1,54,10|0,0:2|0:2,0:2:0:0:
512,150,133527,6,0,P|468:158|428:139,1,90,2|2,3:2|0:2,0:2:0:0:
396,108,133908,1,2,0:2:0:0:
396,108,134035,1,2,0:2:0:0:
294,206,134312,2,0,L|346:200,1,45,2|0,3:2|0:2,0:2:0:0:
276,193,134590,6,0,L|183:182,1,90,2|2,3:2|0:2,0:2:0:0:
132,238,134974,2,0,P|154:200|152:155,1,90,2|2,0:2|0:2,0:2:0:0:
92,106,135359,2,0,P|75:85|68:62,1,45,2|2,0:2|0:2,0:2:0:0:
113,0,135615,5,2,3:2:0:0:
212,31,135875,1,2,0:2:0:0:
360,6,136136,2,0,B|349:69|349:69|353:73|353:73|345:94,1,90,2|2,0:2|3:2,0:2:0:0:
317,208,136658,5,2,3:2:0:0:
388,271,136919,1,2,0:2:0:0:
484,168,137180,2,0,P|441:182|397:189,1,90,10|0,0:2|0:2,0:2:0:0:
280,320,137701,5,2,3:2:0:0:
439,384,137957,1,2,0:2:0:0:
442,358,138085,1,2,0:2:0:0:
445,332,138213,1,2,0:2:0:0:
283,346,138470,6,0,L|228:336,1,45,2|2,3:2|0:2,0:2:0:0:
161,323,138726,1,2,3:2:0:0:
84,309,138983,1,2,0:2:0:0:
0,158,139239,1,10,0:2:0:0:
77,172,139495,1,2,0:2:0:0:
13,375,139752,6,0,P|9:331|0:287,1,90,2|2,3:2|0:2,0:2:0:0:
88,162,140265,1,2,0:2:0:0:
11,148,140521,1,2,3:2:0:0:
100,152,140777,6,0,P|139:133|155:92,2,90,0|0|8,3:2|0:2|0:2,0:2:0:0:
152,15,141547,1,2,0:2:0:0:
292,95,141803,6,0,B|384:81|384:81|388:86|388:86|423:81,1,135,2|0,3:2|0:2,0:2:0:0:
449,63,142316,2,0,B|477:96|477:96|464:141,1,90,2|2,0:2|3:2,0:2:0:0:
257,220,142829,5,2,3:2:0:0:
254,200,142914,1,2,0:0:0:0:
251,180,142999,1,2,0:0:0:0:
248,160,143085,1,2,0:0:0:0:
17,109,143342,6,0,P|36:129|50:152,1,54,10|0,0:2|0:2,0:2:0:0:
94,163,143854,5,2,3:2:0:0:
75,334,144111,2,0,L|25:327,1,45,2|2,0:2|0:2,0:2:0:0:
0,323,144367,1,2,0:2:0:0:
132,384,144624,1,2,3:2:0:0:
226,252,144880,6,0,P|290:262|321:320,1,135,2|0,3:2|0:2,0:2:0:0:
280,384,145388,1,10,0:2:0:0:
339,297,145642,1,2,3:2:0:0:
512,384,145896,5,10,0:2:0:0:
419,367,146146,1,10,0:2:0:0:
339,297,146396,1,10,0:2:0:0:
313,174,146646,1,10,0:2:0:0:
359,42,146896,1,10,0:2:0:0:
500,0,147146,1,10,0:2:0:0:
509,176,147396,6,0,L|482:174,1,27,10|0,0:2|0:2,0:2:0:0:
406,218,147922,6,0,B|310:183|280:283|182:253,1,233.999989288331,6|2,3:2|0:2,0:2:0:0:
6,178,148704,1,2,3:2:0:0:
34,215,148835,1,2,0:2:0:0:
52,259,148965,2,0,B|71:210|76:157|76:157|99:127|138:125,1,175.499991966248,2|0,3:2|0:2,0:2:0:0:
207,137,149487,1,10,0:2:0:0:
324,206,149748,2,0,P|351:215|380:212,1,58.4999973220826,2|2,0:2|0:2,0:2:0:0:
468,159,150008,6,0,B|480:96|476:40|476:40|485:25|485:25|484:2|488:-13,2,175.499991966248,2|2|2,3:2|0:2|3:2,0:2:0:0:
512,228,150922,1,2,0:2:0:0:
502,273,151052,1,2,3:2:0:0:
324,206,151313,1,0,0:2:0:0:
374,375,151574,2,0,B|418:364|454:349|454:349|472:360|496:365,1,116.999994644165,8|0,0:2|0:2,0:2:0:0:
318,309,152095,6,0,B|292:328|287:360|287:360|262:342|230:343|230:343|227:339|227:339|196:337|178:351,1,175.499991966248,2|0,3:2|0:2,0:2:0:0:
119,307,152612,1,2,0:2:0:0:
235,199,152870,1,2,3:2:0:0:
223,148,153000,1,2,0:2:0:0:
211,97,153129,2,0,P|266:80|315:48,2,116.999994644165,2|2|10,3:2|0:2|0:2,0:2:0:0:
4,11,153904,5,2,0:2:0:0:
20,22,154033,1,2,0:2:0:0:
36,33,154163,2,0,B|45:41|45:41|24:83|29:135|29:135|42:135|42:135|46:165|66:184,1,175.499991966248,2|0,3:2|0:2,0:2:0:0:
127,228,154681,1,0,0:2:0:0:
212,185,154939,1,2,3:2:0:0:
371,265,155198,5,0,3:2:0:0:
302,231,155456,1,0,0:2:0:0:
409,333,155715,2,0,P|420:268|434:213,1,116.999994644165,10|2,0:2|0:2,0:2:0:0:
426,204,156060,1,2,0:2:0:0:
419,190,156146,1,2,0:2:0:0:
412,176,156232,1,2,3:2:0:0:
338,41,156502,5,2,0:2:0:0:
356,2,156637,2,0,P|311:39|254:36,1,116.999994644165,2|2,0:2|0:2,0:2:0:0:
137,159,157132,6,0,B|150:150|150:150|138:68|138:68|98:53|64:93,1,180.000006866455,2|2,0:2|0:2,0:2:0:0:
29,157,157569,1,2,0:2:0:0:
83,252,157825,1,10,0:2:0:0:
146,376,158082,5,2,0:2:0:0:
196,339,158210,1,2,0:2:0:0:
258,339,158338,2,0,B|295:344|329:320|335:282|335:282|340:251|374:242|390:267,2,175.499991966248,2|2|2,3:2|0:2|3:2,0:2:0:0:
397,336,159363,1,0,3:2:0:0:
512,208,159620,5,2,0:2:0:0:
451,155,159876,1,10,0:2:0:0:
429,43,160132,1,2,0:0:0:0:
442,27,160218,1,2,0:0:0:0:
460,17,160303,1,2,0:0:0:0:
478,13,160389,6,0,P|489:88|448:157,1,155.250002961159,2|0,3:2|0:2,0:2:0:0:
391,200,160897,2,0,P|340:187|289:186,1,103.500001974106,2|2,0:2|3:2,0:2:0:0:
194,173,161278,1,2,0:2:0:0:
198,216,161405,1,2,3:2:0:0:
253,103,161696,1,0,0:2:0:0:
106,43,161987,5,10,0:2:0:0:
32,0,162243,1,2,0:2:0:0:
20,17,162328,1,2,0:2:0:0:
13,36,162414,1,2,0:2:0:0:
11,53,162499,6,0,P|26:95|31:139,1,90,2|0,3:2|0:2,0:2:0:0:
213,79,163011,1,0,0:2:0:0:
300,121,163268,1,2,3:2:0:0:
431,80,163524,6,0,B|457:37|503:41|514:3|514:3|482:6|477:66,1,180,2|8,3:2|0:2,0:2:0:0:
512,124,164320,1,2,0:2:0:0:
337,205,164585,6,0,P|293:209|250:196,2,90,2|0|0,3:2|0:2|0:2,0:2:0:0:
406,160,165354,1,8,0:2:0:0:
196,305,165610,5,10,0:2:0:0:
150,133,165867,1,10,0:2:0:0:
15,378,166123,2,0,L|45:366,1,27,10|0,0:2|0:2,0:2:0:0:
196,305,166636,5,4,3:2:0:0:
196,305,166908,2,2,P|236:314|267:341,1,60,2|0,0:2|0:2,0:1:0:0:
271,356,167181,2,2,P|308:347|360:335,1,75,2|0,0:2|0:2,0:1:0:0:
387,326,167454,2,2,P|406:285|386:216,1,90.0000034332277,2|0,3:2|0:2,0:1:0:0:
386,213,167726,6,2,P|381:172|372:113,1,90,2|2,3:2|0:2,0:1:0:0:
510,16,168243,2,2,P|476:40|430:78,1,90,10|2,0:2|0:2,0:1:0:0:
277,7,168760,2,2,P|315:23|370:44,1,90,2|2,3:2|0:2,0:1:0:0:
360,41,169277,6,2,B|310:53|274:61|274:61|260:52|260:52|216:61|159:75,1,195,2|10,0:2|0:2,0:1:0:0:
87,100,170623,1,2,0:2:0:0:
81,97,170706,1,2,0:2:0:0:
75,94,170789,1,2,0:2:0:0:
69,91,170871,5,2,3:2:0:0:
16,167,171138,2,2,P|17:198|30:236,1,60,2|0,0:2|0:2,0:1:0:0:
60,239,171406,2,2,P|97:244|163:255,1,75,2|0,0:2|0:2,0:1:0:0:
178,260,171674,2,2,P|202:303|203:359,1,90.0000034332277,2|0,3:2|0:2,0:1:0:0:
169,370,171942,6,2,P|130:364|68:352,1,90,2|2,3:2|0:2,0:1:0:0:
284,215,172478,2,2,P|290:254|302:316,1,90,10|2,0:2|0:2,0:1:0:0:
433,384,173013,6,2,P|418:247|500:139,1,270,2|10,3:2|0:2,0:1:0:0:
491,144,175081,5,2,3:2:0:0:
451,63,175390,2,2,P|419:65|385:80,1,60,2|0,0:2|0:2,0:1:0:0:
355,108,175699,2,2,P|321:96|262:80,1,75,2|0,0:2|0:2,0:1:0:0:
241,100,175931,2,2,P|218:138|247:211,1,90.0000034332277,2|0,3:2|0:2,0:1:0:0:
246,197,176164,6,2,P|251:245|261:303,1,90,2|2,3:2|0:2,0:1:0:0:
104,301,176676,2,2,P|143:271|188:234,1,90,10|2,0:2|0:2,0:1:0:0:
265,371,177189,2,2,P|219:351|164:331,1,90,2|2,3:2|0:2,0:1:0:0:
181,337,177702,6,2,P|263:318|368:303,1,180,2|2,0:2|3:2,0:1:0:0:
478,345,178475,6,2,P|457:306|488:244,1,90.0000034332277,2|0,0:2|0:2,0:1:0:0:
495,237,178736,2,2,P|489:205|481:146,1,75,10|0,0:2|0:2,0:1:0:0:
476,133,178997,2,2,P|453:121|404:119,1,60,2|0,0:2|0:2,0:1:0:0:
392,131,179258,6,2,P|346:121|292:110,1,90,2|2,3:2|0:2,0:1:0:0:
95,10,179775,2,2,P|168:-3|250:54,1,180,2|2,0:2|3:2,0:1:0:0:
225,129,180557,6,2,P|229:177|253:225,1,90.0000034332277,2|0,0:2|0:2,0:1:0:0:
280,229,180822,2,2,P|273:261|261:316,1,75,10|0,0:2|0:2,0:1:0:0:
253,331,181088,2,2,P|228:347|171:348,1,60,2|0,0:2|0:2,0:1:0:0:
106,345,181353,6,2,P|231:349|374:380,1,270,2|10,3:2|0:2,0:1:0:0:
372,379,183458,2,2,B|389:299|389:299|404:295|404:295|423:205,1,180,2|2,3:2|3:2,0:1:0:0:
478,54,184751,6,2,P|499:92|468:175,2,112.5,2|10|2,0:2|0:2|0:2,0:1:0:0:
407,108,185526,6,2,P|362:99|307:88,1,90.0000034332277,2|0,3:2|0:2,0:1:0:0:
281,90,185782,2,2,P|257:119|250:177,1,75,2|0,0:2|0:2,0:1:0:0:
263,180,186038,6,2,P|274:269|290:365,1,180,2|10,0:2|0:2,0:1:0:0:
203,327,187320,1,2,0:2:0:0:
197,329,187406,1,2,0:2:0:0:
191,331,187491,1,2,0:2:0:0:
185,333,187577,5,10,0:2:0:0:
185,333,188359,2,2,P|150:325|101:312,1,75,2|0,0:2|0:2,0:1:0:0:
68,301,188620,2,2,P|48:262|61:218,1,90.0000034332277,2|0,0:2|0:2,0:1:0:0:
92,199,188881,2,2,P|96:164|104:112,1,75,2|0,0:2|0:2,0:1:0:0:
109,95,189142,2,2,P|132:81|189:82,1,60,2|0,0:2|0:2,0:1:0:0:
193,85,189403,1,2,0:2:0:0:
260,130,189560,5,2,3:2:0:0:
371,88,189818,1,2,0:2:0:0:
459,182,190077,2,0,B|463:123|463:123|468:119|468:119|472:69,1,103.500001974106,2|2,0:2|3:2,0:2:0:0:
475,50,190465,1,2,0:2:0:0:
475,50,190594,6,0,B|418:76|378:35|374:14|329:-13|269:9,2,207.000003948212,2|2|2,3:2|0:2|3:2,0:2:0:0:
378,79,191887,1,0,0:2:0:0:
284,149,192146,2,0,P|264:195|273:245,1,103.500001974106,2|0,0:2|3:2,0:2:0:0:
444,324,192663,6,0,B|390:317|340:302|340:302|321:323|299:327,1,155.250002961159,2|0,3:2|0:2,0:2:0:0:
271,335,193180,1,2,0:2:0:0:
181,265,193439,1,2,3:2:0:0:
71,372,193697,6,0,B|66:277|-7:311|-9:208,1,180,6|0,3:2|0:2,0:2:0:0:
104,103,194522,1,0,3:2:0:0:
104,103,194797,2,0,P|53:107|18:89,2,90,0|0|8,3:2|0:2|0:2,0:2:0:0:
210,28,195559,1,0,0:2:0:0:
285,160,195813,6,0,B|327:135|383:168|366:181|405:219|460:204,1,180,2|2,3:2|0:2,0:2:0:0:
448,206,196588,1,2,3:2:0:0:
512,147,196847,5,2,3:2:0:0:
499,10,197106,1,2,0:2:0:0:
377,138,197364,1,10,0:2:0:0:
377,138,197881,6,0,P|383:222|390:291,1,144,2|0,3:2|0:2,0:2:0:0:
388,281,198684,1,2,3:2:0:0:
339,366,198952,2,0,P|276:382|215:334,1,144,2|10,3:2|0:2,0:2:0:0:
224,246,199714,1,2,0:2:0:0:
82,300,199968,6,0,L|127:292,1,45,2|2,3:2|0:2,0:2:0:0:
68,326,200222,2,0,P|81:233|88:171,1,135,2|0,0:2|0:2,0:2:0:0:
75,111,200730,2,0,P|48:117|27:133,1,53.9999983520508,2|2,3:2|0:2,0:2:0:0:
148,142,200984,5,0,3:2:0:0:
148,142,201112,2,0,P|193:168|246:163,1,107.999996704102,2|2,0:2|0:2,0:2:0:0:
257,159,201429,1,2,0:2:0:0:
267,153,201493,2,0,P|271:110|280:40,1,107.999996704102,10|0,0:2|0:2,0:2:0:0:
354,198,202001,5,0,3:2:0:0:
445,278,202251,1,2,0:2:0:0:
477,264,202376,1,2,0:2:0:0:
511,260,202501,2,0,P|499:280|480:295,1,48,2|0,0:2|0:2,0:2:0:0:
472,341,202751,2,0,P|453:356|440:376,1,48,2|0,3:2|0:2,0:2:0:0:
399,384,203001,2,0,P|330:373|278:364,1,120,2|0,3:2|0:2,0:2:0:0:
238,384,203501,2,0,P|229:344|213:308,1,72,10|0,0:2|0:2,0:2:0:0:
280,200,204001,6,0,P|294:110|315:14,1,180,2|0,3:2|0:2,0:2:0:0:
203,71,204751,2,0,P|177:67|150:59,1,53.9999983520508,2|2,3:2|0:2,0:2:0:0:
68,11,205001,1,0,3:2:0:0:
33,151,205251,5,2,0:2:0:0:
36,162,205334,1,2,0:2:0:0:
39,173,205417,1,2,0:2:0:0:
42,184,205501,2,0,B|34:233|-9:267|-9:267|23:268|47:299,1,161.999995056153,10|0,0:2|0:2,0:2:0:0:
57,367,206001,6,0,P|90:355|111:326,1,71.9999978027344,2|2,3:2|0:2,0:2:0:0:
187,228,206371,2,0,P|222:228|253:245,1,71.9999978027344,2|2,0:2|0:2,0:2:0:0:
313,308,206707,2,0,P|348:308|379:291,1,71.9999978027344,2|2,0:2|0:2,0:2:0:0:
253,245,207010,6,0,P|262:143|266:102,1,135,2|0,3:2|0:2,0:2:0:0:
221,51,207510,1,8,0:2:0:0:
303,0,207676,2,0,P|332:2|358:17,1,60,2|2,0:2|0:2,0:2:0:0:
432,99,208010,6,0,P|473:89|513:81,2,71.9999978027344,2|2|2,3:2|0:2|0:2,0:2:0:0:
512,68,208510,2,0,P|498:155|488:242,1,135,2|0,0:2|0:2,0:2:0:0:
465,221,209010,2,0,P|484:260|493:308,1,90,0|0,3:2|0:2,0:2:0:0:
438,369,209401,6,0,L|384:358,1,45,2|8,0:2|0:0,0:2:0:0:
300,289,209656,1,2,0:2:0:0:
315,304,209781,2,0,L|270:312,1,45,2|0,0:2|0:2,0:2:0:0:
136,342,210031,5,2,3:2:0:0:
139,325,210115,1,2,0:2:0:0:
142,308,210200,1,2,0:2:0:0:
145,291,210285,2,0,L|130:202,1,53.9999983520508,2|2,0:2|0:2,0:2:0:0:
182,170,210539,2,0,P|198:94|226:27,1,144,2|0,0:2|3:2,0:2:0:0:
223,32,211556,1,8,0:2:0:0:
109,169,212064,5,0,3:2:0:0:
11,86,212318,1,2,0:2:0:0:
5,65,212411,1,2,0:2:0:0:
0,43,212505,2,0,P|7:23|15:0,2,30,2|2|2,0:2|0:2|0:2,0:2:0:0:
22,129,212785,1,2,3:2:0:0:
181,219,213065,6,0,B|249:206|249:206|252:210|252:210|327:196,1,144,0|8,3:2|0:2,0:2:0:0:
320,197,214099,1,0,3:2:0:0:
463,211,214280,5,2,0:0:0:0:
463,211,214371,2,0,P|482:171|471:113,2,53.9999983520508,2|2|2,0:2|0:2|0:2,0:2:0:0:
456,89,214759,1,2,0:2:0:0:
456,89,214874,2,0,P|424:81|402:68,1,53.9999983520508,2|2,3:2|0:2,0:2:0:0:
350,15,215105,1,2,3:2:0:0:
321,148,215357,1,0,0:2:0:0:
451,224,215609,2,0,P|463:277|468:332,1,108,8|0,0:2|0:2,0:2:0:0:
466,358,216113,1,0,3:2:0:0:
333,384,216330,6,0,P|307:375|280:372,1,53.9999983520508,2|2,0:2|0:2,0:2:0:0:
173,349,216547,1,2,0:2:0:0:
185,314,216669,1,2,0:2:0:0:
208,285,216792,1,2,3:2:0:0:
163,182,217038,6,0,P|152:140|138:109,1,72,2|2,3:2|0:2,0:2:0:0:
232,0,217609,2,0,P|218:33|209:68,2,72,10|2|2,0:2|0:2|3:2,0:2:0:0:
240,149,218294,6,0,P|274:152|303:159,1,60,2|0,0:2|0:2,0:2:0:0:
364,213,218567,1,2,0:2:0:0:
364,213,218658,2,0,P|379:187|383:158,2,60,2|2|2,0:2|0:2|0:2,0:2:0:0:
376,298,219203,2,0,P|405:292|428:272,2,60,2|2|2,0:2|0:2|0:2,0:2:0:0:
324,364,219625,2,0,P|351:381|384:384,2,66.0000020141602,10|2|2,0:2|0:2|0:2,0:2:0:0:
269,302,220116,5,2,3:2:0:0:
187,321,220279,1,2,0:2:0:0:
105,340,220443,1,2,0:2:0:0:
87,334,220607,6,2,B|48:325|15:285|17:218|45:191|47:193|49:196|105:114|169:105|198:203|176:271|98:295|23:249|-8:157|43:97|46:101|49:104|120:68|76:-15,1,539.999983520508,2|10,0:2|0:2,0:1:0:0:
207,114,222083,5,10,0:2:0:0:
207,114,224018,5,6,3:2:0:0:
293,89,224283,1,2,0:2:0:0:
380,111,224548,1,2,0:2:0:0:
427,187,224814,1,2,3:2:0:0:
427,187,225079,2,0,P|414:259|398:352,1,135,2|0,3:2|0:2,0:2:0:0:
445,383,225587,1,10,0:2:0:0:
445,383,226095,6,0,P|393:349|256:359,1,180,2|2,3:2|0:2,0:2:0:0:
175,259,226864,1,2,3:2:0:0:
175,259,227120,2,0,P|188:302|198:366,1,90,2|2,3:2|0:2,0:2:0:0:
280,219,227633,1,10,0:2:0:0:
253,231,227761,1,2,0:2:0:0:
282,236,227889,1,2,0:2:0:0:
262,215,228018,1,2,0:2:0:0:
266,244,228146,6,0,P|279:161|307:41,1,180,2|2,3:2|0:2,0:2:0:0:
104,19,228915,1,2,3:2:0:0:
104,19,229171,2,0,P|166:12|233:58,1,135,2|0,3:2|0:2,0:2:0:0:
211,124,229684,2,0,P|204:158|197:200,1,67.5,10|0,0:2|0:2,0:2:0:0:
266,244,230197,6,0,P|161:241|95:302,1,180,2|2,3:2|0:2,0:2:0:0:
11,207,230966,1,2,3:2:0:0:
11,207,231223,2,0,P|23:273|33:350,1,135,2|0,3:2|0:2,0:2:0:0:
109,361,231731,1,10,0:2:0:0:
109,361,232239,6,0,P|155:353|217:345,1,90,2|2,3:2|0:2,0:2:0:0:
396,328,232748,1,2,0:2:0:0:
289,289,233002,1,2,3:2:0:0:
471,196,233256,6,0,P|496:231|484:296,1,90,2|2,3:2|0:2,0:2:0:0:
400,345,233773,2,0,P|375:310|387:245,1,90,10|2,0:2|0:2,0:2:0:0:
464,50,234290,6,0,B|418:43|367:73|411:94|353:134|274:104,1,180,2|2,3:2|0:2,0:2:0:0:
238,52,235057,1,2,3:2:0:0:
185,175,235325,2,0,P|197:225|208:278,2,90,2|2|10,3:2|0:2|0:2,0:2:0:0:
14,61,236373,5,10,0:2:0:0:
9,79,236623,1,10,0:2:0:0:
16,158,236873,1,10,0:2:0:0:
83,223,237123,1,10,0:2:0:0:
185,248,237373,1,10,0:2:0:0:
289,184,237623,1,10,0:2:0:0:
320,45,237873,1,10,0:2:0:0:
178,39,238123,5,10,0:2:0:0:
191,82,238248,1,2,0:2:0:0:
230,104,238373,2,2,B|311:129|409:121|409:121|363:217|306:266|306:266|206:231|146:158,1,540,10|10,0:2|0:1,0:1:0:0:
489,120,240123,5,2,0:2:0:0:
489,120,240248,1,2,0:2:0:0:
489,120,240373,2,0,P|439:221|366:313,1,225,6|2,3:2|0:2,0:2:0:0:
364,75,241176,1,2,3:2:0:0:
397,54,241310,1,2,0:2:0:0:
436,57,241444,2,0,P|366:61|287:-11,1,168.75,2|0,3:2|0:2,0:2:0:0:
213,0,241980,1,10,0:2:0:0:
24,44,242248,1,2,0:2:0:0:
24,44,242381,1,2,0:2:0:0:
24,44,242515,6,0,P|47:157|65:268,1,225,2|0,3:2|0:2,0:2:0:0:
93,377,243284,1,2,3:2:0:0:
60,355,243412,1,2,0:2:0:0:
20,357,243540,2,0,P|108:352|166:289,1,168.75,2|0,3:2|0:2,0:2:0:0:
169,218,244053,1,8,0:2:0:0:
169,218,244566,6,0,B|249:237|283:195|252:181|308:133|376:161,1,225,2|0,3:2|0:2,0:2:0:0:
451,291,245335,1,2,3:2:0:0:
427,259,245463,1,2,0:2:0:0:
433,220,245591,2,0,P|440:292|360:349,1,168.75,2|0,3:2|0:2,0:2:0:0:
296,324,246104,1,10,0:2:0:0:
296,324,246617,6,0,P|274:208|247:87,1,225,2|0,3:2|0:2,0:2:0:0:
121,12,247420,1,2,3:2:0:0:
152,35,247554,1,2,0:2:0:0:
191,39,247688,2,0,P|103:27|29:73,1,168.75,2|0,3:2|0:2,0:2:0:0:
26,143,248224,1,8,0:2:0:0:
250,103,248492,1,2,0:2:0:0:
250,103,248625,1,2,0:2:0:0:
250,103,248759,6,0,B|354:83|354:83|368:92|368:92|482:69,1,225,2|0,3:2|0:2,0:2:0:0:
389,243,249548,1,2,3:2:0:0:
366,275,249680,1,2,0:2:0:0:
373,313,249811,2,0,P|383:256|314:157,1,168.75,2|0,3:2|0:2,0:2:0:0:
250,184,250337,1,10,0:2:0:0:
250,184,250864,6,0,P|147:166|21:147,1,225,2|0,3:2|0:2,0:2:0:0:
66,303,251639,1,2,3:2:0:0:
93,274,251769,1,2,0:2:0:0:
86,235,251898,2,0,P|75:308|144:376,1,168.75,2|0,3:2|0:2,0:2:0:0:
212,354,252415,1,8,0:2:0:0:
397,367,252674,1,2,0:2:0:0:
397,367,252803,1,2,0:2:0:0:
397,367,252932,6,0,P|415:246|441:119,1,225,2|0,3:2|0:2,0:2:0:0:
414,28,253708,1,2,3:2:0:0:
445,51,253838,1,2,0:2:0:0:
484,53,253967,2,0,P|414:41|332:96,1,168.75,2|0,3:2|0:2,0:2:0:0:
331,168,254484,1,8,0:2:0:0:
282,31,254749,1,2,0:2:0:0:
282,31,254882,1,2,0:2:0:0:
282,31,255014,1,2,3:2:0:0:
152,132,255270,5,2,0:2:0:0:
112,132,255398,1,2,0:2:0:0:
86,109,255526,1,2,0:2:0:0:
213,88,255811,5,2,3:2:0:0:
230,116,255954,1,2,0:2:0:0:
228,151,256097,1,2,3:2:0:0:
144,57,256326,5,2,0:2:0:0:
157,32,256440,1,2,0:2:0:0:
176,18,256555,1,2,0:2:0:0:
211,223,256827,6,0,L|258:241,2,37.5,2|2|2,3:2|0:2|0:2,0:2:0:0:
180,213,257100,6,0,P|193:269|206:338,1,112.5,10|10,0:2|0:2,0:2:0:0:
62,267,257617,5,10,0:2:0:0:
54,166,257875,1,10,0:2:0:0:
134,76,258134,1,10,0:2:0:0:
268,77,258393,1,10,0:2:0:0:
370,183,258651,1,10,0:2:0:0:
318,359,258910,1,2,0:0:0:0:
318,359,259039,1,2,0:0:0:0:
318,359,259168,6,0,B|288:299|340:242|397:252|376:278|449:261|471:206|436:137,1,270.000010299683,6|2,3:2|0:2,0:2:0:0:
346,28,259993,2,0,P|316:36|286:38,1,60.7500002317429,2|0,3:2|0:2,0:2:0:0:
177,1,260268,6,0,B|208:10|244:18|244:18|228:95|214:140,1,182.250000695229,2|0,3:2|0:2,0:2:0:0:
173,185,260780,1,10,0:2:0:0:
173,185,261293,6,0,B|105:147|25:141|25:141|49:174|80:208,1,243.000000926971,2|2,3:2|0:2,0:2:0:0:
129,370,262075,1,2,3:2:0:0:
129,370,262336,5,10,0:2:0:0:
239,221,262597,1,10,0:3:0:0:
137,85,262858,1,6,0:3:0:0:
137,85,263379,6,0,B|210:127|292:66|242:57|321:8|398:36,1,270.000010299683,6|2,3:2|0:2,0:2:0:0:
512,136,264175,1,2,3:2:0:0:
346,138,264440,6,0,P|353:228|359:319,1,182.250000695229,2|2,3:2|0:2,0:2:0:0:
324,384,264952,2,0,P|300:365|288:338,1,60.7500002317429,10|0,0:2|0:2,0:2:0:0:
217,356,265209,2,0,P|211:327|224:298,1,60.7500002317429,2|0,0:2|0:2,0:2:0:0:
374,206,265465,6,0,L|516:214,1,135.000005149842,2|0,3:2|0:2,0:2:0:0:
509,214,266215,1,10,0:2:0:0:
482,129,266465,1,10,0:2:0:0:
387,69,266715,1,10,0:2:0:0:
259,92,266965,1,10,0:2:0:0:
187,242,267215,1,10,0:2:0:0:
360,374,267465,6,0,B|401:349|404:273|352:222|346:261|296:199|334:132,1,270.000010299683,6|0,3:2|0:2,0:2:0:0:
392,4,268247,1,2,3:2:0:0:
349,33,268377,1,2,0:2:0:0:
297,42,268508,2,0,P|356:30|403:65,1,121.500000463486,2|0,3:2|0:2,0:2:0:0:
495,264,269030,5,10,0:2:0:0:
512,226,269160,2,0,P|448:239|388:253,1,121.500000463486,2|2,0:2|0:2,0:2:0:0:
378,257,269486,1,2,0:2:0:0:
365,261,269551,2,0,P|401:234|421:195,2,90,2|2|2,3:2|0:2|0:2,0:2:0:0:
196,222,270320,5,2,3:2:0:0:
199,277,270448,1,2,0:2:0:0:
203,331,270576,2,0,P|210:303|220:268,1,60.7500002317429,2|0,3:2|0:2,0:2:0:0:
231,138,270836,2,0,B|214:136|199:129|199:129|157:141|111:134,2,121.500000463486,2|10|2,0:2|0:2|0:2,0:2:0:0:
244,51,271489,1,2,0:2:0:0:
244,51,271619,6,0,B|263:20|273:-9|273:-9|289:13,1,90,2|2,3:2|0:2,0:2:0:0:
356,104,272131,1,2,0:2:0:0:
512,43,272388,5,2,3:2:0:0:
499,0,272516,1,2,0:0:0:0:
454,5,272644,1,2,3:2:0:0:
435,136,272901,6,0,P|440:169|444:202,1,67.5000025749208,2|0,0:2|0:2,0:2:0:0:
512,355,273157,2,0,B|470:347|437:314|437:314|407:324|389:344,1,135.000005149842,10|2,0:2|0:2,0:2:0:0:
145,377,273670,6,0,B|123:375|105:367|105:367|90:374|90:374|35:377|-9:350|-9:350|37:349|73:321,1,243.000000926971,2|0,3:2|0:2,0:2:0:0:
170,205,274439,1,2,3:2:0:0:
0,70,274695,6,0,B|50:98|54:162|54:162|62:121|99:103,1,182.250000695229,2|0,3:2|0:2,0:2:0:0:
163,74,275208,1,8,0:2:0:0:
337,114,275483,5,2,0:2:0:0:
389,92,275620,1,2,0:2:0:0:
440,112,275758,2,0,B|471:154|459:211|414:227|405:233|394:241|349:269|366:340,1,243.000000926971,2|0,3:2|0:2,0:2:0:0:
510,343,276547,2,0,P|482:330|456:316,1,60.7500002317429,2|2,3:2|0:2,0:2:0:0:
290,379,276810,6,0,P|236:350|181:323,1,121.500000463486,2|2,3:2|0:2,0:2:0:0:
68,344,277205,1,2,0:2:0:0:
96,349,277336,2,0,P|156:319|166:266,1,121.500000463486,10|2,0:2|0:2,0:2:0:0:
52,73,277863,6,0,B|43:69|36:63|36:63|66:15|142:10|185:52|186:54|187:56|226:92|290:61,1,270.000010299683,6|0,3:2|0:2,0:2:0:0:
379,6,278652,1,2,3:2:0:0:
327,162,278915,6,0,P|337:218|356:279,1,108,2|0,3:2|0:2,0:2:0:0:
295,343,279419,6,0,P|319:324|348:320,1,60.7500002317429,10|0,0:2|0:2,0:2:0:0:
452,359,279671,2,0,P|481:354|505:336,1,60.7500002317429,2|0,0:2|0:2,0:2:0:0:
512,110,279923,5,10,0:2:0:0:
512,208,281920,6,0,P|440:200|369:189,1,144,6|0,3:2|0:2,0:2:0:0:
247,220,282738,1,0,3:2:0:0:
247,220,283010,2,0,P|274:174|266:122,1,108,0|0,3:2|0:2,0:2:0:0:
212,63,283556,2,0,P|177:74|142:78,1,72,10|2,0:2|0:2,0:2:0:0:
316,0,284101,5,2,3:2:0:0:
316,0,284361,2,0,P|367:17|420:23,1,107.999996704102,2|0,0:2|3:2,0:2:0:0:
511,0,285144,2,0,P|515:40|499:77,1,80.9999975280763,0|0,3:2|0:2,0:2:0:0:
431,97,285666,2,0,P|426:151|447:201,1,108,10|0,0:2|0:2,0:2:0:0:
506,248,286187,6,0,B|434:196|374:268|378:273|384:279|349:351|270:337,1,270,2|0,3:2|3:2,0:2:0:0:
117,310,287268,5,2,3:2:0:0:
134,337,287399,2,0,L|143:220,1,90,2|0,0:2|0:2,0:2:0:0:
219,178,287794,1,10,0:2:0:0:
202,205,287925,2,0,L|193:88,1,90,2|0,0:2|0:2,0:2:0:0:
245,58,288320,6,0,B|167:113|83:62|114:43|17:2|-26:34|-26:34|11:45|28:76,1,360,2|0,3:2|3:2,0:2:0:0:
68,137,289504,2,0,P|51:192|45:229,1,90,2|0,0:2|0:2,0:2:0:0:
41,300,289898,1,10,0:2:0:0:
127,384,290162,1,2,0:2:0:0:
291,311,290425,6,0,B|252:286|216:259|216:259|267:244|309:235|309:235|339:248|339:248|388:238|427:225,1,310.500005922318,2|0,3:2|3:2,0:2:0:0:
505,290,291468,2,0,B|479:270|458:253|458:253|479:211|494:165,1,155.250002961159,0|0,3:2|0:2,0:2:0:0:
512,93,291994,1,10,0:2:0:0:
362,23,292257,1,2,0:2:0:0:
512,93,292520,6,0,P|461:83|409:79,1,103.500001974106,2|0,3:2|0:2,0:2:0:0:
223,48,293046,2,0,B|206:21|213:-10|213:-10|280:43|280:43|269:86|269:86|304:135|307:202,1,315,2|0,0:2|0:2,0:2:0:0:
295,276,294098,1,10,0:2:0:0:
386,374,294362,1,2,0:2:0:0:
443,216,294625,6,0,B|476:220|509:230|509:230|450:269|389:278,1,198.000006042481,2|0,3:2|0:2,0:2:0:0:
235,223,295400,1,2,3:2:0:0:
95,373,295659,6,0,P|106:302|67:240,1,148.50000453186,2|0,3:2|0:2,0:2:0:0:
4,200,296176,1,10,0:2:0:0:
88,74,296435,1,2,0:2:0:0:
235,223,296693,6,2,B|221:279|294:296|307:254|307:254|345:131|345:131|340:109|340:109|394:57|394:57|423:129|423:129|377:281|377:281|427:281|443:230,1,675,2|10,3:2|0:2,0:1:0:0:
495,51,298440,1,10,0:2:0:0:
253,135,298701,6,0,P|149:116|37:97,1,202.500007724762,6|0,3:2|3:0,0:0:0:0:
126,34,299762,1,0,3:0:0:0:
126,34,300279,6,0,P|151:120|84:194,1,168.75,10|0,0:0|0:0,0:0:0:0:
36,175,300796,6,0,P|54:226|68:278,1,101.250003862381,2|0,3:2|0:0,0:0:0:0:
0,309,301313,6,0,P|67:315|100:370,1,135,2|0,0:0|0:0,0:0:0:0:
310,195,302347,6,0,P|231:176|169:239,1,168.75,10|0,0:0|0:0,0:0:0:0:
169,307,302864,6,0,P|277:319|388:335,1,202.500007724762,2|0,3:2|3:0,0:0:0:0:
421,212,303899,1,2,3:2:0:0:
434,224,304028,2,0,P|389:241|367:279,1,67.5000025749208,2|0,0:0|0:0,0:0:0:0:
438,379,304416,1,10,0:0:0:0:
421,384,304546,2,0,P|444:337|431:291,1,90,2|0,0:0|0:0,0:0:0:0:
309,194,304933,6,0,P|260:122|287:40,1,180,2|0,3:2|3:0,0:0:0:0:
451,119,306227,2,0,P|407:111|346:103,1,90,2|8,0:0|0:0,0:0:0:0:
434,224,306744,1,2,0:0:0:0:
230,125,307002,6,0,P|133:149|27:182,1,202.500007724762,2|0,3:2|3:0,0:0:0:0:
97,238,308045,1,0,3:0:0:0:
97,237,308567,2,0,P|115:217|119:189,1,56.25,10|0,0:0|0:0,0:0:0:0:
90,115,308828,2,0,P|67:98|38:94,1,56.25,2|0,0:0|0:0,0:0:0:0:
175,126,309088,6,0,P|202:117|239:105,1,56.25,2|0,3:2|0:0,0:0:0:0:
326,70,309349,6,0,P|316:117|302:196,1,112.5,2|0,0:0|0:0,0:0:0:0:
375,221,310132,6,0,P|316:223|269:288,1,135,2|0,3:2|0:0,0:0:0:0:
298,353,310654,6,0,P|406:333|518:317,1,202.500007724762,10|0,0:0|0:0,0:0:0:0:
442,379,311166,6,0,P|417:323|454:253,1,135,2|0,3:2|3:0,0:0:0:0:
445,259,312227,2,0,P|427:188|410:110,1,135.000005149842,2|10,3:2|0:0,0:0:0:0:
491,0,313243,6,0,P|508:42|470:104,1,90,0|10,0:0|0:0,0:0:0:0:
413,127,313738,1,10,0:0:0:0:
413,127,313986,1,10,0:0:0:0:
397,108,314234,1,10,0:0:0:0:
319,54,314482,1,10,0:0:0:0:
216,76,314730,1,10,0:0:0:0:
160,175,314986,1,10,0:0:0:0:
229,292,315242,5,10,0:0:0:0:
98,268,315499,1,10,0:0:0:0:
245,203,315755,5,10,0:0:0:0:
100,358,316012,1,10,0:0:0:0:
312,261,316268,5,10,0:0:0:0:
21,313,316533,1,10,0:0:0:0:
269,372,316798,1,10,0:0:0:0:
269,372,317416,6,0,P|343:352|411:339,1,142.623002524455,6|0,3:2|0:0,0:0:0:0:
