osu file format v14

[General]
AudioFilename: audio.mp3
AudioLeadIn: 0
PreviewTime: 149663
Countdown: 0
SampleSet: Soft
StackLeniency: 0.6
Mode: 0
LetterboxInBreaks: 0
SkinPreference:- rafis metin2
WidescreenStoryboard: 1

[Editor]
Bookmarks: 25658,58129,58188,59467,59749,70227,89254,89749,91453,92476,102208,117869,118039,118380,118721,126567,127675,127930,128032,130402,136107,139772,141498,145568,149829,152492,161825,163487,165830,184095,184266,184607
DistanceSpacing: 0.1
BeatDivisor: 4
GridSize: 32
TimelineZoom: 2.1

[Metadata]
Title:Save Me
TitleUnicode:Save Me
Artist:Ymir Entertainment
ArtistUnicode:Ymir Entertainment
Creator:Veteran
Version:Lv.34
Source:Metin2
Tags:Metin2 Dolina orkow Save me Seungryong
BeatmapID:1731942
BeatmapSetID:826409

[Difficulty]
HPDrainRate:6
CircleSize:4
OverallDifficulty:8
ApproachRate:9.3
SliderMultiplier:1.8
SliderTickRate:1

[Events]
//Background and Video events
0,0,"bg.jpg",0,0
//Break Periods
2,70687,89195
//Storyboard Layer 0 (Background)
//Storyboard Layer 1 (Fail)
//Storyboard Layer 2 (Pass)
//Storyboard Layer 3 (Foreground)
//Storyboard Sound Samples

[TimingPoints]
3840,340.909090909091,4,2,0,100,1,0
25658,-263.157894736842,4,2,0,100,0,0
70227,-400,4,2,0,100,0,0
89254,-100,4,2,0,100,0,0
126567,-100,4,2,0,100,0,1
130487,-263.157894736842,4,2,0,100,0,0
139772,-79.9999999999999,4,2,0,100,0,0
141498,-100,4,2,0,100,0,0
149663,-133.333333333333,4,2,0,100,0,1
171567,-100,4,2,0,100,0,0

[HitObjects]
256,192,3840,12,0,4351,0:0:0:0:
128,288,4521,5,0,0:0:0:0:
288,64,4692,1,0,0:0:0:0:
384,288,4862,1,0,0:0:0:0:
128,288,5033,1,0,0:0:0:0:
288,64,5288,2,0,P|143:143|174:301,1,315
152,274,5970,1,0,0:0:0:0:
152,274,6055,1,0,0:0:0:0:
345,123,6566,5,0,0:0:0:0:
345,123,6652,1,0,0:0:0:0:
345,123,6737,1,0,0:0:0:0:
160,96,6908,1,0,0:0:0:0:
256,224,7078,1,0,0:0:0:0:
64,160,7249,1,0,0:0:0:0:
416,192,7419,1,0,0:0:0:0:
128,192,7590,1,0,0:0:0:0:
352,96,7760,5,0,0:0:0:0:
320,320,7930,2,0,L|192:192,1,180
128,64,8442,2,0,L|256:64,1,90
320,256,8953,1,0,0:0:0:0:
192,192,9124,1,0,0:0:0:0:
320,128,9294,1,0,0:0:0:0:
160,96,9465,1,0,0:0:0:0:
256,320,9635,5,0,0:0:0:0:
384,96,9805,1,0,0:0:0:0:
384,320,9976,1,0,0:0:0:0:
256,64,10146,1,0,0:0:0:0:
160,320,10317,2,0,L|96:256,1,90
238,202,10658,1,0,0:0:0:0:
238,202,10743,1,0,0:0:0:0:
238,202,10828,1,0,0:0:0:0:
352,96,10999,5,0,0:0:0:0:
288,256,11169,1,0,0:0:0:0:
111,207,11340,2,0,P|202:63|326:50,1,270
64,64,12021,1,0,0:0:0:0:
224,224,12192,1,0,0:0:0:0:
320,64,12362,1,0,0:0:0:0:
416,160,12533,5,0,0:0:0:0:
96,224,12703,1,0,0:0:0:0:
384,288,12874,1,0,0:0:0:0:
160,96,13044,1,0,0:0:0:0:
288,320,13215,1,0,0:0:0:0:
372,194,13385,1,0,0:0:0:0:
372,194,13470,1,0,0:0:0:0:
372,194,13555,1,0,0:0:0:0:
192,320,13726,5,0,0:0:0:0:
131,169,13896,1,0,0:0:0:0:
182,89,14067,2,0,P|342:52|414:73,1,225
224,320,14749,1,0,0:0:0:0:
384,160,14919,1,0,0:0:0:0:
64,64,15090,2,0,L|96:96,1,45
128,192,15260,2,0,L|160:224,1,45
384,288,15431,2,0,L|352:256,1,45
363,100,15686,5,0,0:0:0:0:
151,301,15857,1,0,0:0:0:0:
192,128,16027,1,0,0:0:0:0:
192,128,16112,1,0,0:0:0:0:
192,128,16197,1,0,0:0:0:0:
320,160,16453,5,0,0:0:0:0:
192,256,16624,1,0,0:0:0:0:
416,128,16794,1,0,0:0:0:0:
128,320,16965,1,0,0:0:0:0:
352,96,17135,1,0,0:0:0:0:
352,256,17646,1,0,0:0:0:0:
128,128,17817,1,0,0:0:0:0:
384,128,17987,1,0,0:0:0:0:
160,256,18158,1,0,0:0:0:0:
256,32,18328,1,0,0:0:0:0:
96,192,18499,5,0,0:0:0:0:
320,96,18669,1,0,0:0:0:0:
320,256,18840,1,0,0:0:0:0:
320,256,18925,1,0,0:0:0:0:
320,256,19010,1,0,0:0:0:0:
160,64,19180,1,0,0:0:0:0:
416,96,19351,1,0,0:0:0:0:
128,256,19521,1,0,0:0:0:0:
128,64,20374,5,0,0:0:0:0:
128,128,20544,1,0,0:0:0:0:
128,256,20885,1,0,0:0:0:0:
128,320,21055,1,0,0:0:0:0:
294,50,21226,1,0,0:0:0:0:
160,192,21396,2,0,L|160:128,1,45
320,192,21652,1,0,0:0:0:0:
320,192,21737,1,0,0:0:0:0:
320,192,21822,1,0,0:0:0:0:
256,192,22163,5,0,0:0:0:0:
247,210,23101,1,0,0:0:0:0:
247,210,23271,1,0,0:0:0:0:
133,144,23612,1,0,0:0:0:0:
133,144,23697,1,0,0:0:0:0:
133,144,23783,1,0,0:0:0:0:
290,265,24124,2,0,P|345:102|347:98,2,135
247,210,24976,1,0,0:0:0:0:
247,210,25146,1,0,0:0:0:0:
133,144,25487,1,0,0:0:0:0:
133,144,25572,1,0,0:0:0:0:
133,144,25658,1,0,0:0:0:0:
354,272,25828,5,0,0:0:0:0:
87,229,25999,1,0,0:0:0:0:
226,39,26169,1,0,0:0:0:0:
226,329,26340,1,0,0:0:0:0:
114,66,26510,1,0,0:0:0:0:
289,284,26680,1,0,0:0:0:0:
311,38,26851,1,0,0:0:0:0:
292,156,27021,2,0,P|406:49|404:46,1,180
243,225,28129,1,0,0:0:0:0:
108,86,28300,1,0,0:0:0:0:
277,307,28470,1,0,0:0:0:0:
352,192,28641,2,0,L|288:96,2,102.599998747559
118,122,30090,5,0,0:0:0:0:
169,309,30430,1,0,0:0:0:0:
251,160,30771,2,0,L|366:123,1,90
410,275,31624,1,0,0:0:0:0:
484,30,31794,1,0,0:0:0:0:
246,80,31965,1,0,0:0:0:0:
400,132,32135,5,0,0:0:0:0:
270,216,32305,1,0,0:0:0:0:
135,138,32476,2,0,P|74:190|55:293,1,188.099997703857
132,332,33669,5,0,0:0:0:0:
391,342,33840,1,0,0:0:0:0:
276,144,34010,1,0,0:0:0:0:
267,277,34180,1,0,0:0:0:0:
204,170,34351,1,0,0:0:0:0:
204,170,34521,1,0,0:0:0:0:
204,170,34692,2,0,P|146:139|136:141,1,68.3999991650391
214,254,35203,2,0,P|312:241|359:288,1,135
135,288,36567,6,0,P|110:215|110:213,2,68.3999991650391
385,237,37419,1,0,0:0:0:0:
360,52,37590,1,0,0:0:0:0:
198,181,37760,1,0,0:0:0:0:
198,181,37930,2,4,P|119:233|125:243,1,135
121,264,38953,5,0,0:0:0:0:
274,79,39124,1,0,0:0:0:0:
284,291,39294,1,0,0:0:0:0:
174,77,39465,1,0,0:0:0:0:
214,303,39635,1,0,0:0:0:0:
121,264,39805,5,0,0:0:0:0:
274,79,39976,1,0,0:0:0:0:
284,291,40146,1,0,0:0:0:0:
174,77,40317,1,0,0:0:0:0:
214,303,40487,1,0,0:0:0:0:
102,169,40658,2,0,P|65:102|66:96,2,85.4999989562988
130,327,41680,2,0,P|61:192|76:152,1,205.199997495117
341,157,42874,1,0,0:0:0:0:
258,338,43044,5,0,0:0:0:0:
176,169,43215,1,0,0:0:0:0:
328,208,43385,2,0,P|223:91|179:77,1,180
407,292,44578,2,0,L|355:245,1,68.3999991650391
163,144,45090,5,0,0:0:0:0:
451,104,45430,1,0,0:0:0:0:
314,270,45771,1,0,0:0:0:0:
254,66,46112,1,0,0:0:0:0:
468,192,46453,1,0,0:0:0:0:
326,205,46624,1,0,0:0:0:0:
306,234,46794,1,0,0:0:0:0:
282,259,46965,1,0,0:0:0:0:
253,279,47135,5,0,0:0:0:0:
221,294,47305,1,0,0:0:0:0:
188,303,47476,1,0,0:0:0:0:
153,305,47646,1,0,0:0:0:0:
118,302,47817,1,0,0:0:0:0:
84,292,47987,1,0,0:0:0:0:
51,215,48158,5,0,0:0:0:0:
167,38,48328,1,0,0:0:0:0:
394,206,48499,1,0,0:0:0:0:
180,284,48669,1,0,0:0:0:0:
180,284,48840,2,0,P|100:353|83:346,1,135
335,174,49862,1,0,0:0:0:0:
224,143,50033,5,0,0:0:0:0:
238,268,50203,1,0,0:0:0:0:
428,168,50374,1,0,0:0:0:0:
141,103,50544,1,0,0:0:0:0:
277,329,50715,1,0,0:0:0:0:
199,209,50885,2,0,P|244:113|268:100,1,136.799998330078
323,241,51822,1,0,0:0:0:0:
445,303,52163,1,0,0:0:0:0:
185,183,52419,1,0,0:0:0:0:
281,222,52590,2,0,P|330:224|381:196,1,90
397,182,53612,5,0,0:0:0:0:
208,35,53783,1,0,0:0:0:0:
211,278,53953,1,0,0:0:0:0:
397,182,54124,1,0,0:0:0:0:
319,219,54294,2,0,P|187:167|163:136,1,170.999997912598
428,82,55317,5,0,0:0:0:0:
91,174,55487,1,0,0:0:0:0:
355,296,55658,1,0,0:0:0:0:
229,40,55828,1,0,0:0:0:0:
142,291,55999,1,0,0:0:0:0:
408,217,56169,1,0,0:0:0:0:
416,81,56340,1,0,0:0:0:0:
228,234,56510,1,0,0:0:0:0:
140,54,56680,1,0,0:0:0:0:
316,292,56851,1,0,0:0:0:0:
107,297,57021,6,0,P|111:187|171:139,1,188.099997703857
278,302,58385,2,0,L|304:209,1,85.4999989562988
227,186,59067,2,0,L|241:111,1,68.3999991650391
353,96,59663,1,0,0:0:0:0:
353,96,59749,1,0,0:0:0:0:
353,96,59834,1,0,0:0:0:0:
353,96,59919,1,0,0:0:0:0:
353,96,60004,1,0,0:0:0:0:
413,235,60771,5,0,0:0:0:0:
166,67,60942,1,0,0:0:0:0:
436,117,61112,1,0,0:0:0:0:
208,231,61283,1,0,0:0:0:0:
256,128,61453,1,0,0:0:0:0:
332,304,61624,1,0,0:0:0:0:
332,304,61794,1,0,0:0:0:0:
96,256,61965,2,0,L|128:192,1,68.3999991650391
256,192,62476,2,0,L|320:96,1,102.599998747559
204,227,63499,1,0,0:0:0:0:
165,255,63840,5,0,0:0:0:0:
305,52,64010,1,0,0:0:0:0:
105,58,64180,1,0,0:0:0:0:
353,187,64351,1,0,0:0:0:0:
284,312,64692,5,0,0:0:0:0:
107,85,64862,1,0,0:0:0:0:
408,64,65033,1,0,0:0:0:0:
267,214,65203,2,0,P|172:166|173:160,1,135
102,255,66226,5,0,0:0:0:0:
223,87,66396,1,0,0:0:0:0:
359,276,66567,1,0,0:0:0:0:
94,253,66737,1,0,0:0:0:0:
246,263,66908,2,0,P|228:222|218:222,2,45
296,85,67590,5,0,0:0:0:0:
74,192,67760,1,0,0:0:0:0:
350,244,67930,1,0,0:0:0:0:
138,246,68101,2,0,P|200:152|206:152,1,135
331,265,68953,5,0,0:0:0:0:
157,96,69124,1,0,0:0:0:0:
142,308,69294,1,0,0:0:0:0:
323,115,69465,5,0,0:0:0:0:
243,302,69635,1,0,0:0:0:0:
65,77,69805,1,0,0:0:0:0:
272,287,69976,1,0,0:0:0:0:
407,65,70146,1,0,0:0:0:0:
112,240,70317,1,0,0:0:0:0:
312,152,70487,1,0,0:0:0:0:
295,359,89749,6,0,P|77:259|434:126,1,900
42,241,92476,2,0,P|126:77|290:42,1,360
384,96,93499,1,0,0:0:0:0:
474,144,93840,2,0,P|390:307|226:343,1,360
128,320,94862,1,0,0:0:0:0:
42,241,95203,2,0,P|126:77|290:42,1,360
384,96,96226,1,0,0:0:0:0:
474,144,96567,6,0,P|390:307|226:343,1,360
128,320,97590,1,0,0:0:0:0:
42,241,97930,2,0,P|126:77|290:42,1,360
384,96,98953,1,0,0:0:0:0:
474,144,99294,2,0,P|390:307|226:343,1,360
128,320,100317,1,0,0:0:0:0:
42,241,100658,2,0,P|126:77|290:42,1,360
416,160,101680,1,0,0:0:0:0:
327,75,102021,6,0,P|243:77|211:88,1,113.75
336,257,102447,1,0,0:0:0:0:
336,257,102703,1,0,0:0:0:0:
256,192,103385,1,0,0:0:0:0:
256,192,103555,12,0,105430,0:0:0:0:
160,352,105601,5,0,0:0:0:0:
96,64,105771,1,0,0:0:0:0:
384,64,105942,1,0,0:0:0:0:
384,320,106112,2,0,P|186:295|55:45,2,495
337,258,108328,1,0,0:0:0:0:
213,27,108499,5,0,0:0:0:0:
79,260,108669,1,0,0:0:0:0:
404,56,108840,2,0,P|352:223|78:333,1,450
414,124,110544,1,0,0:0:0:0:
309,290,110715,1,0,0:0:0:0:
92,257,110885,6,0,P|87:85|164:26,1,270
422,273,111567,1,0,0:0:0:0:
266,76,111737,5,0,0:0:0:0:
75,302,111908,1,0,0:0:0:0:
369,148,112078,5,0,0:0:0:0:
64,45,112249,1,0,0:0:0:0:
189,334,112419,5,0,0:0:0:0:
173,75,112590,1,0,0:0:0:0:
84,256,112760,5,0,0:0:0:0:
451,65,112930,1,0,0:0:0:0:
64,192,113101,1,0,0:0:0:0:
448,128,113271,1,0,0:0:0:0:
308,316,113442,2,0,P|290:153|39:59,1,450
272,201,115658,5,0,0:0:0:0:
272,201,115743,1,0,0:0:0:0:
272,201,115828,1,0,0:0:0:0:
272,201,115914,1,0,0:0:0:0:
272,201,115999,1,0,0:0:0:0:
272,201,116084,1,0,0:0:0:0:
272,201,116169,1,0,0:0:0:0:
272,201,116255,1,0,0:0:0:0:
272,201,116340,1,0,0:0:0:0:
96,288,116510,5,0,0:0:0:0:
192,160,116680,1,0,0:0:0:0:
396,301,116851,1,0,0:0:0:0:
396,301,117021,2,0,P|362:177|139:78,2,360
209,246,118726,2,0,L|183:191,2,45
384,64,119749,5,0,0:0:0:0:
64,192,119919,1,0,0:0:0:0:
320,320,120090,1,0,0:0:0:0:
96,64,120260,1,0,0:0:0:0:
448,256,120430,1,0,0:0:0:0:
64,96,120601,1,0,0:0:0:0:
416,160,120771,1,0,0:0:0:0:
96,288,120942,1,0,0:0:0:0:
320,64,121112,1,0,0:0:0:0:
224,320,121283,1,0,0:0:0:0:
92,258,121453,2,0,P|169:106|397:59,1,405
352,160,122476,5,0,0:0:0:0:
160,224,122646,1,0,0:0:0:0:
416,256,122817,5,0,0:0:0:0:
96,128,122987,1,0,0:0:0:0:
352,288,123158,5,0,0:0:0:0:
160,96,123328,1,0,0:0:0:0:
416,128,123499,5,0,0:0:0:0:
96,256,123669,1,0,0:0:0:0:
384,64,123840,5,0,0:0:0:0:
128,320,124010,1,0,0:0:0:0:
224,64,124180,1,0,0:0:0:0:
331,248,124351,1,0,0:0:0:0:
128,192,124521,1,0,0:0:0:0:
352,96,124692,1,0,0:0:0:0:
128,288,124862,1,0,0:0:0:0:
256,64,125033,1,0,0:0:0:0:
192,320,125203,1,0,0:0:0:0:
320,96,125374,1,0,0:0:0:0:
384,320,125544,1,0,0:0:0:0:
64,96,125715,1,0,0:0:0:0:
416,224,125885,1,0,0:0:0:0:
32,192,126055,1,0,0:0:0:0:
280,309,126226,1,0,0:0:0:0:
128,192,126396,1,0,0:0:0:0:
209,74,126567,5,0,0:0:0:0:
209,80,126652,1,0,0:0:0:0:
209,87,126737,1,0,0:0:0:0:
209,94,126822,1,0,0:0:0:0:
209,101,126907,1,0,0:0:0:0:
209,107,126993,1,0,0:0:0:0:
209,114,127078,1,0,0:0:0:0:
209,121,127163,1,0,0:0:0:0:
209,128,127248,1,0,0:0:0:0:
209,134,127334,1,0,0:0:0:0:
209,141,127419,1,0,0:0:0:0:
209,148,127504,1,0,0:0:0:0:
209,155,127589,1,0,0:0:0:0:
209,161,127674,1,0,0:0:0:0:
209,168,127760,1,0,0:0:0:0:
209,175,127845,1,0,0:0:0:0:
209,182,127930,1,0,0:0:0:0:
208,209,128016,5,0,0:0:0:0:
163,216,128101,1,0,0:0:0:0:
121,198,128186,1,0,0:0:0:0:
93,162,128271,1,0,0:0:0:0:
87,118,128356,1,0,0:0:0:0:
103,74,128442,1,2,0:1:0:0:
145,55,128527,1,0,0:0:0:0:
190,58,128612,1,0,0:0:0:0:
226,87,128697,1,0,0:0:0:0:
264,113,128783,1,2,0:0:0:0:
309,115,128868,1,0,0:0:0:0:
348,92,128953,5,8,0:1:0:0:
330,135,129038,1,0,0:0:0:0:
330,181,129124,1,0,0:0:0:0:
349,222,129209,1,0,0:0:0:0:
360,267,129294,1,2,0:0:0:0:
345,309,129379,1,0,0:0:0:0:
310,340,129464,1,0,0:0:0:0:
265,348,129550,1,0,0:0:0:0:
223,331,129635,1,2,0:0:0:0:
195,294,129720,1,0,0:0:0:0:
191,248,129805,1,0,0:0:0:0:
210,208,129891,1,0,0:0:0:0:
246,194,129976,1,2,0:0:0:0:
284,207,130061,1,0,0:0:0:0:
328,209,130146,5,0,0:0:0:0:
368,190,130231,1,0,0:0:0:0:
395,155,130317,1,0,0:0:0:0:
399,113,130402,1,0,0:0:0:0:
378,74,130487,1,6,0:1:0:0:
79,307,130658,5,0,0:0:0:0:
286,47,130828,1,0,0:0:0:0:
358,309,130999,5,0,0:0:0:0:
40,123,131169,1,0,0:0:0:0:
480,135,131340,5,0,0:0:0:0:
120,312,131510,1,0,0:0:0:0:
174,44,131680,5,0,0:0:0:0:
366,325,131851,1,0,0:0:0:0:
118,196,132021,5,0,0:0:0:0:
397,63,132192,1,0,0:0:0:0:
193,55,132362,5,0,0:0:0:0:
246,296,132533,1,0,0:0:0:0:
347,78,132703,5,0,0:0:0:0:
301,326,132874,1,0,0:0:0:0:
129,138,133044,1,0,0:0:0:0:
405,134,133215,2,0,P|258:230|229:273,1,210
35,109,134578,1,0,0:0:0:0:
204,258,134749,1,0,0:0:0:0:
174,86,134919,5,0,0:0:0:0:
120,317,135090,1,0,0:0:0:0:
345,144,135260,2,0,P|219:117|196:128,1,140
92,139,136112,5,0,0:0:0:0:
329,296,136283,1,0,0:0:0:0:
323,80,136453,1,0,0:0:0:0:
96,258,136624,1,0,0:0:0:0:
292,181,136794,1,0,0:0:0:0:
96,258,136965,1,0,0:0:0:0:
174,24,137135,5,0,0:0:0:0:
410,78,137305,2,0,P|348:147|311:158,1,105
106,314,138328,5,0,0:0:0:0:
385,290,138499,1,0,0:0:0:0:
175,109,138669,1,0,0:0:0:0:
175,109,138840,2,0,P|65:142|60:153,1,140
160,272,139862,2,0,P|244:135|364:83,4,281.25
365,259,141737,5,0,0:0:0:0:
79,182,141908,1,0,0:0:0:0:
441,138,142078,1,0,0:0:0:0:
185,21,142249,1,0,0:0:0:0:
164,300,142419,1,0,0:0:0:0:
328,102,142590,2,0,P|196:139|68:315,1,360
372,280,143612,1,0,0:0:0:0:
123,142,143953,1,0,0:0:0:0:
215,109,144294,6,0,P|123:142|101:208,1,140
136,234,144976,2,0,P|178:180|246:169,1,140
264,238,145658,2,0,P|193:257|186:274,1,96.25
246,304,145999,2,0,L|282:310,18,35
407,27,147362,1,0,0:0:0:0:
395,59,147533,1,0,0:0:0:0:
379,91,147703,5,0,0:0:0:0:
359,119,147874,1,0,0:0:0:0:
335,145,148044,1,0,0:0:0:0:
308,167,148215,1,0,0:0:0:0:
278,186,148385,1,0,0:0:0:0:
246,200,148555,1,0,0:0:0:0:
213,210,148726,1,0,0:0:0:0:
178,215,148896,1,0,0:0:0:0:
147,217,149067,1,0,0:0:0:0:
39,261,149237,5,0,0:0:0:0:
195,64,149408,1,0,0:0:0:0:
316,285,149578,1,0,0:0:0:0:
156,248,149749,2,0,P|192:147|306:90,1,225
381,180,150771,1,0,0:0:0:0:
78,209,150942,1,0,0:0:0:0:
313,25,151112,5,0,0:0:0:0:
120,302,151283,1,0,0:0:0:0:
473,201,151453,1,0,0:0:0:0:
38,176,151624,1,0,0:0:0:0:
431,337,151794,1,0,0:0:0:0:
164,41,151965,1,0,0:0:0:0:
194,348,152135,1,0,0:0:0:0:
420,160,152305,1,0,0:0:0:0:
105,289,152476,2,0,P|145:163|253:85,1,270.000010299683
68,293,153328,5,0,0:0:0:0:
345,30,153499,1,0,0:0:0:0:
322,352,153669,1,0,0:0:0:0:
71,51,153840,1,0,0:0:0:0:
451,191,154010,1,0,0:0:0:0:
169,260,154180,1,0,0:0:0:0:
347,66,154351,1,0,0:0:0:0:
394,342,154521,5,0,0:0:0:0:
49,149,154692,1,0,0:0:0:0:
425,123,154862,1,0,0:0:0:0:
204,312,155033,1,0,0:0:0:0:
204,312,155203,2,0,P|339:263|154:63,1,540.000020599366
248,274,156908,2,0,P|294:178|322:181,1,140
51,283,157419,5,0,0:0:0:0:
323,83,157590,1,0,0:0:0:0:
169,327,157760,1,0,0:0:0:0:
97,139,157930,2,0,P|383:215|422:330,1,438.750016736985
225,225,159209,5,0,0:0:0:0:
291,159,159379,1,0,0:0:0:0:
175,271,159550,1,0,0:0:0:0:
340,111,159720,1,0,0:0:0:0:
129,322,159891,1,0,0:0:0:0:
378,57,160061,1,0,0:0:0:0:
414,320,160232,1,0,0:0:0:0:
338,242,160402,2,0,P|300:212|254:228,1,101.250003862381
96,253,160828,5,0,0:0:0:0:
270,58,160999,1,0,0:0:0:0:
243,304,161169,1,0,0:0:0:0:
270,58,161340,1,0,0:0:0:0:
409,304,161510,1,0,0:0:0:0:
270,58,161680,1,0,0:0:0:0:
88,255,161851,2,0,P|226:176|426:113,1,337.500012874604
419,220,162874,5,0,0:0:0:0:
205,76,163044,1,0,0:0:0:0:
238,305,163215,1,0,0:0:0:0:
122,297,163385,2,0,P|201:174|471:73,1,438.750016736985
95,311,164749,5,0,0:0:0:0:
176,105,164919,1,0,0:0:0:0:
234,295,165090,1,0,0:0:0:0:
176,105,165260,1,0,0:0:0:0:
356,222,165430,1,0,0:0:0:0:
176,105,165601,1,0,0:0:0:0:
438,111,165771,1,0,0:0:0:0:
353,73,166112,2,0,P|209:143|132:247,1,270.000010299683
392,162,167135,5,0,0:0:0:0:
81,64,167305,1,0,0:0:0:0:
162,329,167476,1,0,0:0:0:0:
392,162,167646,1,0,0:0:0:0:
403,338,167817,5,0,0:0:0:0:
69,182,167987,1,0,0:0:0:0:
353,45,168158,1,0,0:0:0:0:
403,338,168328,5,0,0:0:0:0:
45,58,168499,1,0,0:0:0:0:
236,283,168669,1,0,0:0:0:0:
91,306,168840,2,0,P|131:168|361:59,1,405.000015449525
363,161,170118,5,0,0:0:0:0:
160,211,170288,1,0,0:0:0:0:
428,252,170459,1,0,0:0:0:0:
143,131,170629,1,0,0:0:0:0:
202,86,170800,1,0,0:0:0:0:
273,64,170970,1,0,0:0:0:0:
347,70,171141,1,0,0:0:0:0:
410,108,171311,1,0,0:0:0:0:
64,320,171567,5,0,0:0:0:0:
454,47,172078,1,0,0:0:0:0:
64,320,172590,1,0,0:0:0:0:
448,64,173101,1,0,0:0:0:0:
448,320,174294,5,0,0:0:0:0:
64,64,174805,1,0,0:0:0:0:
448,320,175317,1,0,0:0:0:0:
64,64,175828,1,0,0:0:0:0:
64,320,177021,5,0,0:0:0:0:
64,64,177533,1,0,0:0:0:0:
448,320,178044,1,0,0:0:0:0:
448,64,178555,1,0,0:0:0:0:
447,319,179663,5,0,0:0:0:0:
448,64,180260,1,0,0:0:0:0:
256,320,180686,1,0,0:0:0:0:
256,64,181197,1,0,0:0:0:0:
64,192,181453,1,0,0:0:0:0:
221,226,181794,1,0,0:0:0:0:
198,181,181879,1,0,0:0:0:0:
217,134,181965,1,0,0:0:0:0:
264,122,182050,1,0,0:0:0:0:
306,147,182135,1,0,0:0:0:0:
314,195,182220,1,0,0:0:0:0:
280,231,182305,1,0,0:0:0:0:
256,192,182476,12,0,184266,0:0:0:0:
425,110,184521,5,0,0:0:0:0:
410,152,184692,1,0,0:0:0:0:
384,188,184862,1,0,0:0:0:0:
349,216,185033,1,0,0:0:0:0:
307,232,185203,1,0,0:0:0:0:
256,192,185459,12,0,189886,0:0:0:0:
