osu file format v14

[General]
AudioFilename: audio.mp3
AudioLeadIn: 0
PreviewTime: 102301
Countdown: 0
SampleSet: Soft
StackLeniency: 0.5
Mode: 0
LetterboxInBreaks: 0
WidescreenStoryboard: 0

[Editor]
Bookmarks: 53455,78070,100762,102685
DistanceSpacing: 0.5
BeatDivisor: 8
GridSize: 4
TimelineZoom: 1

[Metadata]
Title:Enter The East
TitleUnicode:Enter The East
Artist:Ymir Entertainment
ArtistUnicode:Ymir Entertainment
Creator:Piggey
Version:Jinno
Source:Metin2
Tags:eee won ze spota nie ksuj metka metin2 메틴2 MMORPG Game
BeatmapID:1419478
BeatmapSetID:671339

[Difficulty]
HPDrainRate:6
CircleSize:4
OverallDifficulty:9
ApproachRate:9
SliderMultiplier:2.3
SliderTickRate:1

[Events]
//Background and Video events
0,0,"2.jpg",0,0
//Break Periods
2,152116,156508
//Storyboard Layer 0 (Background)
//Storyboard Layer 1 (Fail)
//Storyboard Layer 2 (Pass)
//Storyboard Layer 3 (Foreground)
//Storyboard Sound Samples

[TimingPoints]
50378,769.230769230769,4,2,2,10,1,0
50378,-100,4,2,2,10,0,0
51147,-100,4,2,2,20,0,0
51916,-100,4,2,2,30,0,0
52685,-100,4,2,2,40,0,0
53454,-100,4,2,2,50,0,0
63839,-100,4,2,2,30,0,0
65378,-100,4,2,2,50,0,0
74993,-100,4,2,2,55,0,0
75762,-100,4,2,2,60,0,0
76531,-100,4,2,2,65,0,0
77301,-100,4,2,2,70,0,0
78070,-83.3333333333333,4,2,2,70,0,0
88454,-83.3333333333333,4,2,2,40,0,0
89993,-83.3333333333333,4,2,2,70,0,0
100762,-133.333333333333,4,2,2,40,0,0
100762,-133.333333333333,4,2,2,80,0,0
102685,-80,4,2,0,80,0,0
114608,-74.0740740740741,4,2,0,60,0,0
114993,-66.6666666666667,4,2,0,90,0,0
115762,-80,4,2,0,80,0,0
127301,-71.4285714285714,4,2,0,90,0,0
133070,-71.4285714285714,4,2,0,60,0,0
133454,-71.4285714285714,4,2,0,80,0,0
141147,-71.4285714285714,4,2,0,90,0,0
142685,-71.4285714285714,4,2,0,80,0,0
157108,-133.333333333333,4,2,0,20,0,0
158070,-83.3333333333333,4,2,0,35,0,0
165762,-83.3333333333333,4,2,0,50,0,0
176531,-83.3333333333333,4,2,0,30,0,0
177301,-83.3333333333333,4,2,0,50,0,0
178070,-83.3333333333333,4,2,0,70,0,0
178839,-83.3333333333333,4,2,0,90,0,0
179608,-83.3333333333333,4,2,2,20,0,0
181147,-100,4,2,2,30,0,0
182685,-100,4,2,2,50,0,0
193070,-100,4,2,2,30,0,0
194608,-100,4,2,2,50,0,0
201147,-100,4,2,2,5,0,0

[HitObjects]
256,192,50378,12,0,53070,0:0:0:0:
352,256,53455,6,0,P|288:288|224:288,1,115
160,224,54031,1,0,0:0:0:0:
256,160,54224,2,0,L|320:112,1,57.5,8|0,0:0|0:0,0:0:0:0:
407,249,54608,1,0,0:0:0:0:
365,194,54801,1,0,0:0:0:0:
352,320,54993,5,0,0:0:0:0:
436,182,55185,1,0,0:0:0:0:
446,322,55378,1,0,0:0:0:0:
391,127,55570,1,0,0:0:0:0:
399,321,55762,5,8,0:0:0:0:
400,300,56147,1,0,0:0:0:0:
400,276,56531,6,0,P|356:272|328:280,1,57.5
184,340,56916,2,0,L|240:324,1,57.5
108,180,57301,6,0,L|52:196,1,57.5,8|0,0:0|0:0,0:0:0:0:
232,208,57685,1,0,0:0:0:0:
152,108,57878,1,0,0:0:0:0:
160,296,58070,5,0,0:0:0:0:
192,158,58262,1,0,0:0:0:0:
169,218,58455,1,0,0:0:0:0:
256,148,58647,1,0,2:0:0:0:
64,178,58839,5,8,0:0:0:0:
169,218,59224,1,0,0:0:0:0:
256,148,59608,6,0,P|312:128|376:136,1,115
392,332,60185,1,0,0:0:0:0:
349,255,60378,6,0,L|324:204,1,57.5,8|0,0:0|0:0,0:0:0:0:
256,348,60762,1,0,0:0:0:0:
208,132,61147,6,0,P|148:108|96:124,1,115
232,216,61724,2,0,P|282:176|294:123,1,115
147,194,62301,2,0,P|156:257|196:294,1,115
232,216,62878,1,0,0:0:0:0:
208,132,63070,1,0,0:0:0:0:
188,288,63262,1,0,0:0:0:0:
296,128,63455,5,8,0:0:0:0:
188,288,63839,2,0,P|224:304|256:304,1,57.5
356,256,64224,2,0,P|298:230|247:230,1,115
424,304,64801,1,0,0:0:0:0:
348,338,64993,5,8,0:0:0:0:
280,132,65378,2,0,L|220:160,1,57.5
392,196,65762,2,0,L|452:168,1,57.5
276,60,66147,2,0,P|244:104|230:180,1,115,0|8,0:0|0:0,0:0:0:0:
350,180,66916,1,0,0:0:0:0:
167,218,67108,1,0,0:0:0:0:
371,284,67301,5,0,0:0:0:0:
246,145,67493,1,0,0:3:0:0:
264,244,67685,2,0,L|392:292,1,115,0|8,0:0|0:0,0:0:0:0:
221,283,68455,6,0,L|277:231,1,57.5
313,303,68839,2,0,L|402:219,1,115
456,148,69416,1,0,0:0:0:0:
344,236,69608,1,8,0:0:0:0:
456,148,69993,6,0,P|424:128|388:124,1,57.5
224,92,70378,2,0,P|274:123|330:129,1,115
148,32,71147,2,0,L|148:164,1,115,8|0,0:0|0:0,0:0:0:0:
248,300,71916,2,0,P|308:304|348:256,1,115
416,148,72493,1,0,0:0:0:0:
340,184,72685,6,0,L|284:212,1,57.5,8|0,0:0|0:0,0:0:0:0:
176,268,73070,1,0,0:0:0:0:
304,300,73262,1,0,0:0:0:0:
155,143,73455,5,0,0:0:0:0:
213,384,73647,1,0,0:0:0:0:
304,300,73839,1,0,0:0:0:0:
234,316,74031,1,0,0:0:0:0:
283,369,74224,1,8,0:0:0:0:
325,231,74608,6,0,L|341:171,1,57.5
234,316,74993,1,0,0:0:0:0:
256,192,75185,12,0,77685,0:0:0:0:
160,128,78070,6,0,P|224:96|296:120,1,137.999995788574
232,196,78647,1,0,0:0:0:0:
232,196,78839,2,0,L|168:220,1,68.9999978942872,8|0,0:0|0:0,0:0:0:0:
16,292,79224,1,0,0:0:0:0:
220,284,79416,1,0,0:0:0:0:
92,256,79608,5,0,0:0:0:0:
124,344,79801,1,0,0:0:0:0:
153,185,79993,1,0,0:0:0:0:
31,328,80185,1,0,0:0:0:0:
272,176,80378,5,8,0:0:0:0:
20,44,80762,1,0,0:0:0:0:
148,248,81147,2,0,L|192:308,1,68.9999978942872
222,171,81531,1,0,2:0:0:0:
256,273,81724,1,0,0:0:0:0:
328,192,81916,6,0,L|368:132,1,68.9999978942872,8|0,0:0|0:0,0:0:0:0:
364,296,82301,1,0,0:0:0:0:
294,90,82493,1,0,2:0:0:0:
152,300,82685,5,0,0:0:0:0:
436,262,82878,1,0,0:0:0:0:
213,118,83070,1,0,0:0:0:0:
239,317,83262,1,0,0:0:0:0:
358,230,83455,5,8,0:0:0:0:
152,300,83839,1,0,0:0:0:0:
432,296,84224,2,0,P|452:272|460:216,1,68.9999978942872
358,230,84608,1,0,0:0:0:0:
336,328,84801,1,0,0:0:0:0:
260,260,84993,6,0,L|212:208,1,68.9999978942872,8|0,0:0|0:0,0:0:0:0:
76,260,85378,2,0,L|152:260,1,68.9999978942872
148,20,85762,6,0,P|96:68|80:136,1,137.999995788574
248,232,86339,2,0,P|232:162|181:115,1,137.999995788574
14,212,86916,2,0,P|81:233|148:212,1,137.999995788574
76,132,87493,1,0,0:0:0:0:
144,216,87685,1,0,0:0:0:0:
184,112,87878,1,0,0:0:0:0:
16,212,88070,5,8,0:0:0:0:
272,216,88455,2,0,L|352:220,1,68.9999978942872
344,136,88839,2,0,L|415:99,1,68.9999978942872
288,32,89224,1,0,0:0:0:0:
280,64,89416,1,0,0:0:0:0:
344,0,89608,5,8,0:0:0:0:
100,32,89993,2,0,L|68:104,1,68.9999978942872
24,216,90378,2,0,P|104:240|168:208,1,137.999995788574
92,160,90955,1,0,0:0:0:0:
88,272,91147,2,0,L|84:344,1,68.9999978942872,8|0,0:0|0:0,0:0:0:0:
256,212,91531,1,0,0:0:0:0:
120,96,91724,1,0,0:0:0:0:
174,286,91916,5,0,0:0:0:0:
253,121,92108,1,0,2:0:0:0:
176,170,92301,1,0,0:0:0:0:
354,130,92493,1,0,2:0:0:0:
95,127,92685,5,8,0:0:0:0:
257,213,93070,1,0,0:0:0:0:
252,120,93262,1,0,0:0:0:0:
176,168,93455,2,0,L|112:208,1,68.9999978942872
180,352,93839,1,0,0:0:0:0:
224,280,94031,1,0,0:0:0:0:
56,348,94224,5,8,0:0:0:0:
224,280,94608,2,0,P|280:288|304:304,1,68.9999978942872
180,352,94993,6,0,P|152:308|172:220,1,137.999995788574
332,32,95762,2,0,P|360:76|340:164,1,137.999995788574,8|0,0:0|0:0,0:0:0:0:
195,104,96531,6,0,L|264:104,1,68.9999978942872
168,184,96916,1,0,0:0:0:0:
112,120,97108,1,0,0:0:0:0:
92,296,97301,2,0,L|84:368,1,68.9999978942872,8|0,0:0|0:0,0:0:0:0:
256,232,97685,1,0,0:0:0:0:
160,224,97878,1,0,0:0:0:0:
328,372,98070,6,0,L|324:304,1,68.9999978942872
176,344,98455,2,0,L|244:340,1,68.9999978942872
214,144,98839,5,8,0:0:0:0:
160,224,99224,1,0,0:0:0:0:
312,148,99608,2,0,L|352:84,1,68.9999978942872
203,48,99993,1,0,0:0:0:0:
214,144,100185,1,0,0:0:0:0:
268,28,100378,5,8,0:0:0:0:
96,212,100762,1,0,0:0:0:0:
172,236,100955,1,0,0:0:0:0:
96,252,101147,2,0,P|112:284|128:304,1,43.1250016450883
256,324,101531,2,0,P|240:292|224:272,1,43.1250016450883
180,340,101916,5,8,0:0:0:0:
368,96,102301,1,0,0:0:0:0:
312,272,102493,1,0,0:0:0:0:
137,80,102685,2,0,B|225:80|185:96|280:96,1,143.75
200,192,103262,1,0,0:0:0:0:
84,168,103454,6,0,L|0:156,1,71.875,8|0,0:0|0:0,0:0:0:0:
160,80,103839,1,0,0:0:0:0:
200,192,104031,1,0,0:0:0:0:
72,96,104224,1,0,0:0:0:0:
240,127,104416,1,0,0:0:0:0:
84,168,104608,2,0,L|8:152,1,71.875
316,216,104993,5,8,0:0:0:0:
200,56,105378,1,0,0:0:0:0:
238,305,105570,1,0,0:0:0:0:
272,152,105762,2,0,L|288:80,1,71.875
432,28,106147,2,0,L|420:100,1,71.875
308,12,106531,1,8,0:0:0:0:
316,216,106916,6,0,L|244:204,1,71.875
184,92,107301,1,0,0:0:0:0:
177,167,107493,1,0,0:0:0:0:
123,48,107685,1,0,0:0:0:0:
116,123,107878,1,0,0:0:0:0:
191,17,108070,1,8,0:0:0:0:
108,200,108455,2,0,P|152:224|188:224,1,71.875
252,152,108839,6,0,P|208:128|172:128,1,71.875
276,240,109224,1,0,0:0:0:0:
352,172,109416,1,0,0:0:0:0:
304,316,109608,2,0,L|380:292,1,71.875,8|0,0:0|0:0,0:0:0:0:
276,240,109993,1,0,0:0:0:0:
204,344,110185,1,0,0:0:0:0:
340,320,110378,5,0,0:0:0:0:
236,248,110570,1,0,0:0:0:0:
256,380,110762,2,0,L|300:320,1,71.875
204,344,111147,5,8,0:0:0:0:
124,144,111339,1,0,0:0:0:0:
52,356,111531,5,0,0:0:0:0:
252,276,111723,1,0,0:0:0:0:
252,276,111820,1,0,0:0:0:0:
252,276,111916,2,0,L|328:244,1,71.875
224,176,112301,5,0,0:0:0:0:
128,350,112493,1,0,0:0:0:0:
144,188,112685,2,0,L|136:272,1,71.875,8|0,0:0|0:0,0:0:0:0:
252,272,113070,5,0,0:0:0:0:
336,232,113262,1,0,0:0:0:0:
176,220,113455,5,0,0:0:0:0:
260,180,113647,1,0,0:0:0:0:
244,364,113839,5,0,0:0:0:0:
176,220,114031,1,0,0:0:0:0:
272,288,114224,2,0,L|336:336,1,71.875,8|0,0:0|0:0,0:0:0:0:
408,60,114608,6,0,L|424:148,1,77.6250002961159,2|0,0:0|0:0,0:0:0:0:
238,90,114993,6,0,L|429:55,1,172.500006580353,4|0,0:0|0:0,0:0:0:0:
352,232,115570,1,0,0:0:0:0:
208,212,115762,2,0,L|136:200,1,71.875,8|0,0:0|0:0,0:0:0:0:
224,132,116147,2,0,P|272:156|292:192,1,71.875
352,308,116531,2,0,P|304:284|284:248,1,71.875
364,228,116916,1,0,0:0:0:0:
264,360,117108,1,0,0:0:0:0:
292,138,117301,1,8,0:0:0:0:
168,348,117685,6,0,L|168:272,1,71.875
168,160,118070,1,0,0:0:0:0:
324,196,118262,1,0,0:0:0:0:
324,196,118358,1,0,0:0:0:0:
324,196,118455,2,0,L|376:232,2,47.9166666666667
340,268,118839,5,8,0:0:0:0:
294,283,118967,1,0,0:0:0:0:
247,282,119095,1,0,0:0:0:0:
204,268,119224,2,0,L|156:252,2,47.9166666666667
132,324,119608,2,0,L|84:340,2,47.9166666666667
40,288,119993,6,0,B|64:188|71:69|71:69|89:175|114:206,1,359.375
192,276,121147,1,0,0:0:0:0:
219,299,121243,1,0,0:0:0:0:
252,312,121339,1,0,0:0:0:0:
288,313,121435,1,0,0:0:0:0:
322,302,121531,1,0,0:0:0:0:
272,196,121724,1,0,0:0:0:0:
416,260,121916,6,0,B|364:276|364:276|328:264|328:264|264:292|198:253|198:253|128:332|176:356|176:356|224:316|145:260|80:252,1,503.125,8|0,0:0|0:0,0:0:0:0:
88,128,123454,6,0,L|184:128,1,95.8333333333333,8|0,0:0|0:0,0:0:0:0:
112,172,123839,2,0,L|188:172,1,71.875
196,60,124224,1,0,0:0:0:0:
256,192,124416,12,0,126531,0:0:0:0:
328,212,126724,5,0,0:0:0:0:
164,100,126916,1,0,0:0:0:0:
294,369,127108,1,0,0:0:0:0:
184,195,127301,2,0,B|196:174|196:174|277:137,1,80.499997543335
228,300,127685,1,0,0:0:0:0:
472,213,127878,1,0,0:0:0:0:
232,88,128070,5,8,0:0:0:0:
319,333,128263,1,0,0:0:0:0:
488,136,128455,1,0,0:0:0:0:
276,211,128647,1,0,0:0:0:0:
444,244,128839,6,0,B|439:187|439:187|420:159|420:159|420:126|392:98|392:98|387:60|387:60|345:13,1,241.499992630005
184,37,129608,1,8,0:0:0:0:
236,140,129801,2,0,L|281:221,1,80.499997543335
296,252,130089,1,0,0:0:0:0:
259,268,130185,1,0,0:0:0:0:
219,272,130281,1,0,0:0:0:0:
180,264,130378,6,0,B|128:252|88:280|88:280|116:240|116:240|140:224,1,160.99999508667
224,192,130954,1,0,0:0:0:0:
320,116,131147,2,0,L|364:192,1,80.499997543335,8|0,0:0|0:0,0:0:0:0:
296,240,131435,1,0,0:0:0:0:
296,240,131531,2,0,L|296:327,1,80.499997543335
216,336,131916,6,0,B|216:297|198:240|198:240|204:186|236:135|236:135|300:152|360:144|360:144,1,321.99999017334,0|8,0:0|0:0,0:0:0:0:
432,116,132878,1,0,0:0:0:0:
396,288,133070,2,0,L|308:268,1,80.499997543335
112,168,133455,5,0,0:0:0:0:
208,316,133647,1,0,0:0:0:0:
176,76,133839,1,0,0:0:0:0:
152,360,134031,1,0,0:0:0:0:
223,177,134224,1,8,0:0:0:0:
141,289,134416,1,0,0:0:0:0:
224,256,134608,6,0,L|300:220,1,80.499997543335
84,80,134993,2,0,B|72:124|72:124|104:184,1,80.499997543335
224,176,135281,1,0,0:0:0:0:
224,176,135378,2,0,L|212:92,1,80.499997543335
128,192,135762,1,8,0:0:0:0:
240,344,135955,1,0,0:0:0:0:
264,212,136147,1,0,0:0:0:0:
188,268,136340,1,0,0:0:0:0:
320,292,136531,6,0,P|396:252|376:112,1,241.499992630005
320,192,137301,1,8,0:0:0:0:
488,252,137493,1,0,0:0:0:0:
456,77,137685,1,0,0:0:0:0:
404,222,137878,2,0,L|368:300,1,80.499997543335
256,188,138262,1,0,0:0:0:0:
256,188,138455,2,0,L|170:195,1,80.499997543335
96,260,138839,5,8,0:0:0:0:
184,296,139031,1,0,0:0:0:0:
24,308,139224,2,0,L|24:224,1,80.499997543335
176,56,139608,6,0,P|232:84|256:116,1,80.499997543335
216,252,139993,1,0,0:0:0:0:
168,136,140185,1,0,0:0:0:0:
308,164,140378,5,8,0:0:0:0:
134,236,140570,1,0,0:0:0:0:
328,64,140762,1,0,0:0:0:0:
162,316,140955,1,0,0:0:0:0:
109,61,141147,1,0,0:0:0:0:
423,121,141339,1,0,0:0:0:0:
292,218,141531,1,0,0:0:0:0:
272,56,141724,6,0,B|312:92|312:92|320:128|320:128|396:176|364:288,1,241.499992630005
320,336,142493,1,0,0:0:0:0:
236,308,142685,2,0,P|188:292|156:292,1,80.499997543335
80,344,143070,1,0,0:0:0:0:
204,216,143262,1,0,0:0:0:0:
13,271,143455,1,8,0:0:0:0:
13,271,143551,1,0,0:0:0:0:
13,271,143647,2,0,L|104:276,1,80.499997543335
248,276,144031,1,0,0:0:0:0:
132,120,144224,5,0,0:0:0:0:
188,180,144416,1,0,0:0:0:0:
212,102,144608,1,0,0:0:0:0:
108,196,144801,2,0,P|132:236|268:168,1,241.499992630005
132,120,145570,1,0,0:0:0:0:
308,268,145762,5,0,0:0:0:0:
240,160,145954,1,0,0:0:0:0:
240,160,146051,1,0,0:0:0:0:
240,160,146147,1,0,0:0:0:0:
212,348,146339,1,0,0:0:0:0:
320,100,146531,5,0,0:0:0:0:
156,240,146724,1,0,0:0:0:0:
156,240,146820,1,0,0:0:0:0:
156,240,146916,1,0,0:0:0:0:
424,152,147108,1,0,0:0:0:0:
132,120,147301,5,0,0:0:0:0:
296,216,147493,1,0,0:0:0:0:
296,216,147589,1,0,0:0:0:0:
296,216,147685,1,0,0:0:0:0:
271,28,147878,1,0,0:0:0:0:
12,184,148070,6,0,L|92:160,1,80.499997543335,8|0,0:0|0:0,0:0:0:0:
72,204,148358,2,0,L|153:223,1,80.499997543335
113,251,148647,2,0,L|173:308,1,80.499997543335
256,192,149031,12,0,151916,0:0:0:0:
384,84,157108,6,0,L|420:212,1,129.375004935265
288,272,158070,6,0,B|196:272|236:304|156:304,1,137.999995788574
36,240,158839,2,0,B|128:240|88:208|168:208,1,137.999995788574,8|0,0:0|0:0,0:0:0:0:
260,112,159608,2,0,P|300:144|312:228,1,137.999995788574
210,154,160185,2,0,P|260:161|313:228,1,137.999995788574
175,214,160762,6,0,L|323:226,1,137.999995788574
452,240,161339,1,0,0:0:0:0:
380,324,161531,2,0,L|312:344,1,68.9999978942872
148,308,161916,2,0,L|280:268,1,137.999995788574,8|0,0:0|0:0,0:0:0:0:
64,320,162685,6,0,P|80:244|160:224,1,137.999995788574
22,273,163262,2,0,P|73:215|153:237,1,137.999995788574
3,160,163839,2,0,L|137:222,1,137.999995788574
240,272,164416,1,0,0:0:0:0:
133,336,164608,1,0,0:0:0:0:
208,196,164801,1,0,0:0:0:0:
133,336,164993,5,8,0:0:0:0:
289,206,165378,2,0,L|217:226,1,68.9999978942872
408,308,165762,2,0,L|480:176,1,137.999995788574
292,264,166339,2,0,L|370:392,1,137.999995788574,0|0,0:3|0:3,0:3:0:0:
388,185,166916,2,0,L|238:188,1,137.999995788574,0|0,0:3|0:3,0:3:0:0:
156,192,167493,1,0,0:0:0:0:
284,132,167685,1,0,0:0:0:0:
74,114,167878,1,0,0:0:0:0:
288,152,168070,6,0,L|308:236,1,68.9999978942872,8|0,0:0|0:0,0:0:0:0:
216,320,168455,1,0,0:0:0:0:
184,228,168647,1,0,0:0:0:0:
151,345,168839,2,0,L|243:309,1,68.9999978942872
64,256,169224,1,0,0:0:0:0:
80,376,169416,1,0,0:0:0:0:
184,228,169608,5,8,0:0:0:0:
332,320,169993,1,0,0:0:0:0:
348,277,170121,1,0,0:0:0:0:
353,231,170249,1,0,0:0:0:0:
344,184,170378,6,0,B|318:146|318:108|318:108|344:29|432:38|419:165|318:108|318:108|243:83|189:130,1,413.999987365723
292,303,171916,2,0,P|379:356|324:193,1,413.999987365723
372,268,173455,1,0,0:0:0:0:
240,108,174224,6,0,P|176:132|128:192,1,137.999995788574
348,324,174993,2,0,L|408:124,2,206.999993682861
256,192,176531,12,0,179608,0:0:0:0:
184,260,180378,5,8,0:0:0:0:
352,136,181147,2,0,P|384:164|396:200,1,57.5
316,204,181531,2,0,P|275:217|238:210,1,57.5
280,136,181916,1,8,0:0:0:0:
448,332,182301,5,0,0:0:0:0:
336,340,182685,2,0,L|220:344,1,115
132,244,183262,1,0,0:0:0:0:
140,344,183455,1,8,0:0:0:0:
215,188,183647,1,0,0:0:0:0:
49,300,183839,5,0,0:0:0:0:
326,180,184031,1,0,0:0:0:0:
40,192,184224,2,0,L|104:228,1,57.5
120,56,184608,2,0,L|56:20,1,57.5
184,276,184993,1,8,0:0:0:0:
260,96,185378,2,0,P|200:100|164:128,1,86.25
144,152,185762,6,0,L|216:180,1,57.5
264,308,186147,1,0,0:0:0:0:
196,272,186339,1,0,0:0:0:0:
328,264,186531,6,0,L|396:272,1,57.5,8|0,0:0|0:0,0:0:0:0:
232,104,186916,1,0,0:0:0:0:
264,368,187108,1,0,0:0:0:0:
480,208,187301,2,0,L|420:232,1,57.5
320,112,187685,1,0,0:0:0:0:
372,172,187878,1,0,0:0:0:0:
240,252,188070,6,0,L|184:232,1,57.5
104,96,188455,2,0,L|160:116,1,57.5
56,296,188839,6,0,L|0:276,1,57.5
136,240,189224,1,0,0:0:0:0:
212,264,189416,1,0,0:0:0:0:
120,164,189608,2,0,L|56:180,1,57.5
256,192,189993,2,0,L|320:176,1,57.5
154,91,190378,6,0,P|102:131|138:171,1,115
240,88,190955,2,0,P|231:22|178:34,1,115
199,163,191531,2,0,P|259:188|276:136,1,115
192,16,192108,1,0,0:0:0:0:
124,168,192301,1,0,0:0:0:0:
240,88,192493,1,0,0:0:0:0:
152,88,192685,2,0,L|80:88,1,57.5
272,134,193070,6,0,P|240:87|218:72,1,57.5
236,232,193455,2,0,P|320:225|356:208,1,115
400,152,194031,1,0,0:0:0:0:
272,136,194224,2,0,L|216:128,1,57.5,8|0,0:0|0:0,0:0:0:0:
52,232,194608,6,0,P|120:216|144:188,1,86.25
108,176,194993,6,0,L|112:296,1,115
208,332,195570,1,0,0:0:0:0:
292,216,195762,2,0,L|290:276,1,57.5,8|0,0:0|0:0,0:0:0:0:
376,104,196147,1,0,0:0:0:0:
368,312,196339,1,0,0:0:0:0:
376,104,196531,5,0,0:0:0:0:
312,252,196724,1,0,0:0:0:0:
403,185,196916,1,0,0:0:0:0:
253,208,197108,1,0,0:0:0:0:
368,312,197301,6,0,L|408:360,1,57.5,8|0,0:0|0:0,0:0:0:0:
336,120,197685,1,0,0:0:0:0:
280,320,197878,1,0,0:0:0:0:
429,175,198070,5,0,0:0:0:0:
256,192,198262,12,0,201147,0:0:0:0:
