osu file format v14

[General]
AudioFilename: audio.mp3
AudioLeadIn: 0
PreviewTime: 74377
Countdown: 0
SampleSet: Soft
StackLeniency: 0.8
Mode: 0
LetterboxInBreaks: 0
WidescreenStoryboard: 1

[Editor]
Bookmarks: 252392
DistanceSpacing: 1
BeatDivisor: 4
GridSize: 32
TimelineZoom: 2.100001

[Metadata]
Title:started
TitleUnicode:started
Artist:Ym1024 feat. lamie*
ArtistUnicode:Ym1024 feat. lamie*
Creator:timemon
Version:Insane
Source:BMS
Tags:lamie* Ym1024 Aliesrite*
BeatmapID:1292543
BeatmapSetID:606307

[Difficulty]
HPDrainRate:6
CircleSize:4
OverallDifficulty:8.2
ApproachRate:8
SliderMultiplier:1.65
SliderTickRate:1

[Events]
//Background and Video events
0,0,"bg.jpg",0,0
//Break Periods
2,165239,178407
2,221710,224289
//Storyboard Layer 0 (Background)
//Storyboard Layer 1 (Fail)
//Storyboard Layer 2 (Pass)
//Storyboard Layer 3 (Foreground)
//Storyboard Sound Samples

[TimingPoints]
922,441.176470588235,4,2,1,60,1,0
11510,-133.333333333333,4,2,1,60,0,0
15039,-100,4,2,1,60,0,0
30921,-133.333333333333,4,2,1,60,0,0
34230,-133.333333333333,4,2,4,60,0,0
34451,-133.333333333333,4,2,1,60,0,0
36657,-133.333333333333,4,2,1,60,0,0
37319,-133.333333333333,4,2,1,60,0,0
45039,-100,4,2,1,60,0,0
48348,-100,4,2,4,60,0,0
48569,-100,4,2,1,60,0,0
55627,-133.333333333333,4,2,1,60,0,0
59157,-200,4,2,1,60,0,0
66216,-133.333333333333,4,2,1,50,0,0
75039,-100,4,2,3,70,0,1
75480,-100,4,2,2,70,0,1
85627,-100,4,2,1,60,0,0
87392,-100,4,2,2,60,0,0
87502,-100,4,2,3,60,0,0
89157,-100,4,2,2,70,0,1
99745,-100,4,2,1,60,0,0
103274,-133.333333333333,4,2,1,60,0,0
106583,-133.333333333333,4,2,4,60,0,0
106804,-133.333333333333,4,2,1,60,0,0
109010,-133.333333333333,4,2,5,60,0,0
109230,-133.333333333333,4,2,6,60,0,0
109671,-133.333333333333,4,2,1,60,0,0
110333,-100,4,2,1,60,0,0
113863,-133.333333333333,4,2,1,60,0,0
116730,-100,4,2,1,40,0,0
116951,-100,4,2,1,60,0,0
130848,-100,4,2,1,40,0,0
131069,-100,4,2,1,60,0,0
141436,-100,4,2,1,40,0,0
141657,-100,4,2,1,60,0,0
145627,-100,4,2,1,60,0,0
165039,-200,4,2,1,60,0,0
179157,-200,4,2,5,60,0,0
180921,-166.666666666667,4,2,6,60,0,0
182686,-133.333333333333,4,2,5,60,0,0
186216,-133.333333333333,4,2,1,60,0,0
189745,-133.333333333333,4,2,1,60,0,0
193274,-200,4,2,1,35,0,0
193716,-100,4,2,3,70,0,1
193936,-100,4,2,2,70,0,1
203863,-100,4,2,2,60,0,0
205627,-100,4,2,2,60,0,0
205738,-100,4,2,3,60,0,0
207392,-100,4,2,2,70,0,1
217980,-100,4,2,1,60,0,0
225039,-133.333333333333,4,2,1,60,0,0
228569,-100,4,2,1,60,0,0
242686,-133.333333333333,4,2,1,60,0,0
243127,-100,4,2,1,60,0,0
254377,-100,4,2,1,40,0,0
254598,-100,4,2,1,60,0,0

[HitObjects]
208,188,11510,5,4,0:0:0:0:
187,165,11620,1,0,0:0:0:0:
178,135,11730,1,0,0:0:0:0:
184,105,11840,1,0,0:0:0:0:
202,81,11951,1,0,0:0:0:0:
230,67,12061,1,0,0:0:0:0:
260,67,12171,1,0,0:0:0:0:
287,83,12281,1,0,0:0:0:0:
314,99,12392,1,0,0:0:0:0:
341,112,12502,1,0,0:0:0:0:
372,112,12612,1,0,0:0:0:0:
399,98,12722,1,0,0:0:0:0:
422,83,12833,6,0,L|462:76,1,30.937501180172,4|0,0:0|0:0,0:0:0:0:
294,193,13054,1,4,0:0:0:0:
266,207,13164,1,0,0:0:0:0:
236,210,13274,1,0,0:0:0:0:
206,202,13384,1,0,0:0:0:0:
182,183,13495,1,0,0:0:0:0:
167,157,13605,1,0,0:0:0:0:
157,132,13716,6,0,L|133:144,4,20.6250007867813
53,216,14157,6,0,L|71:207,4,20.6250007867813
145,269,14598,6,0,L|126:277,4,20.6250007867813
235,249,15039,6,0,P|278:262|312:251,1,82.5,4|0,0:0|0:0,0:0:0:0:
390,189,15480,1,8,0:0:0:0:
304,138,15701,2,0,B|260:123|260:123|217:137,1,82.5,0|2,0:0|0:0,0:0:0:0:
147,193,16142,1,0,0:0:0:0:
73,228,16363,2,0,P|61:188|74:150,1,82.5,8|0,0:0|0:0,0:0:0:0:
152,89,16804,6,0,L|286:86,1,123.75,2|0,0:0|0:0,0:0:0:0:
306,88,17245,1,8,0:0:0:0:
377,156,17466,2,0,B|388:190|388:190|373:234,1,82.5,0|2,0:0|0:0,0:0:0:0:
286,185,17907,2,0,B|242:170|242:170|199:184,1,82.5,0|8,0:0|0:0,0:0:0:0:
178,195,18238,1,0,0:0:0:0:
178,195,18348,1,0,0:0:0:0:
289,335,18569,6,0,P|332:348|366:337,1,82.5,2|0,0:0|0:0,0:0:0:0:
329,265,19010,2,0,P|342:222|331:188,1,82.5,8|0,0:0|0:0,0:0:0:0:
176,224,19451,2,0,L|78:217,1,82.5,2|0,0:0|0:0,0:0:0:0:
253,314,19892,2,0,L|351:321,1,82.5,8|0,0:0|0:0,0:0:0:0:
238,109,20333,6,0,P|199:98|160:108,1,82.5,2|0,0:0|0:0,0:0:0:0:
201,183,20774,1,8,0:0:0:0:
201,183,20885,2,0,L|213:226,1,41.25
289,240,21105,2,0,L|301:283,1,41.25,0|2,0:0|0:0,0:0:0:0:
240,326,21326,1,0,0:0:0:0:
240,326,21436,1,0,0:0:0:0:
67,238,21657,2,0,B|55:203|55:203|70:159,1,82.5,8|0,0:0|0:0,0:0:0:0:
100,88,21988,1,0,0:0:0:0:
100,88,22098,6,0,P|143:101|177:90,1,82.5,4|0,0:0|0:0,0:0:0:0:
265,43,22539,1,8,0:0:0:0:
331,116,22760,2,0,B|342:150|342:150|327:194,1,82.5,0|2,0:0|0:0,0:0:0:0:
261,148,23201,1,0,0:0:0:0:
344,36,23421,2,0,P|382:48|421:36,1,82.5,8|0,0:0|0:0,0:0:0:0:
476,138,23863,6,0,L|469:236,1,82.5,2|0,0:0|0:0,0:0:0:0:
405,295,24304,2,0,B|370:306|370:306|326:291,1,82.5,8|0,0:0|0:0,0:0:0:0:
270,209,24745,1,2,0:0:0:0:
270,209,24966,2,0,B|226:194|226:194|191:205,1,82.5,0|8,0:0|0:0,0:0:0:0:
163,214,25296,1,0,0:0:0:0:
163,214,25407,1,0,0:0:0:0:
253,329,25627,6,0,P|291:341|330:329,1,82.5,2|0,0:0|0:0,0:0:0:0:
424,353,26069,2,0,P|436:314|424:275,1,82.5,8|0,0:0|0:0,0:0:0:0:
363,197,26510,1,2,0:0:0:0:
241,277,26730,1,0,0:0:0:0:
361,343,26951,1,8,0:0:0:0:
326,267,27171,1,0,0:0:0:0:
326,267,27282,1,0,0:0:0:0:
326,267,27392,6,0,P|287:279|246:273,1,82.5,4|0,0:0|0:0,0:0:0:0:
283,202,27833,1,8,0:0:0:0:
283,202,27944,2,0,L|271:159,1,41.25
195,145,28164,2,0,L|183:102,1,41.25,0|2,0:0|0:0,0:0:0:0:
244,59,28385,1,0,0:0:0:0:
244,59,28495,1,0,0:0:0:0:
363,128,28716,1,8,0:0:0:0:
250,195,28936,1,0,0:0:0:0:
285,125,29157,5,4,0:0:0:0:
285,125,29598,5,2,0:0:0:0:
285,125,30039,5,2,0:0:0:0:
285,125,30480,5,2,0:0:0:0:
103,230,30921,6,0,B|161:258|162:188|225:225,1,123.750004720688,4|0,0:0|0:0,0:0:0:0:
304,263,31583,1,0,0:0:0:0:
237,328,31804,1,2,0:0:0:0:
170,261,32024,2,0,P|158:227|169:194,1,61.875002360344,0|2,0:0|0:0,0:0:0:0:
222,130,32466,1,0,0:0:0:0:
222,130,32686,6,0,P|285:150|342:122,1,123.750004720688,2|2,0:0|0:0,0:0:0:0:
278,69,33348,2,0,L|269:3,1,61.875002360344,0|2,0:0|0:0,0:0:0:0:
190,50,33789,2,0,P|159:44|131:56,1,61.875002360344,0|2,0:0|0:0,0:0:0:0:
174,140,34230,1,2,0:0:0:0:
174,140,34341,1,0,0:0:0:0:
174,140,34451,6,0,P|123:151|81:124,1,92.812503540516,2|0,0:0|0:0,0:0:0:0:
140,70,34892,2,0,L|206:61,2,61.875002360344,2|0|2,0:0|0:0|0:0,0:0:0:0:
57,24,35554,1,0,0:0:0:0:
63,116,35774,1,2,0:0:0:0:
145,56,35995,1,0,0:0:0:0:
249,180,36216,2,0,P|220:191|190:186,1,61.875002360344,2|0,0:0|0:0,0:0:0:0:
217,107,36657,5,2,0:0:0:0:
362,45,36877,1,0,0:0:0:0:
362,45,37098,1,2,0:0:0:0:
350,209,37319,1,0,0:0:0:0:
309,123,37539,1,2,0:0:0:0:
274,282,37760,1,2,0:0:0:0:
212,204,37980,6,0,B|149:170|149:238|95:211,1,123.750004720688,2|2,0:0|0:0,0:0:0:0:
23,270,38642,1,0,0:0:0:0:
96,326,38863,1,0,0:0:0:0:
175,278,39083,2,0,P|205:283|233:271,1,61.875002360344,0|2,0:0|0:0,0:0:0:0:
191,197,39524,1,0,0:0:0:0:
306,104,39745,6,0,L|313:235,1,123.750004720688,2|2,0:0|0:0,0:0:0:0:
321,320,40407,1,0,0:0:0:0:
423,282,40627,1,2,0:0:0:0:
454,355,40848,2,0,P|424:363|394:358,1,61.875002360344,0|2,0:0|0:0,0:0:0:0:
423,282,41289,1,0,0:0:0:0:
287,87,41510,6,0,L|294:218,1,123.750004720688,2|2,0:0|0:0,0:0:0:0:
134,309,42171,1,0,0:0:0:0:
134,309,42392,2,0,L|127:185,1,123.750004720688,2|2,0:0|0:0,0:0:0:0:
306,91,43054,1,0,0:0:0:0:
306,91,43274,6,0,L|313:222,1,123.750004720688,2|2,0:0|0:0,0:0:0:0:
268,296,43936,2,0,P|227:306|201:295,1,61.875002360344,0|2,0:0|0:0,0:0:0:0:
277,191,44377,1,2,0:0:0:0:
287,169,44488,1,2,0:0:0:0:
295,149,44598,1,2,0:0:0:0:
207,59,44819,1,2,0:0:0:0:
199,79,44929,1,2,0:0:0:0:
190,101,45039,6,0,P|151:113|112:101,1,82.5,4|0,0:0|0:0,0:0:0:0:
156,32,45370,1,0,0:0:0:0:
156,32,45480,2,0,P|194:19|233:31,1,82.5,8|0,0:0|0:0,0:0:0:0:
310,93,45921,1,2,0:0:0:0:
254,174,46142,1,0,0:0:0:0:
254,174,46252,2,0,L|258:226,1,41.25,0|2,0:0|0:0,0:0:0:0:
170,280,46473,1,0,0:0:0:0:
168,251,46583,1,0,0:0:0:0:
165,222,46694,1,0,0:0:0:0:
163,193,46804,6,0,L|156:102,1,82.5,2|0,0:0|0:0,0:0:0:0:
152,35,47135,1,0,0:0:0:0:
152,35,47245,2,0,P|190:47|229:35,1,82.5,8|0,0:0|0:0,0:0:0:0:
292,111,47686,1,2,0:0:0:0:
210,167,47907,1,0,0:0:0:0:
210,167,48017,2,0,L|158:171,2,41.25,0|2|0,0:0|0:0|0:0,0:0:0:0:
288,232,48348,1,2,0:0:0:0:
288,232,48458,1,0,0:0:0:0:
288,232,48569,6,0,P|352:246|401:201,1,123.75,2|0,0:0|0:0,0:0:0:0:
333,165,49010,2,0,P|294:152|255:165,1,82.5,8|0,0:0|0:0,0:0:0:0:
185,233,49451,1,2,0:0:0:0:
254,302,49671,1,0,0:0:0:0:
254,302,49782,2,0,L|202:306,1,41.25,0|2,0:0|0:0,0:0:0:0:
102,268,50002,1,0,0:0:0:0:
100,239,50113,1,0,0:0:0:0:
97,210,50223,1,0,0:0:0:0:
95,181,50333,6,0,L|88:90,1,82.5,2|0,0:0|0:0,0:0:0:0:
81,26,50664,1,0,0:0:0:0:
81,26,50774,1,8,0:0:0:0:
217,130,50995,1,2,0:0:0:0:
217,130,51436,1,4,0:0:0:0:
90,291,51877,1,2,0:0:0:0:
90,291,51988,1,2,0:0:0:0:
89,291,52098,6,0,P|128:277|167:290,1,82.5,4|0,0:0|0:0,0:0:0:0:
236,325,52429,1,0,0:0:0:0:
236,325,52539,2,0,P|248:286|235:247,1,82.5,8|0,0:0|0:0,0:0:0:0:
141,207,52980,1,2,0:0:0:0:
191,121,53201,1,0,0:0:0:0:
191,121,53311,2,0,L|243:117,1,41.25,0|2,0:0|0:0,0:0:0:0:
343,155,53532,1,0,0:0:0:0:
345,184,53642,1,0,0:0:0:0:
348,213,53752,1,0,0:0:0:0:
350,242,53863,6,0,L|357:333,1,82.5,2|0,0:0|0:0,0:0:0:0:
292,359,54194,1,0,0:0:0:0:
292,359,54304,2,0,P|253:371|214:359,1,82.5,8|0,0:0|0:0,0:0:0:0:
146,294,54745,1,2,0:0:0:0:
273,228,54966,1,0,0:0:0:0:
273,228,55076,1,0,0:0:0:0:
273,228,55186,1,2,0:0:0:0:
223,380,55407,1,2,0:0:0:0:
154,237,55627,6,0,L|147:106,1,123.750004720688,4|8,0:0|0:0,0:0:0:0:
307,15,56289,1,0,0:0:0:0:
307,15,56510,2,0,L|313:138,1,123.750004720688,2|2,0:0|0:0,0:0:0:0:
135,233,57171,1,0,0:0:0:0:
135,233,57282,1,0,0:0:0:0:
135,233,57392,6,0,L|128:102,1,123.750004720688,2|8,0:0|0:0,0:0:0:0:
214,146,58054,2,0,P|245:157|275:149,1,61.875002360344,0|2,0:0|0:0,0:0:0:0:
239,63,58495,2,0,P|208:52|178:60,1,61.875002360344,0|2,0:0|0:0,0:0:0:0:
277,217,59046,1,2,0:0:0:0:
277,217,59157,5,4,0:0:0:0:
362,188,59377,1,0,0:0:0:0:
428,250,59598,1,0,0:0:0:0:
398,336,59819,1,0,0:0:0:0:
320,288,60039,1,0,0:0:0:0:
250,346,60260,2,0,P|199:349|168:326,1,82.5
227,217,60921,5,0,0:0:0:0:
270,137,61142,1,0,0:0:0:0:
205,72,61363,1,0,0:0:0:0:
130,128,61583,2,0,P|82:134|43:119,1,82.5
94,55,62245,2,0,L|94:11,1,41.25
281,88,62686,5,0,0:0:0:0:
199,47,62907,1,0,0:0:0:0:
134,110,63127,1,0,0:0:0:0:
188,182,63348,1,0,0:0:0:0:
266,136,63569,1,0,0:0:0:0:
334,197,63789,2,0,P|387:205|425:185,1,82.5
372,124,64451,5,0,0:0:0:0:
299,70,64671,1,0,0:0:0:0:
232,131,64892,1,0,0:0:0:0:
284,205,65113,2,0,L|285:255,1,41.25
236,323,65554,1,0,0:0:0:0:
165,265,65774,1,0,0:0:0:0:
165,265,66216,6,0,L|162:182,1,61.875002360344,2|0,0:0|0:0,0:0:0:0:
158,110,66657,1,2,0:0:0:0:
235,59,66877,1,0,0:0:0:0:
235,59,66988,1,0,0:0:0:0:
235,59,67098,2,0,P|272:51|305:60,1,61.875002360344,2|0,0:0|0:0,0:0:0:0:
380,91,67539,1,2,0:0:0:0:
335,172,67760,1,0,0:0:0:0:
275,293,67980,6,0,P|203:298|160:260,1,123.750004720688,2|2,0:0|0:0,0:0:0:0:
129,182,68642,2,0,P|98:177|68:185,1,61.875002360344,0|2,0:0|0:0,0:0:0:0:
115,316,69083,2,0,P|119:285|111:255,1,61.875002360344,0|2,0:0|0:0,0:0:0:0:
41,297,69524,1,0,0:0:0:0:
236,315,69745,6,0,L|315:323,1,61.875002360344,2|0,0:0|0:0,0:0:0:0:
389,331,70186,1,2,0:0:0:0:
322,236,70407,1,0,0:0:0:0:
322,236,70517,1,0,0:0:0:0:
322,236,70627,2,0,P|289:226|250:237,1,61.875002360344,2|0,0:0|0:0,0:0:0:0:
189,289,71069,1,2,0:0:0:0:
126,220,71289,1,0,0:0:0:0:
272,120,71510,5,4,0:0:0:0:
326,194,71730,1,0,0:0:0:0:
145,147,71951,5,2,0:0:0:0:
123,56,72171,1,0,0:0:0:0:
250,195,72392,5,2,0:0:0:0:
203,275,72613,1,0,0:0:0:0:
79,156,72833,5,2,0:0:0:0:
152,99,73054,1,0,0:0:0:0:
282,298,73274,5,4,0:0:0:0:
204,349,73495,1,0,0:0:0:0:
125,278,73716,5,0,0:0:0:0:
150,260,73826,1,0,0:0:0:0:
179,251,73936,1,0,0:0:0:0:
210,252,74046,1,0,0:0:0:0:
239,264,74157,1,0,0:0:0:0:
266,278,74267,1,0,0:0:0:0:
293,291,74377,1,0,0:0:0:0:
324,295,74488,1,0,0:0:0:0:
354,289,74598,1,0,0:0:0:0:
380,272,74708,1,0,0:0:0:0:
401,250,74819,1,0,0:0:0:0:
409,220,74929,1,0,0:0:0:0:
406,187,75039,6,0,L|388:96,1,82.5,4|0,0:0|0:0,0:0:0:0:
307,50,75480,1,8,0:0:0:0:
269,141,75701,1,0,0:0:0:0:
269,141,75811,2,0,L|246:194,1,41.25,0|2,0:0|0:0,0:0:0:0:
282,309,76032,2,0,L|298:271,1,41.25
187,341,76252,1,0,0:0:0:0:
187,341,76363,1,8,0:0:0:0:
85,238,76583,1,0,0:0:0:0:
161,136,76804,6,0,P|245:112|288:134,1,123.75,2|0,0:0|0:0,0:0:0:0:
299,142,77245,1,8,0:0:0:0:
230,237,77466,1,0,0:0:0:0:
230,237,77576,2,0,L|173:249,1,41.25,0|2,0:0|0:0,0:0:0:0:
299,142,77796,2,0,L|339:133,1,41.25
210,66,78017,1,0,0:0:0:0:
210,66,78127,2,0,P|170:77|132:64,1,82.5,8|0,0:0|0:0,0:0:0:0:
72,160,78569,6,0,L|81:339,1,165,2|8,0:0|0:0,0:0:0:0:
189,361,79230,1,0,0:0:0:0:
189,361,79341,2,0,L|241:371,1,41.25,0|2,0:0|0:0,0:0:0:0:
336,312,79561,2,0,L|295:304,1,41.25
424,368,79782,1,0,0:0:0:0:
424,368,79892,2,0,L|435:280,1,82.5,8|0,0:0|0:0,0:0:0:0:
381,178,80333,6,0,P|341:189|303:176,1,82.5,2|0,0:0|0:0,0:0:0:0:
232,106,80774,1,8,0:0:0:0:
314,51,80995,1,0,0:0:0:0:
314,51,81105,2,0,L|312:106,1,41.25,0|2,0:0|0:0,0:0:0:0:
401,41,81326,2,0,L|402:0,1,41.25
493,43,81546,1,0,0:0:0:0:
493,43,81657,1,8,0:0:0:0:
413,178,81877,1,0,0:0:0:0:
413,178,81988,1,0,0:0:0:0:
413,178,82098,6,0,P|373:189|335:176,1,82.5,2|0,0:0|0:0,0:0:0:0:
267,104,82539,1,8,0:0:0:0:
188,164,82760,1,0,0:0:0:0:
188,164,82870,2,0,L|137:177,1,41.25,0|2,0:0|0:0,0:0:0:0:
60,112,83091,2,0,L|99:101,1,41.25
180,53,83311,1,0,0:0:0:0:
179,52,83421,2,0,P|217:65|256:53,1,82.5,8|0,0:0|0:0,0:0:0:0:
446,188,83863,6,0,P|387:174|332:200,1,123.75,2|0,0:0|0:0,0:0:0:0:
308,219,84304,1,8,0:0:0:0:
416,288,84524,1,0,0:0:0:0:
416,288,84635,2,0,L|469:292,1,41.25,0|2,0:0|0:0,0:0:0:0:
257,334,84855,2,0,L|215:330,1,41.25
338,346,85076,1,0,0:0:0:0:
338,346,85186,2,0,L|329:250,1,82.5,8|0,0:0|0:0,0:0:0:0:
315,144,85627,6,0,P|275:155|237:142,1,82.5,2|0,0:0|0:0,0:0:0:0:
166,72,86069,1,8,0:0:0:0:
304,24,86289,1,0,0:0:0:0:
299,39,86399,1,0,0:0:0:0:
292,54,86510,2,0,P|330:66|369:55,1,82.5,2|0,0:0|0:0,0:0:0:0:
449,37,86841,1,0,0:0:0:0:
457,51,86951,2,0,L|459:142,1,82.5,8|0,0:0|0:0,0:0:0:0:
381,212,87392,5,2,0:0:0:0:
379,236,87502,1,2,0:0:0:0:
381,260,87613,1,2,0:0:0:0:
487,179,87833,1,8,0:0:0:0:
374,109,88054,1,2,0:0:0:0:
350,101,88164,2,0,L|300:101,1,41.25,2|0,0:0|0:0,0:0:0:0:
230,37,88385,1,2,0:0:0:0:
254,33,88495,1,2,0:0:0:0:
210,180,88716,1,8,0:0:0:0:
75,110,88936,1,2,0:0:0:0:
72,85,89046,1,2,0:0:0:0:
69,60,89157,6,0,L|160:42,1,82.5,4|0,0:0|0:0,0:0:0:0:
230,102,89598,1,8,0:0:0:0:
160,173,89819,1,0,0:0:0:0:
160,173,89929,2,0,L|166:233,1,41.25,0|2,0:0|0:0,0:0:0:0:
80,268,90149,2,0,L|85:309,1,41.25
173,364,90370,1,0,0:0:0:0:
173,364,90480,1,8,0:0:0:0:
314,293,90701,1,0,0:0:0:0:
187,175,90921,6,0,P|127:161|72:186,1,123.75,2|0,0:0|0:0,0:0:0:0:
50,210,91363,1,8,0:0:0:0:
165,311,91583,1,0,0:0:0:0:
165,311,91694,2,0,L|214:313,1,41.25,0|2,0:0|0:0,0:0:0:0:
270,220,91914,2,0,L|221:222,1,41.25
175,138,92135,1,0,0:0:0:0:
175,138,92245,2,0,P|135:149|97:136,1,82.5,8|0,0:0|0:0,0:0:0:0:
344,43,92686,6,0,L|347:211,1,165,2|8,0:0|0:0,0:0:0:0:
444,274,93348,1,0,0:0:0:0:
444,274,93458,2,0,L|449:199,1,41.25,0|2,0:0|0:0,0:0:0:0:
331,307,93679,2,0,L|326:382,1,41.25
241,238,93899,1,0,0:0:0:0:
241,238,94010,2,0,P|201:249|163:236,1,82.5,8|0,0:0|0:0,0:0:0:0:
294,95,94451,6,0,L|381:90,1,82.5,2|0,0:0|0:0,0:0:0:0:
475,81,94892,1,8,0:0:0:0:
404,214,95113,1,0,0:0:0:0:
404,214,95223,2,0,L|392:168,1,41.25,0|2,0:0|0:0,0:0:0:0:
330,295,95444,2,0,L|340:334,1,41.25
239,247,95664,1,0,0:0:0:0:
239,247,95774,1,8,0:0:0:0:
176,337,95995,1,0,0:0:0:0:
96,91,96216,6,0,P|57:78|18:89,1,82.5,2|0,0:0|0:0,0:0:0:0:
79,216,96657,1,8,0:0:0:0:
184,75,96877,1,0,0:0:0:0:
184,75,96988,2,0,L|216:32,1,41.25,0|2,0:0|0:0,0:0:0:0:
236,141,97208,2,0,L|260:174,1,41.25
298,63,97429,1,0,0:0:0:0:
298,63,97539,2,0,L|388:62,1,82.5,8|0,0:0|0:0,0:0:0:0:
236,141,97980,6,0,P|196:152|158:139,1,82.5,2|0,0:0|0:0,0:0:0:0:
209,54,98421,1,8,0:0:0:0:
336,168,98642,1,0,0:0:0:0:
336,168,98752,2,0,L|326:229,1,41.25,0|2,0:0|0:0,0:0:0:0:
426,143,98973,2,0,L|419:102,1,41.25
409,243,99194,1,0,0:0:0:0:
409,243,99304,1,8,0:0:0:0:
219,235,99524,1,2,0:0:0:0:
328,64,99745,5,4,0:0:0:0:
319,66,101069,1,2,0:0:0:0:
361,253,101289,1,2,0:0:0:0:
112,175,101951,5,2,0:0:0:0:
112,175,102392,1,2,0:0:0:0:
112,175,102833,1,2,0:0:0:0:
101,310,103274,6,0,P|166:289|214:315,1,123.750004720688,4|0,0:0|0:0,0:0:0:0:
292,360,103936,2,0,P|326:368|353:360,1,61.875002360344
421,299,104377,2,0,P|445:244|424:187,1,123.750004720688
314,92,105039,6,0,L|176:98,1,123.750004720688
124,163,105701,2,0,P|99:217|120:274,1,123.750004720688
192,333,106363,1,0,0:0:0:0:
245,257,106583,1,2,0:0:0:0:
245,257,106694,1,0,0:0:0:0:
245,257,106804,6,0,P|288:241|334:260,1,92.812503540516
354,278,107245,1,0,0:0:0:0:
428,222,107466,2,0,P|452:167|431:110,1,123.750004720688
359,168,108127,1,0,0:0:0:0:
290,115,108348,2,0,P|266:171|288:228,1,123.750004720688
383,313,109010,5,2,0:0:0:0:
459,247,109230,1,2,0:0:0:0:
459,247,109671,1,4,0:0:0:0:
313,105,110113,1,0,0:0:0:0:
313,105,110223,1,0,0:0:0:0:
313,105,110333,6,0,L|217:110,1,82.5,4|0,0:0|0:0,0:0:0:0:
160,116,110664,1,0,0:0:0:0:
160,116,110774,2,0,P|147:155|160:194,1,82.5,8|0,0:0|0:0,0:0:0:0:
224,268,111216,1,2,0:0:0:0:
306,171,111436,2,0,L|337:126,1,41.25
286,46,111657,2,0,L|262:79,1,41.25,2|0,0:0|0:0,0:0:0:0:
214,152,111877,1,0,0:0:0:0:
214,152,111988,1,0,0:0:0:0:
214,152,112098,6,0,P|175:139|136:152,1,82.5,2|0,0:0|0:0,0:0:0:0:
176,219,112429,1,0,0:0:0:0:
176,219,112539,2,0,L|190:301,1,82.5,8|0,0:0|0:0,0:0:0:0:
280,340,112980,1,2,0:0:0:0:
313,180,113201,2,0,L|323:133,1,41.25
458,277,113421,1,2,0:0:0:0:
347,272,113642,1,2,0:0:0:0:
452,82,113863,6,0,L|459:213,1,123.750004720688,4|8,0:0|0:0,0:0:0:0:
299,304,114524,1,0,0:0:0:0:
299,304,114745,2,0,L|293:181,1,123.750004720688,2|2,0:0|0:0,0:0:0:0:
471,86,115407,1,0,0:0:0:0:
471,86,115517,1,0,0:0:0:0:
471,86,115627,6,0,L|477:168,1,61.875002360344,2|0,0:0|0:0,0:0:0:0:
482,240,116069,1,8,0:0:0:0:
399,198,116289,1,0,0:0:0:0:
378,288,116510,2,0,L|380:370,1,61.875002360344,2|0,0:0|0:0,0:0:0:0:
291,308,116951,1,2,0:0:0:0:
134,257,117282,1,2,0:0:0:0:
134,257,117392,6,0,B|82:171|166:171|126:86,1,165,4|8,0:0|0:0,0:0:0:0:
214,45,118054,1,0,0:0:0:0:
214,45,118274,2,0,L|301:42,1,82.5,2|0,0:0|0:0,0:0:0:0:
449,129,118716,2,0,B|406:139|406:139|366:131,1,82.5,8|0,0:0|0:0,0:0:0:0:
241,221,119157,6,0,P|280:234|319:221,1,82.5,2|0,0:0|0:0,0:0:0:0:
399,164,119598,1,8,0:0:0:0:
365,343,119819,1,0,0:0:0:0:
365,343,119929,1,0,0:0:0:0:
365,343,120039,2,0,P|326:355|287:342,1,82.5,2|0,0:0|0:0,0:0:0:0:
232,289,120370,1,0,0:0:0:0:
232,289,120480,2,0,P|219:250|232:211,1,82.5,8|0,0:0|0:0,0:0:0:0:
348,80,120921,6,0,L|356:207,1,123.75,2|0,0:0|0:0,0:0:0:0:
361,279,121363,2,0,P|322:291|283:278,1,82.5,8|0,0:0|0:0,0:0:0:0:
221,190,121804,2,0,L|213:98,1,82.5,2|0,0:0|0:0,0:0:0:0:
153,36,122245,1,8,0:0:0:0:
89,124,122466,1,0,0:0:0:0:
39,39,122686,6,0,L|128:36,1,82.5,2|0,0:0|0:0,0:0:0:0:
258,134,123127,2,0,B|214:144|214:144|169:137,1,82.5,8|0,0:0|0:0,0:0:0:0:
255,36,123569,2,0,L|344:33,1,82.5,2|0,0:0|0:0,0:0:0:0:
474,131,124010,2,0,B|430:141|430:141|385:134,1,82.5,8|0,0:0|0:0,0:0:0:0:
324,121,124341,1,0,0:0:0:0:
314,120,124451,6,0,P|277:195|303:269,1,165,2|8,0:0|0:0,0:0:0:0:
359,314,125002,1,0,0:0:0:0:
396,330,125113,1,0,0:0:0:0:
436,324,125223,1,0,0:0:0:0:
475,310,125333,2,0,L|486:253,3,55,2|0|0|8,0:0|0:0|0:0|0:0,0:0:0:0:
421,173,125995,1,0,0:0:0:0:
335,266,126216,6,0,L|243:273,1,82.5,2|0,0:0|0:0,0:0:0:0:
178,281,126546,1,0,0:0:0:0:
178,281,126657,2,0,P|165:242|178:203,1,82.5,8|0,0:0|0:0,0:0:0:0:
250,100,127098,2,0,L|342:93,1,82.5,2|0,0:0|0:0,0:0:0:0:
428,259,127539,2,0,L|421:176,1,82.5,8|0,0:0|0:0,0:0:0:0:
303,226,127980,6,0,P|264:213|225:225,1,82.5,2|0,0:0|0:0,0:0:0:0:
140,293,128421,2,0,L|52:305,1,82.5,8|0,0:0|0:0,0:0:0:0:
215,361,128863,2,0,L|296:349,1,82.5,2|0,0:0|0:0,0:0:0:0:
168,187,129304,2,0,L|86:198,1,82.5,8|0,0:0|0:0,0:0:0:0:
262,117,129745,6,0,L|273:198,1,82.5,2|0,0:0|0:0,0:0:0:0:
302,340,130186,1,8,0:0:0:0:
427,229,130407,1,0,0:0:0:0:
264,183,130627,1,2,0:0:0:0:
346,265,130848,1,0,0:0:0:0:
375,156,131069,1,8,0:0:0:0:
137,120,131289,1,2,0:0:0:0:
137,120,131399,1,2,0:0:0:0:
137,120,131510,6,0,L|137:293,1,165,4|8,0:0|0:0,0:0:0:0:
136,316,132061,1,0,0:0:0:0:
220,253,132282,2,0,L|271:253,1,41.25,0|2,0:0|0:0,0:0:0:0:
229,354,132502,1,0,0:0:0:0:
379,326,132723,2,0,L|379:283,1,41.25,0|8,0:0|0:0,0:0:0:0:
383,182,132944,1,0,0:0:0:0:
383,182,133054,1,0,0:0:0:0:
469,105,133274,6,0,P|394:68|320:94,1,165,2|8,0:0|0:0,0:0:0:0:
267,175,133936,1,0,0:0:0:0:
267,175,134157,2,0,L|161:191,1,82.5,2|0,0:0|0:0,0:0:0:0:
82,299,134598,2,0,L|164:287,1,82.5,8|0,0:0|0:0,0:0:0:0:
260,350,135039,6,0,P|298:362|337:351,1,82.5,2|0,0:0|0:0,0:0:0:0:
412,214,135480,2,0,L|417:113,1,82.5,8|0,0:0|0:0,0:0:0:0:
303,196,135921,2,0,L|298:278,1,82.5,2|0,0:0|0:0,0:0:0:0:
293,351,136252,1,0,0:0:0:0:
293,351,136363,2,0,P|254:362|215:349,1,82.5,8|0,0:0|0:0,0:0:0:0:
128,248,136804,6,0,L|134:75,1,165,2|8,0:0|0:0,0:0:0:0:
221,129,137466,1,0,0:0:0:0:
286,55,137686,2,0,P|370:37|435:76,1,165,2|8,0:0|0:0,0:0:0:0:
326,173,138348,1,0,0:0:0:0:
326,173,138458,1,0,0:0:0:0:
326,173,138569,6,0,B|235:196|235:196|152:148,1,165,2|8,0:0|0:0,0:0:0:0:
79,84,139230,1,0,0:0:0:0:
79,84,139341,1,0,0:0:0:0:
79,83,139451,2,0,P|118:73|156:85,1,82.5,2|0,0:0|0:0,0:0:0:0:
228,130,139782,1,0,0:0:0:0:
228,130,139892,2,0,P|240:91|229:52,1,82.5,8|0,0:0|0:0,0:0:0:0:
120,201,140333,6,0,L|108:293,1,82.5,2|0,0:0|0:0,0:0:0:0:
99,355,140664,1,0,0:0:0:0:
99,355,140774,2,0,P|137:367|176:356,1,82.5,8|0,0:0|0:0,0:0:0:0:
255,295,141216,1,2,0:0:0:0:
146,206,141436,1,0,0:0:0:0:
347,110,141657,1,8,0:0:0:0:
255,295,141877,1,0,0:0:0:0:
255,295,141988,1,0,0:0:0:0:
255,295,142098,6,0,P|292:220|266:146,1,165,4|8,0:0|0:0,0:0:0:0:
182,69,142760,1,0,0:0:0:0:
182,69,142870,1,0,0:0:0:0:
182,69,142980,2,0,P|220:81|259:70,1,82.5,2|0,0:0|0:0,0:0:0:0:
326,35,143311,1,0,0:0:0:0:
326,35,143421,2,0,P|336:74|324:112,1,82.5,8|0,0:0|0:0,0:0:0:0:
159,191,143863,6,0,L|61:204,1,82.5,2|0,0:0|0:0,0:0:0:0:
5,213,144194,1,0,0:0:0:0:
5,213,144304,2,0,P|-6:174|5:135,1,82.5,8|0,0:0|0:0,0:0:0:0:
123,40,144745,2,0,L|213:53,1,82.5,2|0,0:0|0:0,0:0:0:0:
281,183,145186,2,0,L|191:170,1,82.5,8|0,0:0|0:0,0:0:0:0:
124,159,145517,1,2,0:0:0:0:
124,159,145627,6,0,L|112:240,1,82.5,4|0,0:0|0:0,0:0:0:0:
99,339,146069,1,8,0:0:0:0:
189,299,146289,1,0,0:0:0:0:
275,347,146510,2,0,P|314:358|353:347,1,82.5,2|0,0:0|0:0,0:0:0:0:
458,339,146951,2,0,P|448:299|419:270,1,82.5,8|0,0:0|0:0,0:0:0:0:
321,237,147392,6,0,P|296:160|332:89,1,165,2|8,0:0|0:0,0:0:0:0:
426,180,148054,2,0,P|437:219|425:258,1,82.5,0|2,0:0|0:0,0:0:0:0:
354,219,148495,1,0,0:0:0:0:
365,120,148716,1,8,0:0:0:0:
272,153,148936,1,0,0:0:0:0:
323,306,149157,6,0,L|408:318,1,82.5,2|0,0:0|0:0,0:0:0:0:
297,204,149598,1,8,0:0:0:0:
297,204,149819,2,0,L|212:192,1,82.5,0|2,0:0|0:0,0:0:0:0:
391,114,150260,2,0,P|430:102|469:114,1,82.5,0|8,0:0|0:0,0:0:0:0:
430,184,150701,1,0,0:0:0:0:
372,318,150921,6,0,P|297:351|233:310,1,165,2|8,0:0|0:0,0:0:0:0:
304,270,151583,2,0,L|315:178,1,82.5,0|2,0:0|0:0,0:0:0:0:
427,54,152024,1,0,0:0:0:0:
427,54,152245,2,0,L|417:135,1,82.5,8|0,0:0|0:0,0:0:0:0:
290,37,152686,6,0,L|208:27,1,82.5,2|0,0:0|0:0,0:0:0:0:
138,98,153127,1,8,0:0:0:0:
212,163,153348,1,0,0:0:0:0:
212,163,153458,1,0,0:0:0:0:
212,163,153569,2,0,P|250:174|289:162,1,82.5,2|0,0:0|0:0,0:0:0:0:
386,88,154010,1,8,0:0:0:0:
434,233,154230,1,0,0:0:0:0:
304,318,154451,6,0,P|227:342|156:306,1,165,2|8,0:0|0:0,0:0:0:0:
250,213,155113,2,0,P|288:201|327:212,1,82.5,0|2,0:0|0:0,0:0:0:0:
433,275,155554,2,0,P|444:236|432:197,1,82.5,0|8,0:0|0:0,0:0:0:0:
354,91,155995,1,0,0:0:0:0:
222,139,156216,6,0,L|126:157,1,82.5,2|0,0:0|0:0,0:0:0:0:
209,233,156657,1,8,0:0:0:0:
325,142,156877,1,0,0:0:0:0:
325,142,156988,1,0,0:0:0:0:
325,142,157098,1,2,0:0:0:0:
359,295,157319,1,0,0:0:0:0:
441,180,157539,1,8,0:0:0:0:
339,375,157760,1,0,0:0:0:0:
242,213,157980,6,0,L|235:120,1,82.5,4|0,0:0|0:0,0:0:0:0:
366,32,158421,2,0,L|372:114,1,82.5,8|0,0:0|0:0,0:0:0:0:
383,211,158863,1,2,0:0:0:0:
263,144,159083,1,0,0:0:0:0:
263,144,159194,1,0,0:0:0:0:
263,144,159304,1,8,0:0:0:0:
365,63,159524,1,0,0:0:0:0:
470,200,159745,6,0,L|476:282,1,82.5,2|0,0:0|0:0,0:0:0:0:
374,229,160186,1,8,0:0:0:0:
459,106,160407,1,0,0:0:0:0:
459,106,160517,1,0,0:0:0:0:
459,106,160627,1,2,0:0:0:0:
240,42,160848,1,0,0:0:0:0:
337,134,161069,1,8,0:0:0:0:
148,282,161289,1,0,0:0:0:0:
148,282,161399,1,0,0:0:0:0:
148,282,161510,6,0,L|130:101,1,165,2|8,0:0|0:0,0:0:0:0:
235,33,162171,1,0,0:0:0:0:
235,33,162392,2,0,L|317:26,1,82.5,2|0,0:0|0:0,0:0:0:0:
394,25,162723,1,0,0:0:0:0:
394,25,162833,2,0,P|406:63|395:102,1,82.5,8|0,0:0|0:0,0:0:0:0:
110,32,163274,5,4,0:0:0:0:
201,229,165039,5,4,0:0:0:0:
148,65,179157,6,0,L|152:160,1,82.5
254,133,180260,2,0,L|254:76,1,41.25
334,60,180701,1,0,0:0:0:0:
334,60,180921,6,0,L|337:151,2,74.2499977340699
453,170,182024,1,0,0:0:0:0:
404,256,182245,1,0,0:0:0:0:
326,193,182466,1,0,0:0:0:0:
274,269,182686,6,0,L|127:289,1,123.750004720688
267,174,183348,2,0,L|389:157,1,123.750004720688
459,224,184010,1,0,0:0:0:0:
389,296,184230,1,0,0:0:0:0:
389,296,184341,1,0,0:0:0:0:
389,296,184451,6,0,P|331:320|271:299,1,123.750004720688
230,206,185333,2,0,L|219:100,2,92.812503540516
312,129,186216,5,0,0:0:0:0:
393,204,186436,1,0,0:0:0:0:
286,236,186657,1,0,0:0:0:0:
423,105,186877,1,0,0:0:0:0:
423,105,186988,1,0,0:0:0:0:
335,37,187208,1,0,0:0:0:0:
262,121,187429,1,0,0:0:0:0:
262,121,187539,1,0,0:0:0:0:
445,217,187760,1,0,0:0:0:0:
369,298,187980,5,0,0:0:0:0:
463,356,188201,1,0,0:0:0:0:
354,194,188421,1,0,0:0:0:0:
258,252,188642,1,0,0:0:0:0:
258,252,188752,1,0,0:0:0:0:
172,180,188973,1,0,0:0:0:0:
310,73,189194,1,0,0:0:0:0:
310,73,189304,1,0,0:0:0:0:
269,164,189524,1,0,0:0:0:0:
159,81,189745,5,4,0:0:0:0:
186,66,189855,1,0,0:0:0:0:
216,62,189966,1,0,0:0:0:0:
246,70,190076,1,0,0:0:0:0:
271,88,190186,1,0,0:0:0:0:
296,115,190296,1,0,0:0:0:0:
320,133,190407,1,0,0:0:0:0:
350,141,190517,1,0,0:0:0:0:
381,137,190627,1,0,0:0:0:0:
409,123,190738,1,0,0:0:0:0:
432,102,190848,1,0,0:0:0:0:
449,76,190958,1,0,0:0:0:0:
463,46,191069,6,0,L|470:15,1,30.937501180172,4|0,0:0|0:0,0:0:0:0:
448,198,191289,1,0,0:0:0:0:
417,204,191399,1,0,0:0:0:0:
387,211,191509,1,0,0:0:0:0:
357,217,191619,1,0,0:0:0:0:
327,224,191730,1,0,0:0:0:0:
296,230,191840,1,0,0:0:0:0:
268,243,191951,6,0,L|295:260,4,20.6250007867813
432,289,192392,6,0,L|414:278,4,20.6250007867813
409,147,192833,6,0,L|426:157,4,20.6250007867813
458,195,193274,6,0,L|388:200,1,61.875
324,206,193716,6,0,P|312:151|313:113,1,82.5,4|0,0:0|0:0,0:0:0:0:
306,50,194046,2,0,L|302:7,1,41.25,0|2,0:0|0:0,0:0:0:0:
221,131,194267,2,0,L|217:172,1,41.25
133,88,194488,1,0,0:0:0:0:
133,88,194598,2,0,P|93:99|55:86,1,82.5,8|0,0:0|0:0,0:0:0:0:
244,40,195039,6,0,P|328:16|371:38,1,123.75,2|0,0:0|0:0,0:0:0:0:
384,43,195480,1,8,0:0:0:0:
298,130,195701,1,0,0:0:0:0:
298,130,195811,2,0,L|250:135,1,41.25,0|2,0:0|0:0,0:0:0:0:
374,200,196032,2,0,L|415:195,1,41.25
270,290,196252,1,0,0:0:0:0:
270,290,196362,2,0,P|230:301|192:288,1,82.5,8|0,0:0|0:0,0:0:0:0:
71,183,196804,6,0,L|80:362,1,165,2|8,0:0|0:0,0:0:0:0:
250,249,197466,1,0,0:0:0:0:
250,249,197576,2,0,L|306:253,1,41.25,0|2,0:0|0:0,0:0:0:0:
214,146,197796,2,0,L|158:150,1,41.25
286,68,198017,1,0,0:0:0:0:
286,68,198127,2,0,P|324:80|363:69,1,82.5,8|0,0:0|0:0,0:0:0:0:
453,152,198569,6,0,L|462:233,1,82.5,2|0,0:0|0:0,0:0:0:0:
383,328,199010,1,8,0:0:0:0:
245,231,199230,1,0,0:0:0:0:
245,231,199341,2,0,L|236:180,1,41.25,0|2,0:0|0:0,0:0:0:0:
140,183,199561,2,0,L|131:132,1,41.25
39,144,199782,1,0,0:0:0:0:
39,144,199892,1,8,0:0:0:0:
163,40,200113,1,0,0:0:0:0:
290,149,200333,6,0,P|301:188|288:226,1,82.5,2|0,0:0|0:0,0:0:0:0:
203,184,200774,1,8,0:0:0:0:
283,51,200995,1,0,0:0:0:0:
283,51,201105,2,0,L|323:46,1,41.25,0|2,0:0|0:0,0:0:0:0:
223,109,201326,2,0,L|183:114,1,41.25
348,155,201546,1,0,0:0:0:0:
348,155,201657,2,0,L|345:248,1,82.5,8|0,0:0|0:0,0:0:0:0:
230,335,202098,6,0,P|146:359|103:337,1,123.75,2|0,0:0|0:0,0:0:0:0:
90,332,202539,1,8,0:0:0:0:
188,242,202760,1,0,0:0:0:0:
188,242,202870,2,0,L|248:248,1,41.25,0|2,0:0|0:0,0:0:0:0:
329,185,203091,2,0,L|269:179,1,41.25
408,254,203311,1,0,0:0:0:0:
408,254,203421,2,0,L|416:160,1,82.5,8|0,0:0|0:0,0:0:0:0:
423,100,203752,1,0,0:0:0:0:
423,100,203863,6,0,P|383:111|345:98,1,82.5,2|0,0:0|0:0,0:0:0:0:
261,41,204304,1,8,0:0:0:0:
125,117,204524,1,0,0:0:0:0:
125,150,204635,1,0,0:0:0:0:
125,182,204745,2,0,L|124:275,1,82.5,2|0,0:0|0:0,0:0:0:0:
159,333,205076,1,0,0:0:0:0:
189,345,205186,2,0,P|227:357|266:346,1,82.5,8|0,0:0|0:0,0:0:0:0:
352,240,205627,5,2,0:0:0:0:
360,207,205738,1,2,0:0:0:0:
367,174,205848,1,2,0:0:0:0:
217,210,206069,1,8,0:0:0:0:
335,315,206289,1,2,0:0:0:0:
365,328,206399,2,0,L|415:353,1,41.25,2|0,0:0|0:0,0:0:0:0:
329,169,206620,1,2,0:0:0:0:
299,154,206730,1,2,0:0:0:0:
450,102,206951,1,8,0:0:0:0:
335,270,207171,1,2,0:0:0:0:
301,267,207282,1,2,0:0:0:0:
268,267,207392,6,0,L|163:268,1,82.5,4|0,0:0|0:0,0:0:0:0:
101,203,207833,1,8,0:0:0:0:
209,94,208054,1,0,0:0:0:0:
209,94,208164,2,0,L|217:150,1,41.25,0|2,0:0|0:0,0:0:0:0:
319,40,208385,2,0,L|311:-16,1,41.25
387,177,208605,1,0,0:0:0:0:
387,177,208716,2,0,P|348:188|309:176,1,82.5,8|0,0:0|0:0,0:0:0:0:
127,118,209157,6,0,P|113:177|138:232,1,123.75,2|0,0:0|0:0,0:0:0:0:
158,252,209598,1,8,0:0:0:0:
274,146,209819,1,0,0:0:0:0:
274,146,209929,2,0,L|341:149,1,41.25,0|2,0:0|0:0,0:0:0:0:
420,228,210149,2,0,L|378:226,1,41.25
240,328,210370,1,0,0:0:0:0:
240,328,210480,2,0,P|201:339|162:327,1,82.5,8|0,0:0|0:0,0:0:0:0:
338,138,210921,6,0,L|347:308,1,165,2|8,0:0|0:0,0:0:0:0:
197,203,211583,1,0,0:0:0:0:
197,203,211694,2,0,L|190:138,1,41.25,0|2,0:0|0:0,0:0:0:0:
259,47,211914,2,0,L|264:89,1,41.25
166,71,212135,1,0,0:0:0:0:
166,71,212245,2,0,P|127:82|88:70,1,82.5,8|0,0:0|0:0,0:0:0:0:
220,183,212686,6,0,L|304:196,1,82.5,2|0,0:0|0:0,0:0:0:0:
436,207,213127,1,8,0:0:0:0:
309,344,213348,1,0,0:0:0:0:
309,344,213458,2,0,L|301:290,1,41.25,0|2,0:0|0:0,0:0:0:0:
192,241,213679,2,0,L|198:281,1,41.25
299,81,213899,1,0,0:0:0:0:
299,81,214010,2,0,P|337:93|376:81,1,82.5,8|0,0:0|0:0,0:0:0:0:
115,106,214451,6,0,L|115:207,1,82.5,2|0,0:0|0:0,0:0:0:0:
220,110,214892,1,8,0:0:0:0:
109,33,215113,1,0,0:0:0:0:
109,33,215223,2,0,L|57:27,1,41.25,0|2,0:0|0:0,0:0:0:0:
182,116,215444,2,0,L|141:111,1,41.25
319,55,215664,1,0,0:0:0:0:
319,55,215774,2,0,L|224:44,1,82.5,8|0,0:0|0:0,0:0:0:0:
419,167,216216,6,0,P|430:206|418:244,1,82.5,2|0,0:0|0:0,0:0:0:0:
272,171,216657,1,8,0:0:0:0:
395,53,216877,1,0,0:0:0:0:
395,53,216988,2,0,L|452:47,1,41.25,0|2,0:0|0:0,0:0:0:0:
272,171,217208,2,0,L|230:175,1,41.25
433,260,217429,1,0,0:0:0:0:
433,260,217539,1,8,0:0:0:0:
234,362,217760,1,2,0:0:0:0:
273,168,217980,1,4,0:0:0:0:
70,162,219304,5,2,0:0:0:0:
100,351,219524,1,2,0:0:0:0:
26,352,220186,5,2,0:0:0:0:
26,352,220627,1,2,0:0:0:0:
26,352,221069,1,2,0:0:0:0:
245,200,221510,5,4,0:0:0:0:
168,78,225039,5,4,0:0:0:0:
191,58,225149,1,0,0:0:0:0:
221,48,225259,1,0,0:0:0:0:
251,49,225369,1,0,0:0:0:0:
280,61,225480,1,0,0:0:0:0:
305,79,225591,1,0,0:0:0:0:
324,103,225701,1,0,0:0:0:0:
334,132,225811,1,0,0:0:0:0:
333,163,225921,5,0,0:0:0:0:
321,191,226032,1,0,0:0:0:0:
301,214,226142,1,0,0:0:0:0:
272,226,226252,1,0,0:0:0:0:
240,225,226363,2,0,L|188:215,1,30.937501180172,4|0,0:0|0:0,0:0:0:0:
273,82,226583,5,4,0:0:0:0:
296,62,226693,1,0,0:0:0:0:
326,52,226803,1,0,0:0:0:0:
356,53,226913,1,0,0:0:0:0:
385,65,227024,1,0,0:0:0:0:
411,82,227135,1,0,0:0:0:0:
435,100,227245,6,0,L|462:117,4,20.6250007867813
352,140,227686,6,0,L|334:129,4,20.6250007867813
386,226,228127,6,0,L|403:236,4,20.6250007867813
302,194,228569,6,0,P|259:181|225:192,1,82.5,4|0,0:0|0:0,0:0:0:0:
147,254,229010,1,8,0:0:0:0:
233,305,229231,2,0,B|277:320|277:320|320:306,1,82.5,0|2,0:0|0:0,0:0:0:0:
390,250,229672,1,0,0:0:0:0:
464,215,229893,2,0,P|476:255|463:293,1,82.5,8|0,0:0|0:0,0:0:0:0:
385,354,230334,6,0,L|251:357,1,123.75,2|0,0:0|0:0,0:0:0:0:
231,355,230775,1,8,0:0:0:0:
160,287,230996,2,0,B|149:253|149:253|164:209,1,82.5,0|2,0:0|0:0,0:0:0:0:
251,258,231437,2,0,B|295:273|295:273|338:259,1,82.5,0|8,0:0|0:0,0:0:0:0:
359,248,231768,1,0,0:0:0:0:
359,248,231878,1,0,0:0:0:0:
233,116,232098,6,0,P|194:103|155:115,1,82.5,2|0,0:0|0:0,0:0:0:0:
196,186,232539,2,0,P|208:224|195:263,1,82.5,8|0,0:0|0:0,0:0:0:0:
66,118,232980,2,0,L|59:29,1,82.5,2|0,0:0|0:0,0:0:0:0:
148,64,233421,2,0,L|237:57,1,82.5,8|0,0:0|0:0,0:0:0:0:
392,103,233863,6,0,P|404:141|391:180,1,82.5,2|0,0:0|0:0,0:0:0:0:
252,93,234304,1,8,0:0:0:0:
252,93,234414,2,0,L|183:95,1,41.25
180,178,234635,2,0,L|111:180,1,41.25,0|2,0:0|0:0,0:0:0:0:
70,106,234855,1,0,0:0:0:0:
70,106,234966,1,0,0:0:0:0:
194,33,235186,1,8,0:0:0:0:
144,264,235407,1,2,0:0:0:0:
144,264,235517,1,2,0:0:0:0:
144,264,235627,6,0,L|234:251,1,82.5,4|0,0:0|0:0,0:0:0:0:
319,286,236069,2,0,P|331:247|319:208,1,82.5,8|0,0:0|0:0,0:0:0:0:
239,149,236510,2,0,P|200:136|161:148,1,82.5,2|0,0:0|0:0,0:0:0:0:
300,237,236951,2,0,L|388:231,1,82.5,8|0,0:0|0:0,0:0:0:0:
172,364,237392,6,0,L|166:281,1,82.5,2|0,0:0|0:0,0:0:0:0:
229,205,237833,2,0,P|267:192|306:205,1,82.5,8|0,0:0|0:0,0:0:0:0:
394,287,238274,1,2,0:0:0:0:
394,287,238495,2,0,B|409:243|409:243|395:200,1,82.5,0|8,0:0|0:0,0:0:0:0:
390,178,238826,1,0,0:0:0:0:
390,178,238936,1,0,0:0:0:0:
231,108,239157,6,0,P|192:120|153:107,1,82.5,2|0,0:0|0:0,0:0:0:0:
287,24,239598,2,0,P|325:11|364:24,1,82.5,8|0,0:0|0:0,0:0:0:0:
360,198,240039,2,0,L|338:116,1,82.5,2|0,0:0|0:0,0:0:0:0:
477,231,240480,2,0,L|498:310,1,82.5,8|0,0:0|0:0,0:0:0:0:
367,329,240921,6,0,P|328:341|289:328,1,82.5,2|0,0:0|0:0,0:0:0:0:
174,179,241363,1,8,0:0:0:0:
174,179,241473,2,0,L|185:231,1,41.25
262,234,241694,2,0,L|273:286,1,41.25,0|2,0:0|0:0,0:0:0:0:
214,330,241914,5,2,0:0:0:0:
190,338,242024,1,0,0:0:0:0:
166,346,242135,1,2,0:0:0:0:
142,354,242245,1,2,0:0:0:0:
51,221,242466,1,2,0:0:0:0:
51,221,242576,1,2,0:0:0:0:
51,221,242686,6,0,L|44:124,1,92.812503540516,2|0,0:0|0:0,0:0:0:0:
37,54,243127,6,0,P|75:41|114:54,1,82.5,4|0,0:0|0:0,0:0:0:0:
193,131,243569,2,0,L|291:114,1,82.5,2|0,0:0|0:0,0:0:0:0:
319,253,244010,2,0,L|221:270,1,82.5,8|0,0:0|0:0,0:0:0:0:
73,355,244451,6,0,L|70:221,1,123.75,2|0,0:0|0:0,0:0:0:0:
71,201,244892,1,8,0:0:0:0:
132,110,245113,2,0,B|166:98|166:98|210:113,1,82.5,0|2,0:0|0:0,0:0:0:0:
296,203,245554,2,0,L|213:218,1,82.5,0|8,0:0|0:0,0:0:0:0:
185,223,245885,1,0,0:0:0:0:
185,223,245995,1,0,0:0:0:0:
336,316,246216,6,0,P|374:328|413:316,1,82.5,2|0,0:0|0:0,0:0:0:0:
313,211,246657,2,0,P|274:198|235:210,1,82.5,8|0,0:0|0:0,0:0:0:0:
39,291,247098,2,0,L|34:202,1,82.5,2|0,0:0|0:0,0:0:0:0:
158,293,247539,2,0,L|163:382,1,82.5,8|0,0:0|0:0,0:0:0:0:
308,229,247980,6,0,L|303:140,1,82.5,2|0,0:0|0:0,0:0:0:0:
211,51,248421,1,8,0:0:0:0:
211,51,248532,2,0,L|157:53,1,41.25
83,130,248752,2,0,L|124:128,1,41.25,0|2,0:0|0:0,0:0:0:0:
18,60,248973,1,0,0:0:0:0:
18,60,249083,1,0,0:0:0:0:
96,215,249304,1,8,0:0:0:0:
214,81,249524,1,2,0:0:0:0:
214,81,249635,1,2,0:0:0:0:
214,81,249745,6,0,P|252:93|291:81,1,82.5,4|0,0:0|0:0,0:0:0:0:
402,17,250186,2,0,P|414:55|402:94,1,82.5,8|0,0:0|0:0,0:0:0:0:
318,181,250627,2,0,L|225:203,1,82.5,2|0,0:0|0:0,0:0:0:0:
384,291,251069,2,0,L|477:269,1,82.5,8|0,0:0|0:0,0:0:0:0:
210,351,251510,6,0,L|191:270,1,82.5,2|0,0:0|0:0,0:0:0:0:
266,206,251951,2,0,P|304:193|343:205,1,82.5,8|0,0:0|0:0,0:0:0:0:
276,303,252392,1,2,0:0:0:0:
276,303,252613,2,0,B|241:314|241:314|197:299,1,82.5,0|8,0:0|0:0,0:0:0:0:
167,291,252944,1,0,0:0:0:0:
167,291,253054,1,0,0:0:0:0:
49,185,253274,6,0,P|36:147|48:108,1,82.5,2|0,0:0|0:0,0:0:0:0:
152,176,253716,2,0,L|157:260,1,82.5,8|0,0:0|0:0,0:0:0:0:
36,367,254157,2,0,L|31:284,1,82.5,2|0,0:0|0:0,0:0:0:0:
134,171,254598,1,8,0:0:0:0:
267,297,254819,1,2,0:0:0:0:
267,297,254929,1,2,0:0:0:0:
267,297,255039,6,0,P|305:309|344:296,1,82.5,4|0,0:0|0:0,0:0:0:0:
127,197,255480,1,8,0:0:0:0:
127,197,255591,2,0,L|68:191,1,41.25
254,130,255811,2,0,L|195:124,1,41.25,0|2,0:0|0:0,0:0:0:0:
339,207,256032,1,0,0:0:0:0:
339,207,256142,1,0,0:0:0:0:
242,351,256363,1,8,0:0:0:0:
55,198,256804,5,4,0:0:0:0:
55,198,257245,1,2,0:0:0:0:
55,198,257686,1,2,0:0:0:0:
55,198,258127,1,2,0:0:0:0:
