osu file format v14

[General]
AudioFilename: audio.mp3
AudioLeadIn: 0
PreviewTime: 74377
Countdown: 0
SampleSet: Soft
StackLeniency: 0.8
Mode: 0
LetterboxInBreaks: 0
WidescreenStoryboard: 1

[Editor]
Bookmarks: 252392
DistanceSpacing: 1.5
BeatDivisor: 4
GridSize: 32
TimelineZoom: 2.100001

[Metadata]
Title:started
TitleUnicode:started
Artist:Ym1024 feat. lamie*
ArtistUnicode:Ym1024 feat. lamie*
Creator:timemon
Version:Hard
Source:BMS
Tags:lamie* Ym1024
BeatmapID:1292600
BeatmapSetID:606307

[Difficulty]
HPDrainRate:6
CircleSize:3.6
OverallDifficulty:7
ApproachRate:8
SliderMultiplier:1.65
SliderTickRate:1

[Events]
//Background and Video events
0,0,"bg.jpg",0,0
//Break Periods
//Storyboard Layer 0 (Background)
//Storyboard Layer 1 (Fail)
//Storyboard Layer 2 (Pass)
//Storyboard Layer 3 (Foreground)
//Storyboard Sound Samples

[TimingPoints]
922,441.176470588235,4,2,1,60,1,0
11510,-133.333333333333,4,2,1,60,0,0
15039,-100,4,2,1,60,0,0
30921,-133.333333333333,4,2,1,60,0,0
34230,-133.333333333333,4,2,4,60,0,0
34451,-133.333333333333,4,2,1,60,0,0
36657,-133.333333333333,4,2,1,60,0,0
37319,-133.333333333333,4,2,1,60,0,0
45039,-100,4,2,1,60,0,0
48348,-100,4,2,4,60,0,0
48569,-100,4,2,1,60,0,0
55627,-133.333333333333,4,2,1,60,0,0
59157,-200,4,2,1,60,0,0
66216,-133.333333333333,4,2,1,50,0,0
75039,-100,4,2,3,70,0,1
75480,-100,4,2,2,70,0,1
85627,-100,4,2,1,60,0,0
87392,-100,4,2,2,60,0,0
87502,-100,4,2,3,60,0,0
89157,-100,4,2,2,70,0,1
99745,-100,4,2,1,60,0,0
103274,-133.333333333333,4,2,1,60,0,0
106583,-133.333333333333,4,2,4,60,0,0
106804,-133.333333333333,4,2,1,60,0,0
109010,-133.333333333333,4,2,5,60,0,0
109230,-133.333333333333,4,2,6,60,0,0
109671,-133.333333333333,4,2,1,60,0,0
110333,-100,4,2,1,60,0,0
113863,-133.333333333333,4,2,1,60,0,0
116730,-100,4,2,1,40,0,0
116951,-100,4,2,1,60,0,0
130848,-100,4,2,1,40,0,0
131069,-100,4,2,1,60,0,0
141436,-100,4,2,1,40,0,0
141657,-100,4,2,1,60,0,0
145627,-100,4,2,1,60,0,0
165039,-200,4,2,1,60,0,0
179157,-200,4,2,5,60,0,0
180921,-166.666666666667,4,2,6,60,0,0
182686,-133.333333333333,4,2,5,60,0,0
186216,-133.333333333333,4,2,1,60,0,0
189745,-133.333333333333,4,2,1,60,0,0
193274,-200,4,2,1,35,0,0
193716,-100,4,2,3,70,0,1
193936,-100,4,2,2,70,0,1
205627,-100,4,2,2,60,0,0
205738,-100,4,2,3,60,0,0
207392,-100,4,2,2,70,0,1
217980,-100,4,2,1,60,0,0
225039,-133.333333333333,4,2,1,60,0,0
228569,-100,4,2,1,60,0,0
242686,-133.333333333333,4,2,1,60,0,0
243127,-100,4,2,1,60,0,0
254377,-100,4,2,1,40,0,0
254598,-100,4,2,1,60,0,0

[HitObjects]
223,51,11510,6,0,L|225:104,11,30.937501180172
179,103,12833,2,0,L|181:158,1,30.937501180172
232,169,13054,2,0,L|234:219,5,30.937501180172
277,245,13716,6,0,L|311:244,4,20.6250007867813
378,300,14157,6,0,L|357:300,4,20.6250007867813
271,353,14598,6,0,L|291:352,4,20.6250007867813
357,357,15039,6,0,L|366:255,1,82.5
361,174,15480,1,0,0:0:0:0:
361,174,15701,2,0,P|317:163|280:177,1,82.5
212,245,16142,1,0,0:0:0:0:
290,305,16363,2,0,P|328:321|371:302,1,82.5
426,170,16804,6,0,L|428:82,1,82.5
331,111,17245,1,0,0:0:0:0:
297,204,17466,2,0,P|258:216|219:204,1,82.5
130,108,17907,2,0,P|168:95|207:107,1,82.5
235,123,18238,2,0,P|277:135|319:122,1,82.5
337,111,18569,6,0,L|432:104,2,82.5
285,195,19230,1,0,0:0:0:0:
285,195,19451,2,0,L|291:288,1,82.5
172,184,19892,2,0,L|166:91,1,82.5
87,42,20333,5,0,0:0:0:0:
55,136,20554,1,0,0:0:0:0:
95,226,20774,1,0,0:0:0:0:
95,226,20885,1,0,0:0:0:0:
95,226,20995,2,0,L|100:279,4,41.25
184,152,21657,1,0,0:0:0:0:
256,256,21877,1,0,0:0:0:0:
256,256,21988,1,0,0:0:0:0:
256,256,22098,6,0,P|295:267|333:255,1,82.5
393,175,22539,1,0,0:0:0:0:
314,114,22760,2,0,P|275:103|237:115,1,82.5
178,196,23201,1,0,0:0:0:0:
96,140,23421,2,0,L|86:40,1,82.5
249,36,23863,6,0,L|395:50,1,123.75
405,55,24304,1,0,0:0:0:0:
445,145,24524,2,0,P|453:191|444:228,1,82.5
357,178,24966,2,0,P|306:169|272:182,1,82.5
250,190,25296,2,0,P|241:241|254:275,1,82.5
269,294,25627,6,0,P|312:310|348:293,1,82.5
434,211,26069,2,0,L|439:122,1,82.5
374,53,26510,2,0,P|331:37|295:54,1,82.5
179,126,26951,2,0,L|88:106,1,82.5
65,98,27282,1,0,0:0:0:0:
65,98,27392,6,0,P|48:142|59:177,1,82.5
118,252,27833,1,0,0:0:0:0:
118,252,27944,1,0,0:0:0:0:
118,252,28054,2,0,L|118:306,4,41.25
225,233,28716,1,0,0:0:0:0:
163,62,29157,5,0,0:0:0:0:
268,52,29598,5,0,0:0:0:0:
268,52,30039,1,0,0:0:0:0:
268,52,30480,1,0,0:0:0:0:
403,32,30921,6,0,P|436:87|416:143,1,123.750004720688
367,217,31583,2,0,P|361:249|369:296,1,61.875002360344
483,353,32024,2,0,P|489:321|481:274,1,61.875002360344
281,324,32466,1,0,0:0:0:0:
281,324,32686,6,0,P|223:350|158:317,1,123.750004720688
111,257,33348,2,0,L|99:186,1,61.875002360344
209,204,33789,2,0,L|219:265,1,61.875002360344
317,181,34230,1,0,0:0:0:0:
317,181,34341,1,0,0:0:0:0:
317,181,34451,6,0,B|352:143|352:143|338:86,1,92.812503540516
334,70,34892,2,0,P|259:56|217:95,1,123.750004720688
141,196,35554,1,0,0:0:0:0:
70,136,35774,1,0,0:0:0:0:
142,77,35995,1,0,0:0:0:0:
217,131,36216,6,0,L|231:246,1,92.812503540516
235,258,36657,1,0,0:0:0:0:
377,205,36877,1,0,0:0:0:0:
371,297,37098,1,0,0:0:0:0:
503,242,37319,1,0,0:0:0:0:
467,368,37539,1,0,0:0:0:0:
371,297,37760,1,0,0:0:0:0:
266,365,37980,6,0,L|194:377,1,61.875002360344
371,297,38421,2,0,L|443:285,1,61.875002360344
277,154,38863,2,0,L|289:226,1,61.875002360344
407,97,39304,2,0,L|396:35,1,61.875002360344
312,77,39745,6,0,P|254:103|189:70,1,123.750004720688
123,30,40407,2,0,P|91:24|44:32,1,61.875002360344
99,156,40848,2,0,P|131:162|178:154,1,61.875002360344
265,79,41289,1,0,0:0:0:0:
265,79,41510,6,0,L|274:231,1,123.750004720688
124,275,42171,1,0,0:0:0:0:
124,275,42392,2,0,L|116:151,1,123.750004720688
265,79,43054,1,0,0:0:0:0:
265,79,43275,6,0,L|274:231,1,123.750004720688
356,241,43936,2,0,P|395:251|418:242,1,61.875002360344
472,171,44377,2,0,P|483:130|479:105,1,61.875002360344
408,52,44819,1,0,0:0:0:0:
408,52,44929,1,0,0:0:0:0:
408,52,45039,6,0,P|330:84|257:38,1,165
