osu file format v14

[General]
AudioFilename: audio.mp3
AudioLeadIn: 0
PreviewTime: 57036
Countdown: 0
SampleSet: Soft
StackLeniency: 0.7
Mode: 0
LetterboxInBreaks: 0
WidescreenStoryboard: 1

[Editor]
DistanceSpacing: 1.5
BeatDivisor: 6
GridSize: 16
TimelineZoom: 2.8

[Metadata]
Title:holy night celebration (feat. lamie*) (Cut Ver.)
TitleUnicode:holy night celebration (feat. lamie*) (Cut Ver.)
Artist:Ym1024
ArtistUnicode:Ym1024
Creator:Shunao
Version:Hard
Source:G2R2014 "GO BACK 2 YOUR ROOTS"
Tags:christmas xmas jpop j-pop japanese pop shogunmoon asaiga agatsu
BeatmapID:1863962
BeatmapSetID:884084

[Difficulty]
HPDrainRate:5
CircleSize:3.7
OverallDifficulty:6
ApproachRate:8
SliderMultiplier:1.8
SliderTickRate:1

[Events]
//Background and Video events
0,0,"christmaas.jpg",0,0
//Break Periods
//Storyboard Layer 0 (Background)
//Storyboard Layer 1 (Fail)
//Storyboard Layer 2 (Pass)
//Storyboard Layer 3 (Foreground)
//Storyboard Layer 4 (Overlay)
//Storyboard Sound Samples

[TimingPoints]
87,508.474576271186,4,2,8,30,1,0
3137,-100,4,2,8,40,0,0
4154,-100,4,2,8,60,0,0
22459,-125,4,2,8,50,0,0
38731,-100,4,2,8,60,0,0
57036,-83.3333333333333,4,2,8,80,0,1
77372,508.474576271186,3,2,8,50,1,0
77372,-142.857142857143,3,2,8,50,0,0
77880,-142.857142857143,3,2,8,35,0,0
88050,-100,4,2,8,60,0,0
89575,508.474576271186,4,2,8,60,1,0

[Colours]
Combo1 : 254,231,139
Combo2 : 192,20,46
Combo3 : 0,168,43
SliderBorder : 100,150,80
SliderTrackOverride : 50,33,29

[HitObjects]
195,221,3137,6,0,L|242:228,5,30,8|8|8|8|8|8,0:2|0:2|0:2|0:2|0:2|0:2,0:0:0:0:
255,190,3646,2,0,L|306:182,5,30,8|8|8|8|8|8,0:2|0:2|0:2|0:2|0:2|0:2,0:0:0:0:
293,141,4154,6,0,P|289:106|282:71,1,60,6|0,1:0|1:0,0:0:0:0:
259,43,4409,2,0,P|222:40|185:30,1,60,8|0,1:2|1:0,0:0:0:0:
155,24,4663,1,2,1:0:0:0:
35,86,4917,2,0,L|44:161,1,60,8|0,1:2|1:0,0:0:0:0:
133,179,5171,6,0,L|126:249,1,60,2|0,1:0|1:0,0:0:0:0:
83,250,5426,2,0,L|91:329,1,60,8|0,1:2|1:0,0:0:0:0:
98,353,5680,2,0,P|128:346|161:352,1,60,2|0,1:0|1:0,0:0:0:0:
199,363,5934,2,0,P|229:370|262:364,1,60,8|0,1:2|1:0,0:0:0:0:
349,331,6188,5,2,1:0:0:0:
324,197,6443,2,0,P|352:188|381:192,1,60,8|0,1:2|1:0,0:0:0:0:
425,178,6697,2,0,P|458:187|493:178,1,60,0|0,1:0|1:0,0:0:0:0:
500,224,6951,2,0,L|507:300,1,60,8|0,1:2|1:0,0:0:0:0:
474,376,7205,6,0,L|403:368,1,60,0|0,1:0|1:0,0:0:0:0:
370,360,7459,2,0,L|308:368,1,60,8|0,1:2|1:0,0:0:0:0:
265,373,7714,1,0,1:0:0:0:
180,358,7883,1,8,1:2:0:0:
180,358,7968,2,0,P|173:323|182:291,1,60,8|0,1:2|0:0,0:0:0:0:
204,207,8222,5,6,1:0:0:0:
313,286,8477,2,0,L|384:278,1,60,8|0,1:2|1:0,0:0:0:0:
417,273,8731,1,2,1:0:0:0:
495,163,8985,2,0,P|499:125|487:92,1,60,8|0,1:2|1:0,0:0:0:0:
426,33,9239,6,0,L|359:26,1,60,2|0,1:0|1:0,0:0:0:0:
323,9,9494,2,0,L|251:16,1,60,8|0,1:2|1:0,0:0:0:0:
227,42,9748,2,0,P|219:73|229:106,1,60,2|0,1:0|1:0,0:0:0:0:
263,123,10002,2,0,P|271:154|261:187,1,60,8|0,1:2|1:0,0:0:0:0:
235,273,10256,5,2,1:0:0:0:
111,225,10510,2,0,L|43:232,1,60,8|0,1:2|1:0,0:0:0:0:
20,198,10764,2,0,P|13:165|21:127,1,60,0|0,1:0|1:0,0:0:0:0:
57,118,11019,2,0,P|64:85|56:47,1,60,0|0,1:0|1:0,0:0:0:0:
145,12,11273,5,0,1:0:0:0:
221,58,11442,1,8,1:2:0:0:
221,58,11527,2,0,L|324:50,1,90,8|0,1:2|1:0,0:0:0:0:
394,84,11951,1,8,1:2:0:0:
394,84,12036,2,0,P|400:115|403:155,1,60,8|0,1:2|1:0,0:0:0:0:
488,191,12290,5,6,1:0:0:0:
444,317,12545,2,0,P|413:308|375:314,1,60,8|0,1:2|1:0,0:0:0:0:
347,333,12798,1,2,1:0:0:0:
211,333,13053,2,0,P|208:303|202:273,1,60,8|0,1:2|1:0,0:0:0:0:
177,179,13307,6,0,P|179:149|185:119,1,60,2|0,1:0|1:0,0:0:0:0:
199,76,13562,2,0,P|162:72|126:60,1,60,8|0,1:2|1:0,0:0:0:0:
101,44,13815,2,0,P|64:48|28:60,1,60,2|0,1:0|1:0,0:0:0:0:
16,91,14070,2,0,P|21:120|24:150,1,60,8|0,1:2|0:0,0:0:0:0:
48,245,14324,6,0,P|82:241|116:251,1,60,2|0,1:0|1:0,0:0:0:0:
148,264,14579,2,0,L|155:338,1,60,8|0,1:2|1:0,0:0:0:0:
163,367,14833,2,0,P|196:374|233:367,1,60,0|0,1:0|1:0,0:0:0:0:
264,359,15086,2,0,P|297:352|334:359,1,60,8|0,1:2|1:0,0:0:0:0:
421,369,15341,6,0,L|426:298,1,60,0|0,1:0|1:0,0:0:0:0:
386,285,15595,2,0,L|381:214,1,60,8|0,1:2|1:0,0:0:0:0:
415,193,15850,1,0,1:0:0:0:
480,131,16019,1,8,1:2:0:0:
480,131,16104,2,0,L|486:55,1,60,8|0,1:2|0:0,0:0:0:0:
403,17,16358,6,0,P|372:9|342:16,1,60,6|0,1:0|0:0,0:0:0:0:
300,25,16613,2,0,L|308:100,1,60,8|0,1:2|0:0,0:0:0:0:
330,123,16866,1,2,1:0:0:0:
267,242,17121,2,0,P|235:247|199:240,1,60,8|0,1:2|1:0,0:0:0:0:
179,151,17375,6,0,L|172:78,1,60,2|0,1:0|0:0,0:0:0:0:
162,46,17630,2,0,P|133:36|102:42,1,60,8|0,1:2|0:0,0:0:0:0:
63,58,17884,2,0,L|57:129,1,60,2|0,1:0|0:0,0:0:0:0:
19,142,18138,2,0,L|25:215,1,60,8|0,1:2|0:0,0:0:0:0:
45,284,18392,6,0,P|77:277|116:282,1,60,2|0,1:0|0:0,0:0:0:0:
146,296,18647,2,0,L|152:214,1,60,8|0,1:2|0:0,0:0:0:0:
183,206,18900,2,0,P|215:213|254:208,1,60,2|0,1:0|0:0,0:0:0:0:
284,194,19155,2,0,L|278:122,1,60,8|0,1:2|1:0,0:0:0:0:
333,53,19409,5,2,1:0:0:0:
416,85,19578,1,8,1:2:0:0:
416,85,19664,2,0,L|410:158,1,60,8|0,1:2|0:0,0:0:0:0:
375,223,19918,2,0,L|380:265,5,30,10|8|0|0|8|8,1:2|1:2|0:0|0:0|1:2|1:2,0:0:0:0:
405,288,20425,6,0,L|396:368,1,60,4|0,1:0|0:0,0:0:0:0:
357,368,20680,2,0,P|328:360|294:362,1,60,0|0,1:0|0:0,0:0:0:0:
253,367,20934,2,0,P|224:375|190:373,1,60,0|0,1:0|0:0,0:0:0:0:
151,361,21188,2,0,L|144:291,1,60,0|0,1:0|0:0,0:0:0:0:
138,204,21442,5,0,1:0:0:0:
248,126,21697,2,0,L|326:132,1,60,0|0,1:0|0:0,0:0:0:0:
351,118,21951,2,0,P|358:81|350:44,1,60,0|0,1:0|0:0,0:0:0:0:
330,21,22205,2,0,L|261:27,1,60,0|0,1:0|0:0,0:0:0:0:
155,5,22459,5,4,0:3:0:0:
48,76,22714,2,0,L|53:158,1,72,2|2,1:2|0:0,0:0:0:0:
56,229,23137,1,8,1:2:0:0:
63,351,23392,2,0,L|145:344,1,72,2|0,1:2|1:0,0:0:0:0:
166,319,23731,2,0,L|242:327,1,72,2|2,1:2|1:2,0:0:0:0:
358,344,24239,1,2,1:2:0:0:
430,305,24409,1,8,1:2:0:0:
430,305,24493,6,0,P|425:261|418:218,1,72,2|0,1:2|1:0,0:0:0:0:
371,121,25002,1,2,1:2:0:0:
311,176,25171,2,0,P|274:178|226:165,1,72,0|0,1:0|1:0,0:0:0:0:
328,33,25764,2,0,P|363:25|411:27,1,72,2|2,1:2|1:2,0:0:0:0:
471,62,26188,1,2,1:2:0:0:
491,186,26442,1,8,1:2:0:0:
491,186,26527,6,0,L|486:247,1,48,6|0,3:0|1:0,0:0:0:0:
456,261,26781,2,0,L|464:345,1,72,2|2,1:2|1:2,0:0:0:0:
388,366,27205,1,2,1:2:0:0:
269,334,27459,2,0,P|234:324|193:330,1,72,2|0,1:2|1:0,0:0:0:0:
160,341,27798,2,0,L|151:267,1,72,2|2,1:2|1:2,0:0:0:0:
44,209,28306,1,2,1:2:0:0:
9,135,28476,1,8,1:2:0:0:
9,135,28561,6,0,P|15:96|39:64,1,72,2|2,1:2|1:2,0:0:0:0:
145,24,29070,1,2,1:2:0:0:
210,72,29239,2,0,L|297:64,1,72,10|2,1:2|1:2,0:0:0:0:
400,97,29748,2,0,P|409:133|401:180,1,72,8|8,1:2|1:2,0:0:0:0:
389,204,30086,2,0,L|308:198,1,72,8|8,3:0|3:0,0:0:0:0:
250,245,30510,1,8,3:0:0:0:
250,245,30595,6,0,L|255:310,1,48,12|0,3:2|1:0,0:0:0:0:
256,333,30849,2,0,P|291:341|337:332,1,72,2|2,1:2|1:2,0:0:0:0:
405,315,31273,1,10,1:2:0:0:
498,235,31528,2,0,L|489:151,1,72,2|0,1:2|0:0,0:0:0:0:
486,122,31867,2,0,P|450:121|404:112,1,72,2|0,1:2|0:0,0:0:0:0:
313,46,32375,1,8,1:2:0:0:
234,23,32545,1,0,0:0:0:0:
234,23,32629,6,0,P|194:15|152:27,1,72,2|0,1:2|1:0,0:0:0:0:
54,77,33138,1,2,1:2:0:0:
12,147,33307,2,0,L|23:236,1,72,2|8,1:2|1:2,0:0:0:0:
169,286,33900,2,0,L|179:207,1,72,2|2,1:2|1:2,0:0:0:0:
192,134,34324,1,2,1:2:0:0:
306,90,34578,1,2,1:2:0:0:
306,90,34663,6,0,P|335:86|366:94,1,48,0|12,1:0|1:2,0:0:0:0:
387,111,34917,2,0,L|393:196,1,72,2|2,1:2|1:2,0:0:0:0:
447,242,35341,1,8,1:2:0:0:
416,360,35595,2,0,P|382:364|342:354,1,72,2|0,1:2|1:0,0:0:0:0:
307,341,35934,2,0,L|300:254,1,72,8|2,1:2|1:2,0:0:0:0:
208,188,36442,2,0,L|212:147,2,24,8|8|8,1:2|1:2|1:2,0:0:0:0:
203,229,36697,5,2,1:0:0:0:
14,72,37206,1,2,1:0:0:0:
249,7,37714,1,2,1:0:0:0:
78,182,38222,1,2,1:0:0:0:
376,111,38731,6,0,P|408:101|445:106,1,60,6|0,1:0|1:0,0:0:0:0:
473,124,38985,2,0,L|478:195,1,60,10|0,1:2|0:0,0:0:0:0:
500,222,39239,2,0,L|494:293,1,60,2|2,1:2|1:2,0:0:0:0:
486,326,39493,1,8,1:2:0:0:
405,365,39663,2,0,P|362:348|308:353,1,90,2|0,1:2|1:0,0:0:0:0:
278,369,40002,2,0,L|271:297,1,60,10|0,1:2|0:0,0:0:0:0:
270,264,40256,1,2,1:0:0:0:
332,144,40510,1,10,1:2:0:0:
250,38,40764,6,0,P|211:20|156:29,1,90,2|8,1:0|1:2,0:0:0:0:
36,65,41273,1,2,1:2:0:0:
12,151,41442,2,0,L|88:144,1,60,0|0,0:0|0:0,0:0:0:0:
103,178,41697,2,0,L|170:184,1,60,2|0,1:2|0:0,0:0:0:0:
239,230,42036,2,0,P|245:262|249:306,1,60,10|0,1:2|0:0,0:0:0:0:
253,334,42290,2,0,P|283:326|331:332,1,60,2|10,1:2|1:2,0:0:0:0:
356,331,42544,1,8,1:2:0:0:
445,340,42714,6,0,P|449:293|464:238,1,90,2|0,1:2|1:0,0:0:0:0:
483,213,43053,2,0,P|447:214|418:206,1,60,10|0,1:2|1:0,0:0:0:0:
402,168,43307,2,0,P|366:167|337:175,1,60,2|0,1:2|0:0,0:0:0:0:
300,189,43561,1,2,1:2:0:0:
220,146,43731,2,0,L|212:41,1,90,2|2,1:2|1:2,0:0:0:0:
188,18,44070,2,0,P|155:10|124:13,1,60,10|0,1:2|0:0,0:0:0:0:
84,18,44324,1,2,1:2:0:0:
0,123,44578,1,10,1:2:0:0:
15,256,44832,6,0,L|22:323,1,60,2|0,1:2|0:0,0:0:0:0:
24,360,45086,2,0,P|56:349|101:353,1,60,8|0,1:2|0:0,0:0:0:0:
127,351,45341,1,2,1:2:0:0:
203,301,45510,2,0,L|209:232,1,60,2|0,1:2|0:0,0:0:0:0:
246,216,45764,2,0,L|240:148,1,60,0|0,1:0|0:0,0:0:0:0:
286,78,46103,2,0,P|317:70|355:77,1,60,8|2,1:2|1:2,0:0:0:0:
389,83,46358,2,0,P|420:91|458:84,1,60,2|8,1:2|1:2,0:0:0:0:
491,77,46612,1,8,1:2:0:0:
494,211,46866,6,0,L|489:279,1,60,6|0,1:2|0:0,0:0:0:0:
481,315,47120,2,0,P|448:308|413:313,1,60,10|0,1:2|1:0,0:0:0:0:
393,346,47375,2,0,P|360:353|325:348,1,60,2|0,1:2|0:0,0:0:0:0:
290,339,47629,1,10,1:2:0:0:
208,302,47798,2,0,L|216:196,1,90,0|0,1:0|1:0,0:0:0:0:
242,175,48137,2,0,L|236:95,1,60,2|0,1:2|0:0,0:0:0:0:
234,69,48392,1,2,1:2:0:0:
105,26,48646,1,10,1:2:0:0:
0,111,48900,6,0,L|9:217,1,90,2|8,1:0|1:2,0:0:0:0:
37,332,49409,2,0,P|81:325|139:351,1,90,2|8,1:0|1:2,0:0:0:0:
254,371,49917,1,2,1:0:0:0:
281,285,50086,1,8,1:2:0:0:
281,285,50171,2,0,L|274:212,1,60,10|0,1:2|0:0,0:0:0:0:
250,188,50425,2,0,L|259:117,1,60,2|8,1:0|1:2,0:0:0:0:
248,84,50679,1,8,1:2:0:0:
319,29,50849,6,0,P|362:18|409:33,1,90,2|8,1:2|1:2,0:0:0:0:
440,57,51188,2,0,L|447:128,1,60,2|2,1:2|1:2,0:0:0:0:
484,140,51442,2,0,L|477:218,1,60,2|2,1:2|1:2,0:0:0:0:
474,245,51697,1,10,1:2:0:0:
417,314,51866,2,0,P|375:326|318:307,1,90,2|0,1:0|0:0,0:0:0:0:
290,295,52205,2,0,L|282:196,1,90,8|2,1:2|1:2,0:0:0:0:
226,134,52629,1,8,1:2:0:0:
226,134,52714,2,0,P|191:125|155:127,1,60,8|0,1:2|0:0,0:0:0:0:
123,135,52968,6,0,B|96:211|150:203|119:290,1,150,6|8,1:0|1:2,0:0:0:0:
111,325,53476,2,0,P|180:317|242:386,1,150,10|8,1:2|1:2,0:0:0:0:
281,374,53985,2,0,L|436:366,1,150,10|8,1:2|1:2,0:0:0:0:
472,349,54493,2,0,P|458:303|473:254,1,90,10|2,1:2|1:2,0:0:0:0:
325,33,55256,6,0,L|226:24,1,90,8|8,1:2|1:2,0:0:0:0:
112,79,55764,2,0,P|96:122|114:178,1,90,8|8,1:2|1:2,0:0:0:0:
227,221,56273,2,0,L|336:213,1,90,8|8,1:2|1:2,0:0:0:0:
397,253,56697,2,0,P|412:294|400:350,1,90,2|2,1:2|1:2,0:0:0:0:
354,357,57036,6,0,B|253:322|280:388|172:364,1,179.999994506836,6|0,1:2|0:0,0:0:0:0:
139,329,57544,2,0,L|57:338,1,71.9999978027344,2|8,1:2|1:2,0:0:0:0:
20,310,57798,1,0,1:0:0:0:
4,202,57968,2,0,P|21:126|90:95,1,143.999995605469,2|0,1:2|1:0,0:0:0:0:
183,83,58476,1,0,1:0:0:0:
229,110,58561,2,0,L|358:96,1,107.999996704102,10|2,1:2|1:2,0:0:0:0:
480,174,59070,6,0,P|492:222|474:286,2,107.999996704102,2|2|10,1:2|1:2|1:2,0:0:0:0:
386,227,59748,2,0,L|304:219,1,71.9999978027344,10|0,1:2|0:0,0:0:0:0:
272,185,60002,2,0,L|195:192,1,71.9999978027344,2|0,1:2|0:0,0:0:0:0:
151,215,60256,1,2,1:2:0:0:
105,244,60341,2,0,P|100:276|113:320,1,71.9999978027344,2|0,1:2|1:0,0:0:0:0:
142,357,60595,2,0,L|227:364,1,71.9999978027344,2|0,1:2|0:0,0:0:0:0:
267,371,60849,1,10,1:2:0:0:
425,338,61103,6,0,P|440:289|416:231,1,107.999996704102,2|2,1:2|1:2,0:0:0:0:
340,96,61612,1,2,1:2:0:0:
263,171,61781,2,0,L|186:163,1,71.9999978027344,10|0,1:2|0:0,0:0:0:0:
151,125,62036,2,0,P|121:85|62:74,1,107.999996704102,2|0,1:2|1:0,0:0:0:0:
15,91,62375,2,0,P|24:130|28:179,1,71.9999978027344,2|0,1:2|0:0,0:0:0:0:
68,196,62629,2,0,P|59:235|55:284,1,71.9999978027344,2|0,1:2|0:0,0:0:0:0:
49,320,62883,1,8,1:2:0:0:
204,366,63137,6,0,P|229:362|256:365,5,35.9999989013672,6|2|0|8|8|8,1:2|1:2|0:0|1:2|1:2|1:2,0:0:0:0:
293,369,63646,2,0,P|318:373|345:370,5,35.9999989013672,10|0|8|8|8|8,1:2|0:0|0:2|0:2|0:2|0:2,0:0:0:0:
381,359,64154,2,0,P|406:355|433:358,5,35.9999989013672,10|8|8|8|8|10,0:2|0:2|0:2|0:2|0:2|0:2,0:0:0:0:
470,362,64663,2,0,L|478:242,1,107.999996704102,8|12,0:2|1:2,0:0:0:0:
486,146,65086,1,8,1:2:0:0:
450,105,65171,6,0,P|414:96|378:103,1,71.9999978027344,6|0,1:2|0:0,0:0:0:0:
331,126,65425,2,0,L|254:118,1,71.9999978027344,0|0,1:0|0:0,0:0:0:0:
224,76,65680,2,0,L|147:84,1,71.9999978027344,2|8,1:2|1:2,0:0:0:0:
103,60,65934,1,8,1:2:0:0:
17,124,66103,2,0,B|0:197|44:192|17:285,1,143.999995605469,2|0,1:2|1:0,0:0:0:0:
65,365,66612,1,8,1:2:0:0:
115,345,66697,2,0,L|211:351,1,71.9999978027344,10|0,1:2|0:0,0:0:0:0:
235,325,66951,2,0,P|241:284|231:243,1,71.9999978027344,8|0,1:2|1:0,0:0:0:0:
219,202,67205,6,0,L|147:208,1,71.9999978027344,2|0,1:2|0:0,0:0:0:0:
97,186,67459,2,0,P|88:149|99:107,1,71.9999978027344,2|8,1:2|1:2,0:0:0:0:
112,64,67714,1,10,1:2:0:0:
213,26,67883,1,10,1:2:0:0:
261,50,67968,2,0,L|352:41,1,71.9999978027344,2|0,1:2|1:0,0:0:0:0:
386,39,68222,2,0,P|372:91|365:160,1,107.999996704102,2|0,1:2|1:0,0:0:0:0:
258,158,68646,2,0,P|272:210|279:279,1,107.999996704102,2|0,1:2|0:0,0:0:0:0:
288,316,68985,2,0,P|325:309|374:317,1,71.9999978027344,8|0,1:2|1:0,0:0:0:0:
410,330,69239,5,2,1:2:0:0:
497,193,69493,2,0,L|488:76,1,107.999996704102,6|2,1:2|1:2,0:0:0:0:
391,38,69917,2,0,P|343:52|281:34,1,107.999996704102,10|0,1:2|1:0,0:0:0:0:
235,50,70256,2,0,P|181:33|124:52,1,107.999996704102,2|0,1:2|1:0,0:0:0:0:
85,72,70595,2,0,L|98:224,1,143.999995605469,0|0,0:0|0:0,0:0:0:0:
92,270,71019,2,0,L|42:266,2,35.9999989013672,10|8|8,1:2|1:2|1:2,0:0:0:0:
117,317,71273,5,2,1:2:0:0:
275,283,71527,2,0,L|286:164,1,107.999996704102,6|2,1:2|1:2,0:0:0:0:
347,86,71951,2,0,P|395:68|457:85,1,107.999996704102,10|0,1:2|1:0,0:0:0:0:
480,124,72290,2,0,L|490:239,1,107.999996704102,2|0,1:2|1:0,0:0:0:0:
505,283,72629,2,0,B|431:252|439:312|353:292,1,143.999995605469,2|0,1:2|0:0,0:0:0:0:
314,277,73053,2,0,L|307:362,1,71.9999978027344,8|8,0:0|0:0,0:0:0:0:
258,371,73307,6,0,P|209:353|148:369,1,107.999996704102,6|8,1:0|0:2,0:0:0:0:
102,375,73646,2,0,L|96:316,3,35.9999989013672,8|8|8|8,0:2|0:2|0:2|0:2,0:0:0:0:
56,305,73985,2,0,L|62:251,3,35.9999989013672,8|8|8|8,0:2|3:0|0:2|0:2,0:0:0:0:
96,229,74324,2,0,L|92:193,3,35.9999989013672,8|8|8|8,0:2|0:2|0:2|3:0,0:0:0:0:
38,98,74748,1,0,1:0:0:0:
65,52,74832,2,0,P|99:39|143:47,1,71.9999978027344,8|0,3:0|0:0,0:0:0:0:
180,70,75086,1,8,3:0:0:0:
336,113,75341,6,0,L|455:103,2,107.999996704102,8|8|8,3:0|3:0|3:0,0:0:0:0:
217,222,76103,1,8,3:0:0:0:
336,331,76358,2,0,P|342:272|357:213,1,107.999996704102,2|0,1:2|1:0,0:0:0:0:
269,156,76781,1,8,1:2:0:0:
233,115,76866,2,0,L|158:120,1,71.9999978027344,8|8,1:2|1:2,0:0:0:0:
113,93,77120,1,8,1:2:0:0:
35,147,77372,5,6,1:2:0:0:
134,364,77880,2,0,P|169:354|212:353,1,62.9999980773926,2|2,0:2|0:2,0:0:0:0:
315,352,78389,2,0,P|350:362|393:363,1,62.9999980773926,2|2,0:2|0:2,0:0:0:0:
486,316,78897,5,2,0:2:0:0:
510,77,79406,1,2,0:2:0:0:
272,49,79914,1,2,0:2:0:0:
248,288,80422,5,2,0:2:0:0:
34,179,80931,2,0,P|29:148|36:109,1,62.9999980773926,2|2,0:2|0:2,0:0:0:0:
145,159,81439,2,0,P|149:190|144:221,1,62.9999980773926,2|2,0:2|0:2,0:0:0:0:
91,328,81948,5,2,0:2:0:0:
239,140,82456,1,2,0:2:0:0:
381,332,82965,1,2,0:2:0:0:
239,140,83473,5,2,0:2:0:0:
461,50,83982,2,0,P|454:100|452:132,1,62.9999980773926,2|2,0:2|0:2,0:0:0:0:
352,176,84490,2,0,P|359:226|361:258,1,62.9999980773926,2|2,0:2|0:2,0:0:0:0:
292,338,84999,5,2,0:2:0:0:
54,365,85507,1,2,0:2:0:0:
8,129,86016,2,0,L|78:122,1,62.9999980773926,2|2,0:2|0:2,0:0:0:0:
155,38,86524,5,2,0:2:0:0:
393,20,87033,1,2,0:2:0:0:
499,234,87541,1,2,0:2:0:0:
184,368,88050,6,0,L|173:268,1,90,10|8,1:2|1:2,0:0:0:0:
307,255,88558,2,0,L|315:181,1,60,8|8,1:2|1:2,0:0:0:0:
294,154,88812,2,0,P|263:141|235:142,1,60,8|8,1:2|0:2,0:0:0:0:
191,140,89067,2,0,P|188:120|187:104,5,30,8|8|8|8|8|8,0:2|0:2|0:2|0:2|0:2|0:2,0:0:0:0:
190,65,89575,5,6,1:2:0:0:
