osu file format v14

[General]
AudioFilename: audio.mp3
AudioLeadIn: 0
PreviewTime: 57036
Countdown: 0
SampleSet: Soft
StackLeniency: 0.7
Mode: 0
LetterboxInBreaks: 0
WidescreenStoryboard: 0

[Editor]
Bookmarks: 22456,74829
DistanceSpacing: 0.8
BeatDivisor: 6
GridSize: 32
TimelineZoom: 1.900001

[Metadata]
Title:holy night celebration (feat. lamie*) (Cut Ver.)
TitleUnicode:holy night celebration (feat. lamie*) (Cut Ver.)
Artist:Ym1024
ArtistUnicode:Ym1024
Creator:Shunao
Version:Asaiga's Insane
Source:G2R2014 "GO BACK 2 YOUR ROOTS"
Tags:christmas xmas jpop j-pop japanese pop shogunmoon asaiga agatsu
BeatmapID:1848018
BeatmapSetID:884084

[Difficulty]
HPDrainRate:5
CircleSize:4
OverallDifficulty:7.5
ApproachRate:9
SliderMultiplier:2.18
SliderTickRate:1

[Events]
//Background and Video events
0,0,"christmaas.jpg",0,0
//Break Periods
//Storyboard Layer 0 (Background)
//Storyboard Layer 1 (Fail)
//Storyboard Layer 2 (Pass)
//Storyboard Layer 3 (Foreground)
//Storyboard Layer 4 (Overlay)
//Storyboard Sound Samples

[TimingPoints]
87,508.474576271186,4,2,8,30,1,0
3137,-100,4,2,8,40,0,0
4154,-100,4,2,8,60,0,0
22459,-125,4,2,8,50,0,0
25764,-83.3333333333333,4,2,8,50,0,0
26781,-125,4,2,8,50,0,0
29748,-83.3333333333333,4,2,8,50,0,0
30595,-125,4,2,8,50,0,0
33900,-83.3333333333333,4,2,8,50,0,0
35341,-125,4,2,8,50,0,0
36697,-166.666666666667,4,2,8,50,0,0
38731,-100,4,2,8,60,0,0
42036,-83.3333333333333,4,2,8,60,0,0
43053,-100,4,2,8,60,0,0
46019,-83.3333333333333,4,2,8,60,0,0
46866,-100,4,2,8,60,0,0
50171,-83.3333333333333,4,2,8,60,0,0
51442,-100,4,2,8,60,0,0
52968,-83.3333333333333,4,2,8,60,0,0
56697,-62.5,4,2,8,60,0,0
57036,-83.3333333333333,4,2,8,80,0,1
60256,-71.4285714285714,4,2,8,80,0,1
61103,-62.5,4,2,8,80,0,1
61781,-83.3333333333333,4,2,8,80,0,1
69493,-71.4285714285714,4,2,8,80,0,1
69917,-83.3333333333333,4,2,8,80,0,1
71527,-71.4285714285714,4,2,8,80,0,1
71951,-83.3333333333333,4,2,8,80,0,1
75341,-100,4,2,8,80,0,1
77372,508.474576271186,3,2,8,50,1,0
77880,-100,3,2,8,35,0,0
88050,-100,3,2,8,40,0,0
89575,508.474576271186,4,2,8,60,1,0
89575,-166.666666666667,4,2,8,60,0,0

[Colours]
Combo1 : 254,231,139
Combo2 : 192,20,46
Combo3 : 0,168,43
SliderBorder : 100,150,80
SliderTrackOverride : 50,33,29

[HitObjects]
232,136,3137,6,0,P|222:120|210:106,2,36.3333333333333,8|8|8,0:2|0:2|0:2,0:0:0:0:
312,168,3392,2,0,P|327:158|341:146,2,36.3333333333333,8|8|8,0:2|0:2|0:2,0:0:0:0:
280,248,3646,2,0,P|289:263|301:277,2,36.3333333333333,8|8|8,0:2|0:2|0:2,0:0:0:0:
200,216,3900,2,0,P|184:225|170:237,2,36.3333333333333,8|8|8,0:2|0:2|0:2,0:0:0:0:
232,136,4154,6,0,B|182:113|182:113|125:120,1,109,6|8,1:0|1:2,0:0:0:0:
13,248,4663,2,0,L|2:166,1,72.6666666666667,2|0,1:0|1:0,0:0:0:0:
103,209,4917,2,0,L|112:281,1,72.6666666666667,8|0,1:2|1:0,0:0:0:0:
128,365,5171,2,0,P|182:369|229:338,1,109,2|8,1:0|1:2,0:0:0:0:
254,149,5680,2,0,B|250:185|250:185|267:219,1,72.6666666666667,2|0,1:0|1:0,0:0:0:0:
396,309,5934,2,0,B|400:273|400:273|383:239,1,72.6666666666667,8|0,1:2|1:0,0:0:0:0:
336,172,6188,5,2,1:0:0:0:
307,373,6442,1,8,1:2:0:0:
496,297,6697,1,0,1:0:0:0:
265,255,6951,1,8,1:2:0:0:
365,152,7205,6,0,P|347:121|307:95,1,72.6666666666667,0|0,1:0|1:0,0:0:0:0:
261,1,7459,2,0,P|243:32|240:79,1,72.6666666666667,8|0,1:2|1:0,0:0:0:0:
180,169,7714,2,0,P|215:168|258:147,1,72.6666666666667,0|8,1:0|1:2,0:0:0:0:
153,57,7968,2,0,P|117:57|74:78,1,72.6666666666667,8|0,1:2|0:0,0:0:0:0:
0,126,8222,6,0,B|-15:166|-15:166|1:235,1,109,6|8,1:0|1:2,0:0:0:0:
178,227,8731,2,0,L|99:215,1,72.6666666666667,2|0,1:0|1:0,0:0:0:0:
42,307,8985,2,0,L|113:317,1,72.6666666666667,8|0,1:2|1:0,0:0:0:0:
262,231,9239,2,0,P|251:184|227:156,1,72.6666666666667,2|0,1:0|1:0,0:0:0:0:
199,310,9493,2,0,P|198:346|213:379,1,72.6666666666667,8|0,1:2|1:0,0:0:0:0:
389,337,9748,2,0,L|281:328,1,109,2|8,1:0|1:2,0:0:0:0:
466,192,10256,6,0,B|484:224|484:224|483:259,1,72.6666666666667,2|0,1:0|1:0,0:0:0:0:
474,345,10510,1,8,1:2:0:0:
324,254,10764,2,0,L|396:248,1,72.6666666666667,0|0,1:0|1:0,0:0:0:0:
309,159,11019,2,0,L|236:164,1,72.6666666666667,0|0,1:0|1:0,0:0:0:0:
154,172,11273,1,0,1:0:0:0:
266,335,11442,5,8,1:2:0:0:
266,335,11527,2,0,P|232:317|187:317,1,72.6666666666667,8|0,1:2|1:0,0:0:0:0:
68,352,11781,2,0,P|100:331|123:292,1,72.6666666666667,0|8,1:0|1:2,0:0:0:0:
154,172,12036,2,0,P|155:210|177:249,1,72.6666666666667,8|0,1:2|1:0,0:0:0:0:
341,206,12290,6,0,B|291:183|291:183|234:190,1,109,6|8,1:0|1:2,0:0:0:0:
441,70,12799,2,0,L|368:79,1,72.6666666666667,2|0,1:0|1:0,0:0:0:0:
216,100,13053,2,0,L|288:91,1,72.6666666666667,8|0,1:2|1:0,0:0:0:0:
341,206,13307,2,0,B|388:178|388:178|442:180,1,109,2|8,1:0|1:2,0:0:0:0:
292,343,13816,2,0,P|278:309|277:273,1,72.6666666666667,2|0,1:0|1:0,0:0:0:0:
427,341,14070,2,0,P|425:305|411:272,1,72.6666666666667,8|0,1:2|0:0,0:0:0:0:
341,206,14324,5,2,1:0:0:0:
148,230,14578,1,8,1:2:0:0:
288,90,14833,1,0,1:0:0:0:
277,273,15087,1,8,1:2:0:0:
159,99,15341,6,0,P|151:64|157:26,1,72.6666666666667,0|0,1:0|1:0,0:0:0:0:
68,115,15595,2,0,P|63:79|47:47,1,72.6666666666667,8|0,1:2|1:0,0:0:0:0:
188,180,15849,2,0,P|219:163|257:159,1,72.6666666666667,0|8,1:0|1:2,0:0:0:0:
70,203,16103,2,0,P|34:197|0:205,1,72.6666666666667,8|0,1:2|0:0,0:0:0:0:
140,251,16358,6,0,B|160:294|160:294|156:358,1,109,6|8,1:0|1:2,0:0:0:0:
320,253,16867,2,0,L|241:241,1,72.6666666666667,2|0,1:0|0:0,0:0:0:0:
330,162,17121,2,0,L|401:172,1,72.6666666666667,8|0,1:2|1:0,0:0:0:0:
471,101,17375,2,0,P|433:67|361:71,1,109,2|8,1:0|1:2,0:0:0:0:
225,108,17884,2,0,P|170:109|126:74,1,109,2|8,1:0|1:2,0:0:0:0:
0,205,18392,6,0,B|77:196,1,72.6666666666667,2|0,1:0|0:0,0:0:0:0:
179,189,18646,2,0,P|158:218|150:254,1,72.6666666666667,8|0,1:2|0:0,0:0:0:0:
269,313,18900,2,0,P|261:277|240:247,1,72.6666666666667,2|0,1:0|0:0,0:0:0:0:
347,255,19154,2,0,B|419:263,1,72.6666666666667,8|0,1:2|1:0,0:0:0:0:
512,278,19409,1,2,1:0:0:0:
406,121,19578,5,8,1:2:0:0:
373,119,19663,1,8,1:2:0:0:
240,247,19832,1,8,1:2:0:0:
258,219,19917,1,10,1:2:0:0:
200,44,20086,1,8,1:2:0:0:
215,73,20171,2,0,L|261:64,2,36.3333333333333,8|8|8,1:2|1:2|1:2,0:0:0:0:
138,120,20425,6,0,B|121:154|121:154|137:234,1,109,4|0,1:0|1:0,0:0:0:0:
254,322,20934,2,0,B|271:288|271:288|258:219,1,109,0|0,1:0|1:0,0:0:0:0:
115,95,21442,6,0,B|98:129|98:129|114:209,1,109,0|0,1:0|1:0,0:0:0:0:
275,349,21951,2,0,B|292:315|292:315|279:246,1,109,0|0,1:0|1:0,0:0:0:0:
250,66,22459,5,4,0:3:0:0:
379,99,22714,2,0,P|350:105|322:122,1,58.1333333333333,2|0,1:2|0:0,0:0:0:0:
272,196,22968,1,2,0:0:0:0:
138,129,23137,2,0,P|167:129|198:141,1,58.1333333333333,8|0,1:2|0:0,0:0:0:0:
272,196,23392,2,0,L|279:274,1,58.1333333333333,2|0,1:2|0:0,0:0:0:0:
291,345,23646,1,0,1:0:0:0:
291,345,23731,2,0,P|338:349|383:326,1,87.2,2|2,1:2|1:2,0:0:0:0:
452,131,24239,2,0,B|437:156|437:156|442:191,1,58.1333333333333,2|8,1:2|1:2,0:0:0:0:
478,260,24493,6,0,B|396:284|422:235|333:258,1,145.333333333333,2|0,1:2|0:0,0:0:0:0:
252,278,25002,1,2,1:2:0:0:
261,134,25171,2,0,P|272:161|278:190,1,58.1333333333333,0|0,1:0|0:0,0:0:0:0:
268,333,25425,2,0,P|256:306|251:277,1,58.1333333333333,0|0,1:0|0:0,0:0:0:0:
183,219,25680,1,8,1:2:0:0:
183,219,25764,6,0,L|91:230,1,87.1999973388673,2|2,1:2|1:2,0:0:0:0:
61,236,26019,1,2,1:2:0:0:
182,52,26188,2,0,B|87:40,1,87.1999973388673,2|0,1:2|0:0,0:0:0:0:
0,134,26442,2,0,B|47:128|47:128|73:142|73:142|126:138,1,130.799996008301,8|0,1:2|1:0,0:0:0:0:
157,147,26781,5,2,1:2:0:0:
128,347,27036,1,2,1:2:0:0:
140,272,27205,2,0,P|178:249|224:259,1,87.2,2|2,1:2|1:2,0:0:0:0:
233,265,27544,1,8,1:2:0:0:
318,209,27714,1,0,1:0:0:0:
318,209,27798,2,0,P|350:235|405:231,2,87.2,2|2|2,1:2|1:2|1:2,0:0:0:0:
213,66,28561,6,0,L|225:122,1,58.1333333333333,2|0,1:2|0:0,0:0:0:0:
151,204,28815,2,0,L|138:147,1,58.1333333333333,2|0,1:2|1:0,0:0:0:0:
131,119,29070,1,2,1:2:0:0:
293,0,29239,2,0,L|305:56,1,58.1333333333333,10|0,1:2|0:0,0:0:0:0:
263,149,29493,2,0,L|276:205,1,58.1333333333333,2|8,1:2|1:2,0:0:0:0:
299,307,29748,6,0,B|343:298|343:298|383:309,1,87.1999973388673,8|8,1:2|1:2,0:0:0:0:
468,219,30002,1,8,1:2:0:0:
468,219,30086,2,0,B|425:225|425:225|382:208,1,87.1999973388673,8|0,3:0|0:0,0:0:0:0:
322,107,30341,2,0,B|363:102|363:102|406:120,1,87.1999973388673,8|8,3:0|3:0,0:0:0:0:
350,191,30595,5,12,3:2:0:0:
274,49,30849,2,0,P|266:76|248:99,1,58.1333333333333,2|0,1:2|0:0,0:0:0:0:
161,143,31103,1,2,1:2:0:0:
263,246,31273,2,0,P|255:219|238:195,1,58.1333333333333,10|0,1:2|0:0,0:0:0:0:
161,143,31527,2,0,L|85:138,1,58.1333333333333,2|0,1:2|0:0,0:0:0:0:
21,135,31781,1,0,1:2:0:0:
21,135,31866,2,0,P|1:177|7:227,1,87.2,2|2,1:2|1:2,0:0:0:0:
164,346,32375,2,0,B|179:321|179:321|174:286,1,58.1333333333333,8|0,1:2|0:0,0:0:0:0:
33,295,32629,6,0,B|115:319|89:270|174:292,1,145.333333333333,2|0,1:2|0:0,0:0:0:0:
264,307,33137,1,2,1:2:0:0:
253,172,33307,2,0,P|240:200|231:234,1,58.1333333333333,2|0,1:2|0:0,0:0:0:0:
330,367,33561,2,0,P|341:344|349:312,1,58.1333333333333,8|0,1:2|0:0,0:0:0:0:
392,235,33815,1,8,1:2:0:0:
392,235,33900,6,0,P|429:259|472:258,1,87.1999973388673,2|2,1:2|1:2,0:0:0:0:
505,252,34154,1,2,1:2:0:0:
351,78,34324,2,0,L|335:173,1,87.1999973388673,2|0,1:2|0:0,0:0:0:0:
257,321,34578,2,0,L|271:235,1,87.1999973388673,2|0,1:2|0:0,0:0:0:0:
228,105,34832,6,0,P|165:90|107:125,1,130.799996008301,12|2,1:2|1:2,0:0:0:0:
48,182,35171,1,2,1:2:0:0:
183,231,35341,2,0,L|177:174,1,58.1333333333333,8|0,1:2|0:0,0:0:0:0:
228,105,35595,2,0,P|254:92|286:90,1,58.1333333333333,2|0,1:2|0:0,0:0:0:0:
365,131,35849,1,0,1:0:0:0:
365,131,35934,2,0,P|390:144|423:144,1,58.1333333333333,8|0,1:2|0:0,0:0:0:0:
494,97,36188,6,0,B|509:123|509:123|498:188,1,87.2,2|8,1:2|1:2,0:0:0:0:
486,268,36527,1,8,1:2:0:0:
486,268,36612,1,8,1:2:0:0:
486,268,36697,6,0,B|459:277|434:307|434:307|413:295|385:294,1,108.999996673584,2|0,1:0|0:0,0:0:0:0:
412,203,37205,2,0,B|392:202|371:190|371:190|346:220|319:229,1,108.999996673584,2|0,1:0|0:0,0:0:0:0:
266,300,37714,2,0,P|211:303|169:271,1,108.999996673584,2|0,1:0|0:0,0:0:0:0:
195,179,38222,2,0,P|140:176|98:208,1,108.999996673584,2|0,1:0|1:0,0:0:0:0:
63,295,38731,5,6,1:0:0:0:
284,368,38986,2,0,P|269:338|268:288,1,72.6666666666667,10|0,1:2|0:0,0:0:0:0:
296,213,39240,1,2,1:2:0:0:
403,321,39409,2,0,P|397:287|368:246,1,72.6666666666667,2|0,1:2|0:0,0:0:0:0:
296,213,39664,2,0,L|272:138,1,72.6666666666667,2|0,1:2|0:0,0:0:0:0:
203,96,39918,1,0,1:0:0:0:
203,96,40003,2,0,P|256:93|295:55,1,109,10|0,1:2|0:0,0:0:0:0:
71,141,40511,2,0,P|32:141|-6:115,1,72.6666666666667,10|0,1:2|0:0,0:0:0:0:
116,51,40765,6,0,B|87:160|147:128|118:228,1,181.666666666667,2|0,1:0|0:0,0:0:0:0:
94,313,41274,1,2,1:2:0:0:
280,243,41443,2,0,L|209:228,1,72.6666666666667,0|0,0:0|0:0,0:0:0:0:
170,352,41697,2,0,L|241:337,1,72.6666666666667,2|0,1:2|0:0,0:0:0:0:
326,358,41952,1,8,1:2:0:0:
326,358,42036,6,0,P|368:359|406:331,1,87.1999973388673,10|0,1:2|0:0,0:0:0:0:
432,297,42291,1,2,1:2:0:0:
512,172,42459,2,0,P|470:171|432:199,1,87.1999973388673,10|0,1:2|0:0,0:0:0:0:
343,277,42714,1,2,1:2:0:0:
343,277,42798,2,0,B|336:243|336:243|345:224|345:224|340:192,1,87.1999973388673,6|0,1:2|1:0,0:0:0:0:
221,138,43053,6,0,L|107:162,1,109,10|0,1:2|0:0,0:0:0:0:
142,337,43476,1,0,0:0:0:0:
142,337,43561,2,0,L|171:241,1,72.6666666666667,2|2,1:2|1:2,0:0:0:0:
175,233,43815,1,0,1:0:0:0:
6,169,43985,1,2,1:2:0:0:
6,169,44070,2,0,L|84:254,2,109,10|2|10,1:2|1:2|1:2,0:0:0:0:
220,44,44833,6,0,L|139:58,1,72.6666666666667,2|0,1:2|0:0,0:0:0:0:
114,160,45087,2,0,L|190:146,1,72.6666666666667,8|0,1:2|0:0,0:0:0:0:
222,156,45341,1,2,1:2:0:0:
321,28,45511,2,0,P|338:62|337:97,1,72.6666666666667,2|0,1:2|0:0,0:0:0:0:
306,194,45765,2,0,L|407:230,1,72.6666666666667,0|0,1:0|0:0,0:0:0:0:
467,261,46019,6,0,P|452:303|416:329,1,87.1999973388673,10|0,1:2|0:0,0:0:0:0:
323,365,46273,1,2,1:2:0:0:
323,365,46358,2,0,B|240:335,1,87.1999973388673,2|8,1:2|1:2,0:0:0:0:
139,290,46612,2,0,P|120:328|127:371,1,87.1999973388673,8|0,1:2|0:0,0:0:0:0:
67,322,46867,5,6,1:2:0:0:
221,225,47121,2,0,L|308:216,1,72.6666666666667,10|0,1:2|1:0,0:0:0:0:
382,248,47375,1,2,1:2:0:0:
430,81,47545,2,0,L|403:148,1,72.6666666666667,0|0,0:0|0:0,0:0:0:0:
308,121,47799,2,0,L|268:52,1,72.6666666666667,0|0,1:0|0:0,0:0:0:0:
204,128,48053,1,0,1:0:0:0:
204,128,48138,2,0,P|160:104|102:111,1,109,2|2,1:2|1:2,0:0:0:0:
44,343,48647,2,0,B|51:307|51:307|37:272,1,72.6666666666667,10|0,1:2|0:0,0:0:0:0:
0,195,48901,6,0,B|82:171|56:220|141:198,1,145.333333333333,2|0,1:0|0:0,0:0:0:0:
227,165,49409,1,2,1:0:0:0:
198,328,49579,2,0,P|203:292|221:252,1,72.6666666666667,0|0,1:0|0:0,0:0:0:0:
321,156,49833,2,0,P|315:191|299:224,1,72.6666666666667,0|0,1:0|0:0,0:0:0:0:
348,315,50087,1,8,1:2:0:0:
348,315,50172,6,0,L|455:304,1,87.1999973388673,10|0,1:2|0:0,0:0:0:0:
479,300,50426,1,2,1:0:0:0:
378,60,50595,2,0,B|354:96|354:96|355:143,1,87.1999973388673,8|0,1:2|0:0,0:0:0:0:
439,218,50849,2,0,B|463:182|463:182|462:135,1,87.1999973388673,2|0,1:2|0:0,0:0:0:0:
304,241,51103,6,0,B|259:192|259:192|257:116,1,130.799996008301,8|2,1:2|1:2,0:0:0:0:
220,44,51442,2,0,P|182:50|142:42,1,72.6666666666667,2|0,1:2|0:0,0:0:0:0:
112,35,51697,1,10,1:2:0:0:
69,206,51867,2,0,B|57:240|57:240|69:323,1,109,2|0,1:0|0:0,0:0:0:0:
149,367,52206,2,0,P|184:377|221:376,1,72.6666666666667,8|0,1:2|1:0,0:0:0:0:
307,320,52459,6,0,B|322:212,1,109,2|8,1:2|1:2,0:0:0:0:
370,128,52799,1,0,0:0:0:0:
370,128,52884,1,0,0:0:0:0:
370,128,52969,6,0,P|291:120|227:228,1,217.999993347168,6|0,1:0|0:0,0:0:0:0:
230,305,53476,2,0,P|166:222|65:245,1,217.999993347168,10|8,1:2|1:2,0:0:0:0:
131,317,53985,2,0,B|175:242|175:242|153:108,1,217.999993347168,10|8,1:2|1:2,0:0:0:0:
198,35,54493,2,0,B|154:110|154:110|161:158,1,130.799996008301,10|2,1:2|1:2,0:0:0:0:
66,244,55256,5,8,1:2:0:0:
104,248,55510,1,8,1:2:0:0:
142,252,55764,1,8,1:2:0:0:
181,256,56019,1,8,1:2:0:0:
219,260,56273,1,8,1:2:0:0:
257,264,56527,1,8,1:2:0:0:
274,278,56697,6,0,B|301:228|296:165|296:165|310:203|340:218,1,174.4,2|6,1:2|1:2,0:0:0:0:
365,291,57036,6,0,P|409:293|451:272,1,87.1999973388673,6|0,1:2|0:0,0:0:0:0:
511,196,57290,2,0,L|494:103,1,87.1999973388673,0|0,1:0|0:0,0:0:0:0:
443,34,57544,1,2,1:2:0:0:
328,211,57714,1,8,1:2:0:0:
332,181,57798,1,0,1:0:0:0:
249,45,57968,1,2,1:2:0:0:
235,72,58053,6,0,P|170:82|120:39,1,130.799996008301,0|0,1:0|1:0,0:0:0:0:
14,177,58476,1,0,1:0:0:0:
0,149,58561,2,0,L|107:160,1,87.1999973388673,10|0,1:2|0:0,0:0:0:0:
241,226,58815,2,0,L|134:237,1,87.1999973388673,2|8,1:2|1:2,0:0:0:0:
266,129,59070,6,0,P|307:146|332:183,1,87.1999973388673,2|0,1:2|0:0,0:0:0:0:
463,80,59324,2,0,L|356:91,1,87.1999973388673,2|0,1:2|1:0,0:0:0:0:
294,29,59578,1,10,1:2:0:0:
228,210,59748,1,10,1:2:0:0:
257,204,59832,1,0,1:0:0:0:
465,278,60002,2,0,L|358:267,1,87.1999973388673,2|0,1:2|0:0,0:0:0:0:
286,310,60256,5,2,1:2:0:0:
286,310,60341,2,0,B|275:260|275:260|296:208,1,101.733330228678,2|0,1:2|1:0,0:0:0:0:
186,73,60595,2,0,B|234:88|234:88|269:132,1,101.733330228678,2|0,1:2|0:0,0:0:0:0:
442,106,60849,2,0,B|404:140|404:140|348:148,1,101.733330228678,10|0,1:2|1:0,0:0:0:0:
201,201,61103,6,0,B|79:210|122:252|24:284|-56:242|-30:77|131:107|78:222,1,348.8,2|0,1:2|0:0,0:0:0:0:
113,338,61781,2,0,P|153:321|196:314,1,87.1999973388673,10|0,1:2|0:0,0:0:0:0:
286,310,62036,1,2,1:2:0:0:
286,310,62120,2,0,L|299:210,1,87.1999973388673,0|0,1:0|1:0,0:0:0:0:
394,177,62375,2,0,L|382:263,1,87.1999973388673,2|0,1:2|0:0,0:0:0:0:
485,331,62629,2,0,P|490:288|475:247,1,87.1999973388673,2|0,1:2|0:0,0:0:0:0:
484,76,62883,2,0,P|478:118|493:159,1,87.1999973388673,8|0,1:2|0:0,0:0:0:0:
394,177,63137,5,6,1:2:0:0:
394,177,63222,2,0,B|355:155|355:155|307:159,2,87.1999973388673,2|8|8,1:2|1:2|1:2,0:0:0:0:
432,254,63646,2,0,B|485:245,4,43.5999986694336,10|0|8|8|8,1:2|0:0|0:2|0:2|0:2,0:0:0:0:
356,273,64070,5,8,0:2:0:0:
323,260,64154,1,10,0:2:0:0:
288,265,64239,1,8,0:2:0:0:
262,289,64324,1,8,0:2:0:0:
237,313,64409,1,8,0:2:0:0:
203,320,64493,1,8,0:2:0:0:
170,307,64578,1,10,0:2:0:0:
145,281,64663,5,8,0:2:0:0:
257,120,64832,1,0,1:0:0:0:
251,150,64917,1,12,1:2:0:0:
325,334,65086,1,8,1:2:0:0:
333,304,65171,6,0,L|425:297,1,87.1999973388673,6|0,1:2|0:0,0:0:0:0:
485,227,65425,2,0,P|486:185|465:145,1,87.1999973388673,0|0,1:0|0:0,0:0:0:0:
397,79,65680,1,2,1:2:0:0:
248,179,65849,1,8,1:2:0:0:
275,169,65934,1,8,1:2:0:0:
122,58,66103,1,2,1:2:0:0:
92,64,66188,6,0,B|76:105|76:105|101:204,1,130.799996008301,0|0,1:0|1:0,0:0:0:0:
105,316,66612,1,8,1:2:0:0:
82,294,66697,2,0,L|180:272,1,87.1999973388673,10|0,1:2|0:0,0:0:0:0:
299,188,66951,2,0,L|201:166,1,87.1999973388673,8|0,1:2|1:0,0:0:0:0:
289,328,67205,6,0,P|326:306|348:269,1,87.1999973388673,2|0,1:2|0:0,0:0:0:0:
373,106,67459,2,0,L|393:190,1,87.1999973388673,2|8,1:2|1:2,0:0:0:0:
468,238,67714,1,10,1:2:0:0:
285,170,67883,1,10,1:2:0:0:
255,179,67968,1,2,1:2:0:0:
441,37,68137,1,0,1:0:0:0:
466,20,68222,6,0,B|403:36|403:36|339:7,1,130.799996008301,2|0,1:2|1:0,0:0:0:0:
170,81,68646,2,0,P|251:58|313:130,1,174.399994677735,2|8,1:2|1:2,0:0:0:0:
137,263,69154,5,0,1:0:0:0:
137,263,69239,2,0,L|131:176,1,87.1999973388673,2|0,1:2|0:0,0:0:0:0:
231,137,69493,2,0,B|235:188|235:188|221:237|221:237|226:289,1,152.599995343018,6|0,1:2|0:0,0:0:0:0:
378,281,69917,5,10,1:2:0:0:
396,256,70002,2,0,L|307:248,1,87.1999973388673,8|0,1:2|1:0,0:0:0:0:
225,287,70256,2,0,P|175:255|92:280,1,130.799996008301,2|0,1:2|1:0,0:0:0:0:
0,162,70680,2,0,P|62:174|117:142,1,130.799996008301,2|0,1:2|0:0,0:0:0:0:
206,82,71019,1,10,1:2:0:0:
206,82,71103,1,8,1:2:0:0:
206,82,71188,1,8,1:2:0:0:
206,82,71273,6,0,L|198:182,1,87.1999973388673,2|0,1:2|0:0,0:0:0:0:
298,209,71527,2,0,B|302:158|302:158|288:109|288:109|292:58,1,152.599995343018,6|0,1:2|0:0,0:0:0:0:
440,128,71951,5,10,1:2:0:0:
463,108,72036,2,0,L|372:100,1,87.1999973388673,8|0,1:2|1:0,0:0:0:0:
291,58,72290,2,0,P|241:90|158:65,1,130.799996008301,2|0,1:2|1:0,0:0:0:0:
80,176,72714,2,0,P|142:163|197:195,1,130.799996008301,0|0,0:0|0:0,0:0:0:0:
267,271,73053,1,8,0:0:0:0:
267,271,73137,1,8,0:0:0:0:
267,271,73222,1,8,0:0:0:0:
267,271,73307,6,0,B|304:247|304:247|367:253,1,87.1999973388673,6|0,1:0|0:0,0:0:0:0:
402,319,73561,2,0,L|388:389,2,43.5999986694336,8|8|8,0:2|0:2|0:2,0:0:0:0:
473,266,73815,5,8,0:2:0:0:
491,236,73900,1,8,0:2:0:0:
495,201,73985,1,8,0:2:0:0:
490,166,74070,1,8,3:0:0:0:
472,136,74154,1,8,0:2:0:0:
442,117,74239,5,8,0:2:0:0:
442,117,74324,2,0,L|454:53,1,43.5999986694336,8|8,0:2|0:2,0:0:0:0:
358,52,74493,1,8,0:2:0:0:
358,52,74578,2,0,L|346:-12,1,43.5999986694336,8|0,3:0|1:0,0:0:0:0:
276,88,74748,5,0,1:0:0:0:
276,88,74832,2,0,L|267:130,1,43.5999986694336,8|0,3:0|0:0,0:0:0:0:
191,59,75002,1,0,0:0:0:0:
191,59,75087,2,0,L|179:-5,1,43.5999986694336,8|0,3:0|0:0,0:0:0:0:
0,124,75341,5,8,3:0:0:0:
36,227,75595,2,0,P|90:219|160:216,1,109,8|8,3:0|3:0,0:0:0:0:
201,319,76103,1,8,3:0:0:0:
289,256,76358,2,0,P|344:252|403:238,1,109,2|0,1:2|1:0,0:0:0:0:
492,273,76781,5,8,1:2:0:0:
492,273,76866,1,8,1:2:0:0:
404,134,77036,1,8,1:2:0:0:
404,134,77120,2,0,L|321:153,1,72.6666666666667,8|0,1:2|0:0,0:0:0:0:
256,192,77372,5,6,1:2:0:0:
59,312,77880,1,2,0:2:0:0:
107,252,78134,1,2,0:2:0:0:
59,191,78389,1,2,0:2:0:0:
112,137,78643,1,2,0:2:0:0:
61,80,78897,5,2,0:2:0:0:
61,80,79406,1,2,0:2:0:0:
61,80,79914,1,2,0:2:0:0:
256,192,80422,5,2,0:2:0:0:
453,72,80931,1,2,0:2:0:0:
405,132,81185,1,2,0:2:0:0:
453,193,81440,1,2,0:2:0:0:
400,247,81694,1,2,0:2:0:0:
451,304,81948,5,2,0:2:0:0:
451,304,82457,1,2,0:2:0:0:
451,304,82965,1,2,0:2:0:0:
256,192,83473,5,2,0:2:0:0:
59,72,83982,1,2,0:2:0:0:
107,132,84236,1,2,0:2:0:0:
59,193,84491,1,2,0:2:0:0:
112,247,84745,1,2,0:2:0:0:
61,304,84999,5,2,0:2:0:0:
61,304,85508,1,2,0:2:0:0:
256,192,86016,5,2,0:2:0:0:
330,178,86270,1,2,0:2:0:0:
405,164,86524,1,2,0:2:0:0:
196,103,87033,1,2,0:2:0:0:
319,262,87541,1,2,0:2:0:0:
163,211,88050,5,10,1:2:0:0:
285,102,88304,1,8,1:2:0:0:
319,262,88558,1,8,1:2:0:0:
256,192,88728,5,8,1:2:0:0:
256,192,88812,1,8,1:2:0:0:
220,305,88982,1,8,0:2:0:0:
220,305,89067,2,0,L|269:295,2,36.3333333333333,8|8|8,0:2|0:2|0:2,0:0:0:0:
159,226,89321,2,0,L|123:218,2,36.3333333333333,8|8|8,0:2|0:2|0:2,0:0:0:0:
256,192,89575,5,6,1:2:0:0:
