osu file format v14

[General]
AudioFilename: Yiruma - River Flows In You (LR Mix).mp3
AudioLeadIn: 0
PreviewTime: 53945
Countdown: 0
SampleSet: Soft
StackLeniency: 0.7
Mode: 3
LetterboxInBreaks: 0
SpecialStyle: 0
WidescreenStoryboard: 1
SamplesMatchPlaybackRate: 1

[Editor]
Bookmarks: 13612,27326,40290,54005,60433
DistanceSpacing: 0.8
BeatDivisor: 4
GridSize: 8
TimelineZoom: 1.2

[Metadata]
Title:River Flows in You (LR Mix)
TitleUnicode:River Flows in You (LR Mix)
Artist:Yiruma
ArtistUnicode:Yiruma
Creator:LordRaika
Version:8K Beginner
Source:
Tags:Instrumental Piano Dubstep Gero Exile-
BeatmapID:787870
BeatmapSetID:299333

[Difficulty]
HPDrainRate:6.4
CircleSize:8
OverallDifficulty:7
ApproachRate:5
SliderMultiplier:1.4
SliderTickRate:1

[Events]
//Background and Video events
0,0,"BG2.jpg",0,0
//Break Periods
//Storyboard Layer 0 (Background)
//Storyboard Layer 1 (Fail)
//Storyboard Layer 2 (Pass)
//Storyboard Layer 3 (Foreground)
//Storyboard Sound Samples
Sample,0,0,"A6H.wav",75
Sample,428,0,"G#6H_Ab6H.wav",75
Sample,857,0,"A6H.wav",75
Sample,1285,0,"G#6H_Ab6H.wav",75
Sample,1714,0,"A6H.wav",75
Sample,2142,0,"E6H.wav",75
Sample,2571,0,"A6H.wav",75
Sample,3000,0,"D6H.wav",90
Sample,6750,0,"A5H.wav",15
Sample,6803,0,"C#6H_Db6H.wav",15
Sample,6857,0,"A6H.wav",75
Sample,7285,0,"G#6H_Ab6H.wav",75
Sample,7714,0,"A6H.wav",75
Sample,8142,0,"G#6H_Ab6H.wav",75
Sample,8571,0,"A6H.wav",75
Sample,9000,0,"E6H.wav",75
Sample,9428,0,"A6H.wav",75
Sample,9857,0,"D6H.wav",90
Sample,13607,0,"A5H.wav",15
Sample,13660,0,"C#6H_Db6H.wav",15
Sample,13714,0,"A6H.wav",75
Sample,14142,0,"G#6H_Ab6H_s.wav",90
Sample,14357,0,"A6H.wav",75
Sample,15000,0,"G#6H_Ab6H_s.wav",90
Sample,15214,0,"A6H.wav",75
Sample,15642,0,"A5H_s.wav",90
Sample,15857,0,"E6H_s.wav",90
Sample,16071,0,"A6H.wav",75
Sample,16500,0,"A5H_s.wav",90
Sample,16714,0,"D6H_s.wav",90
Sample,16928,0,"A5H_s.wav",50
Sample,16982,0,"E5H_s.wav",50
Sample,17035,0,"A5H_s.wav",50
Sample,17089,0,"C#6H_Db6H.wav",90
Sample,17571,0,"D6H.wav",75
Sample,18000,0,"A5H_s.wav",90
Sample,18000,0,"E6H.wav",75
Sample,18428,0,"C#6H_Db6H.wav",75
Sample,18857,0,"B5H.wav",90
Sample,20142,0,"A5H_s.wav",90
Sample,20357,0,"G#5H_Ab5H_s.wav",90
Sample,20571,0,"A5H.wav",90
Sample,21642,0,"E5H_s.wav",70
Sample,21857,0,"A5H_s.wav",90
Sample,22071,0,"B5H_s.wav",90
Sample,22285,0,"C#6H_Db6H.wav",90
Sample,23571,0,"C#6H_Db6H_s.wav",90
Sample,23785,0,"D6H_s.wav",90
Sample,24000,0,"E6H.wav",90
Sample,25285,0,"D6H_s.wav",90
Sample,25500,0,"C#6H_Db6H_s.wav",90
Sample,25714,0,"B5H.wav",90
Sample,27321,0,"A5H.wav",15
Sample,27375,0,"C#6H_Db6H.wav",15
Sample,27428,0,"A6H.wav",75
Sample,27857,0,"G#6H_Ab6H_s.wav",90
Sample,28071,0,"A6H.wav",75
Sample,28714,0,"G#6H_Ab6H_s.wav",90
Sample,28928,0,"A6H.wav",75
Sample,29357,0,"A5H_s.wav",90
Sample,29571,0,"E6H_s.wav",90
Sample,29785,0,"A6H.wav",75
Sample,30214,0,"A5H_s.wav",90
Sample,30428,0,"D6H_s.wav",90
Sample,30642,0,"A5H_s.wav",50
Sample,30696,0,"E5H_s.wav",50
Sample,30750,0,"A5H_s.wav",50
Sample,30803,0,"C#6H_Db6H.wav",90
Sample,31285,0,"D6H.wav",75
Sample,31714,0,"E6H.wav",75
Sample,32142,0,"C#7H_Db7H.wav",75
Sample,32571,0,"B6H.wav",75
Sample,33000,0,"E6H_s.wav",90
Sample,33267,0,"B6H_s.wav",90
Sample,33428,0,"C#7H_Db7H_s.wav",90
Sample,33642,0,"B6H_s.wav",90
Sample,33857,0,"A6H_s.wav",90
Sample,34071,0,"G#6H_Ab6H_s.wav",90
Sample,34285,0,"A6H.wav",90
Sample,35571,0,"A5H_s.wav",90
Sample,35785,0,"B5H_s.wav",90
Sample,36000,0,"C#6H_Db6H.wav",90
Sample,37285,0,"C#6H_Db6H_s.wav",90
Sample,37500,0,"D6H_s.wav",90
Sample,37714,0,"E6H.wav",90
Sample,39000,0,"D6H_s.wav",90
Sample,39214,0,"C#6H_Db6H_s.wav",90
Sample,39428,0,"B5H.wav",90
Sample,40285,0,"A6H_s.wav",90
Sample,40500,0,"B6H_s.wav",90
Sample,40714,0,"A6H_s.wav",90
Sample,40928,0,"G#6H_Ab6H_s.wav",90
Sample,41142,0,"LR5_HatLowB.wav",10
Sample,41142,0,"A6H_s.wav",90
Sample,41356,0,"A5H_s.wav",75
Sample,41356,0,"LR5_HatShakerS.wav",15
Sample,41570,0,"LR5_HatLowB.wav",11
Sample,41570,0,"E6H_s.wav",75
Sample,41784,0,"A5H_s.wav",75
Sample,41784,0,"LR5_HatShakerS.wav",16
Sample,41999,0,"LR5_HatLowB.wav",12
Sample,41999,0,"A6H_s.wav",90
Sample,42213,0,"LR5_HatShakerS.wav",17
Sample,42213,0,"B6H_s.wav",90
Sample,42320,0,"LR5_HatShakerEC.wav",17
Sample,42427,0,"A6H_s.wav",90
Sample,42427,0,"LR5_HatLowB.wav",13
Sample,42642,0,"LR5_HatShakerS.wav",18
Sample,42642,0,"G#6H_Ab6H_s.wav",90
Sample,42856,0,"LR5_HatLowB.wav",15
Sample,42856,0,"A6H_s.wav",90
Sample,43070,0,"A5H_s.wav",75
Sample,43070,0,"LR5_HatShakerS.wav",20
Sample,43284,0,"LR5_HatLowB.wav",17
Sample,43284,0,"E6H_s.wav",75
Sample,43499,0,"A5H_s.wav",75
Sample,43499,0,"LR5_HatShakerS.wav",22
Sample,43713,0,"LR5_HatLowB.wav",19
Sample,43713,0,"A6H_s.wav",90
Sample,43927,0,"B6H_s.wav",90
Sample,43927,0,"LR5_HatShakerS.wav",24
Sample,44034,0,"LR5_HatShakerEC.wav",24
Sample,44142,0,"A6H_s.wav",90
Sample,44142,0,"LR5_HatLowB.wav",21
Sample,44356,0,"G#6H_Ab6H_s.wav",90
Sample,44356,0,"LR5_HatShakerS.wav",26
Sample,44570,0,"LR5_HatLowB.wav",24
Sample,44570,0,"A6H_s.wav",90
Sample,44784,0,"B6H_s.wav",90
Sample,44784,0,"LR5_HatShakerS.wav",29
Sample,44999,0,"LR5_HatLowB.wav",27
Sample,44999,0,"C#7H_Db7H_s.wav",90
Sample,45213,0,"D7H_s.wav",90
Sample,45213,0,"LR5_HatShakerS.wav",32
Sample,45427,0,"LR5_HatLowB.wav",30
Sample,45427,0,"E7H_s.wav",90
Sample,45642,0,"C#7H_Db7H_s.wav",90
Sample,45642,0,"LR5_HatShakerS.wav",35
Sample,45749,0,"LR5_HatShakerEC.wav",35
Sample,45856,0,"LR5_HatLowB.wav",33
Sample,45856,0,"B6H_s.wav",90
Sample,46070,0,"A6H_s.wav",90
Sample,46070,0,"LR5_HatShakerS.wav",38
Sample,46284,0,"LR5_HatLowB.wav",37
Sample,46284,0,"G#6H_Ab6H.wav",90
Sample,46499,0,"LR5_HatShakerS.wav",42
Sample,46713,0,"B5H_s.wav",75
Sample,46713,0,"LR5_HatLowB.wav",41
Sample,46927,0,"LR5_HatShakerS.wav",46
Sample,47142,0,"LR5_HatLowB.wav",45
Sample,47142,0,"A6H_s.wav",90
Sample,47356,0,"LR5_HatShakerS.wav",50
Sample,47356,0,"B6H_s.wav",90
Sample,47463,0,"LR5_HatShakerEC.wav",50
Sample,47570,0,"A6H_s.wav",90
Sample,47570,0,"LR5_HatLowB.wav",49
Sample,47784,0,"LR5_HatShakerS.wav",50
Sample,47784,0,"G#6H_Ab6H_s.wav",90
Sample,47999,0,"LR5_HatLowB.wav",49
Sample,47999,0,"A6H_s.wav",90
Sample,48213,0,"LR5_HatShakerS.wav",50
Sample,48213,0,"A5H_s.wav",75
Sample,48427,0,"E6H_s.wav",75
Sample,48427,0,"LR5_HatLowB.wav",49
Sample,48642,0,"A5H_s.wav",75
Sample,48642,0,"LR5_HatShakerS.wav",50
Sample,48856,0,"LR5_HatLowB.wav",49
Sample,48856,0,"A6H_s.wav",90
Sample,49070,0,"B6H_s.wav",90
Sample,49070,0,"LR5_HatShakerS.wav",50
Sample,49177,0,"LR5_HatShakerEC.wav",50
Sample,49284,0,"A6H_s.wav",90
Sample,49284,0,"LR5_HatLowB.wav",49
Sample,49499,0,"G#6H_Ab6H_s.wav",90
Sample,49499,0,"LR5_HatShakerS.wav",50
Sample,49713,0,"LR5_HatLowB.wav",49
Sample,49713,0,"A6H_s.wav",90
Sample,49927,0,"A5H_s.wav",75
Sample,49927,0,"LR5_HatShakerS.wav",50
Sample,50142,0,"E6H_s.wav",75
Sample,50142,0,"LR5_HatLowB.wav",49
Sample,50356,0,"LR5_HatShakerS.wav",50
Sample,50356,0,"A5H_s.wav",75
Sample,50570,0,"LR5_HatLowB.wav",49
Sample,50570,0,"A6H_s.wav",90
Sample,50784,0,"LR5_HatShakerS.wav",50
Sample,50784,0,"B6H_s.wav",90
Sample,50892,0,"LR5_HatShakerEC.wav",50
Sample,50999,0,"LR5_HatLowB.wav",49
Sample,50999,0,"A6H_s.wav",90
Sample,51213,0,"LR5_HatShakerS.wav",50
Sample,51213,0,"G#6H_Ab6H_s.wav",90
Sample,51427,0,"LR5_RevCyVocalFM.wav",100
Sample,51427,0,"LR5_HatLowB.wav",54
Sample,51427,0,"A6H_s.wav",90
Sample,51642,0,"B6H_s.wav",90
Sample,51642,0,"LR5_HatShakerS.wav",50
Sample,51856,0,"LR5_HatLowB.wav",59
Sample,51856,0,"C#7H_Db7H_s.wav",90
Sample,52070,0,"LR5_HatShakerS.wav",50
Sample,52070,0,"D7H_s.wav",90
Sample,52284,0,"LR5_HatLowB.wav",64
Sample,52284,0,"E7H_s.wav",90
Sample,52499,0,"C#7H_Db7H_s.wav",90
Sample,52499,0,"LR5_HatShakerS.wav",50
Sample,52606,0,"LR5_HatShakerEC.wav",50
Sample,52713,0,"LR5_HatLowB.wav",69
Sample,52713,0,"B6H_s.wav",90
Sample,52927,0,"LR5_HatShakerS.wav",50
Sample,52927,0,"A6H_s.wav",90
Sample,53142,0,"G#6H_Ab6H.wav",90
Sample,53142,0,"LR5_HatLowB.wav",74
Sample,53356,0,"LR5_HatShakerS.wav",50
Sample,53570,0,"B5H_s.wav",75
Sample,53570,0,"LR5_HatLowB.wav",79
Sample,53784,0,"LR5_HatShakerS.wav",50
Sample,53999,0,"A6H_s.wav",90
Sample,54213,0,"A6H_s.wav",90
Sample,54320,0,"B6H_s.wav",90
Sample,54427,0,"A6H_s.wav",90
Sample,54642,0,"G#6H_Ab6H_s.wav",90
Sample,54856,0,"LR4_KickTBCD.wav",99
Sample,54856,0,"A6H_s.wav",90
Sample,54856,0,"LR_CymbalHLWX.wav",82
Sample,55070,0,"A5H_s.wav",75
Sample,55070,0,"LR5_HatShakerS.wav",74
Sample,55284,0,"LR_Hat Synth.wav",80
Sample,55284,0,"E6H_s.wav",75
Sample,55499,0,"LR5_HatShakerS.wav",74
Sample,55499,0,"A5H_s.wav",75
Sample,55713,0,"A6H_s.wav",90
Sample,55713,0,"LR_Hat Synth.wav",80
Sample,55713,0,"LR4_SnareBPDT.wav",72
Sample,55927,0,"LR5_HatShakerS.wav",74
Sample,55927,0,"A6H_s.wav",90
Sample,56034,0,"LR5_HatShakerEC.wav",79
Sample,56034,0,"B6H_s.wav",90
Sample,56142,0,"A6H_s.wav",90
Sample,56142,0,"LR_Hat Synth.wav",80
Sample,56356,0,"LR5_HatShakerS.wav",74
Sample,56356,0,"G#6H_Ab6H_s.wav",90
Sample,56570,0,"LR_Hat Synth.wav",80
Sample,56570,0,"A6H_s.wav",90
Sample,56570,0,"LR4_KickTBCD.wav",99
Sample,56784,0,"A5H_s.wav",75
Sample,56784,0,"LR5_HatShakerS.wav",74
Sample,56999,0,"E6H_s.wav",75
Sample,56999,0,"LR_Hat Synth.wav",80
Sample,57213,0,"LR5_HatShakerS.wav",74
Sample,57213,0,"A5H_s.wav",75
Sample,57427,0,"LR4_SnareBPDT.wav",72
Sample,57427,0,"LR_Hat Synth.wav",80
Sample,57427,0,"A6H_s.wav",90
Sample,57642,0,"A6H_s.wav",90
Sample,57642,0,"LR5_HatShakerS.wav",74
Sample,57749,0,"LR5_HatShakerEC.wav",79
Sample,57749,0,"B6H_s.wav",90
Sample,57856,0,"LR_Hat Synth.wav",80
Sample,57856,0,"A6H_s.wav",90
Sample,58070,0,"G#6H_Ab6H_s.wav",90
Sample,58070,0,"LR5_HatShakerS.wav",74
Sample,58284,0,"A6H_s.wav",90
Sample,58284,0,"LR_Hat Synth.wav",80
Sample,58284,0,"LR4_KickTBCD.wav",99
Sample,58499,0,"B6H_s.wav",90
Sample,58499,0,"LR5_HatShakerS.wav",74
Sample,58713,0,"LR_Hat Synth.wav",80
Sample,58713,0,"C#7H_Db7H_s.wav",90
Sample,58927,0,"LR5_HatShakerS.wav",74
Sample,58927,0,"D7H_s.wav",90
Sample,59142,0,"E7H_s.wav",90
Sample,59142,0,"LR_Hat Synth.wav",80
Sample,59142,0,"LR4_SnareBPDT.wav",72
Sample,59356,0,"C#7H_Db7H_s.wav",90
Sample,59356,0,"LR5_HatShakerS.wav",74
Sample,59463,0,"LR5_HatShakerEC.wav",79
Sample,59570,0,"B6H_s.wav",90
Sample,59570,0,"LR_Hat Synth.wav",80
Sample,59784,0,"A6H_s.wav",90
Sample,59784,0,"LR5_HatShakerS.wav",74
Sample,59999,0,"LR4_KickTBCD.wav",99
Sample,59999,0,"LR_Hat Synth.wav",80
Sample,59999,0,"G#6H_Ab6H.wav",90
Sample,60213,0,"LR5_HatShakerS.wav",74
Sample,60427,0,"B5H_s.wav",75
Sample,60427,0,"LR_Hat Synth.wav",80
Sample,60642,0,"LR5_HatShakerS.wav",74
Sample,60856,0,"LR_Hat Synth.wav",80
Sample,60856,0,"A6H_s.wav",90
Sample,60856,0,"LR4_SnareBPDT.wav",72
Sample,61070,0,"A6H_s.wav",90
Sample,61070,0,"LR5_HatShakerS.wav",74
Sample,61177,0,"LR5_HatShakerEC.wav",79
Sample,61177,0,"B6H_s.wav",90
Sample,61284,0,"A6H_s.wav",90
Sample,61284,0,"LR_Hat Synth.wav",80
Sample,61499,0,"G#6H_Ab6H_s.wav",90
Sample,61499,0,"LR5_HatShakerS.wav",74
Sample,61713,0,"A6H_s.wav",90
Sample,61713,0,"LR4_KickTBCD.wav",99
Sample,61713,0,"LR_Hat Synth.wav",80
Sample,61927,0,"A5H_s.wav",75
Sample,61927,0,"LR5_HatShakerS.wav",74
Sample,62142,0,"E6H_s.wav",75
Sample,62142,0,"LR_Hat Synth.wav",80
Sample,62356,0,"A5H_s.wav",75
Sample,62356,0,"LR5_HatShakerS.wav",74
Sample,62570,0,"A6H_s.wav",90
Sample,62570,0,"LR4_SnareBPDT.wav",72
Sample,62570,0,"LR_Hat Synth.wav",80
Sample,62784,0,"LR5_HatShakerS.wav",74
Sample,62784,0,"A6H_s.wav",90
Sample,62892,0,"LR5_HatShakerEC.wav",79
Sample,62892,0,"B6H_s.wav",90
Sample,62999,0,"LR_Hat Synth.wav",80
Sample,62999,0,"A6H_s.wav",90
Sample,63213,0,"G#6H_Ab6H_s.wav",90
Sample,63213,0,"LR5_HatShakerS.wav",74
Sample,63427,0,"A6H_s.wav",90
Sample,63427,0,"LR4_KickTBCD.wav",99
Sample,63427,0,"LR_Hat Synth.wav",80
Sample,63642,0,"LR5_HatShakerS.wav",74
Sample,63642,0,"A5H_s.wav",75
Sample,63856,0,"E6H_s.wav",75
Sample,63856,0,"LR_Hat Synth.wav",80
Sample,64070,0,"A5H_s.wav",75
Sample,64070,0,"LR5_HatShakerS.wav",74
Sample,64284,0,"A6H_s.wav",90
Sample,64284,0,"LR_Hat Synth.wav",80
Sample,64284,0,"LR4_SnareBPDT.wav",72
Sample,64499,0,"B6H_s.wav",90
Sample,64499,0,"LR5_HatShakerS.wav",74
Sample,64606,0,"LR5_HatShakerEC.wav",79
Sample,64713,0,"A6H_s.wav",90
Sample,64713,0,"LR_Hat Synth.wav",80
Sample,64927,0,"G#6H_Ab6H_s.wav",90
Sample,64927,0,"LR5_HatShakerS.wav",74
Sample,65142,0,"LR_Hat Synth.wav",80
Sample,65142,0,"LR4_KickTBCD.wav",99
Sample,65142,0,"A6H_s.wav",90
Sample,65356,0,"B6H_s.wav",90
Sample,65356,0,"LR5_HatShakerS.wav",74
Sample,65570,0,"C#7H_Db7H_s.wav",90
Sample,65570,0,"LR_Hat Synth.wav",80
Sample,65784,0,"LR5_HatShakerS.wav",74
Sample,65784,0,"D7H_s.wav",90
Sample,65999,0,"E7H_s.wav",90
Sample,65999,0,"LR_Hat Synth.wav",80
Sample,65999,0,"LR4_SnareBPDT.wav",72
Sample,66213,0,"C#7H_Db7H_s.wav",90
Sample,66213,0,"LR5_HatShakerS.wav",74
Sample,66320,0,"LR5_HatShakerEC.wav",79
Sample,66427,0,"B6H_s.wav",90
Sample,66427,0,"LR_Hat Synth.wav",80
Sample,66642,0,"A6H_s.wav",90
Sample,66642,0,"LR5_HatShakerS.wav",74
Sample,66856,0,"LR_Hat Synth.wav",80
Sample,66856,0,"LR4_KickTBCD.wav",66
Sample,66856,0,"G#6H_Ab6H_s.wav",90
Sample,67070,0,"LR4_KickTBCD.wav",30
Sample,67284,0,"B5H_s.wav",75
Sample,67284,0,"LR4_KickTBCD.wav",66
Sample,67284,0,"LR_Hat Synth.wav",80
Sample,67499,0,"LR4_KickTBCD.wav",30
Sample,67713,0,"G#5H_Ab5H.wav",40
Sample,67713,0,"LR4_KickTBCD.wav",66
Sample,67713,0,"LR_Hat Synth.wav",80
Sample,67927,0,"LR4_KickTBCD.wav",30
Sample,68142,0,"E5H.wav",30
Sample,68142,0,"LR_Hat Synth.wav",80
Sample,68142,0,"LR4_SnareBPDT.wav",72
Sample,68570,0,"LR_CymbalHLWX.wav",30
Sample,68570,0,"A6H_s.wav",90
Sample,68570,0,"LR_CymbalG.wav",83
Sample,68570,0,"LR4_KickTBCD.wav",99
Sample,68784,0,"A5H_s.wav",75
Sample,68784,0,"LR5_HatShakerS.wav",74
Sample,68999,0,"LR_Hat Synth.wav",80
Sample,68999,0,"E6H_s.wav",75
Sample,69213,0,"A5H_s.wav",75
Sample,69213,0,"LR5_HatShakerS.wav",74
Sample,69427,0,"LR_Hat Synth.wav",80
Sample,69427,0,"A6H_s.wav",90
Sample,69427,0,"LR4_SnareBPDT.wav",72
Sample,69642,0,"LR5_HatShakerS.wav",74
Sample,69642,0,"A6H_s.wav",90
Sample,69749,0,"B6H_s.wav",90
Sample,69749,0,"LR5_HatShakerEC.wav",79
Sample,69856,0,"A6H_s.wav",90
Sample,69856,0,"LR_Hat Synth.wav",80
Sample,70070,0,"G#6H_Ab6H_s.wav",90
Sample,70070,0,"LR5_HatShakerS.wav",74
Sample,70284,0,"A6H_s.wav",90
Sample,70284,0,"LR_Hat Synth.wav",80
Sample,70284,0,"LR4_KickTBCD.wav",99
Sample,70499,0,"A5H_s.wav",75
Sample,70499,0,"LR5_HatShakerS.wav",74
Sample,70713,0,"E6H_s.wav",75
Sample,70713,0,"LR_Hat Synth.wav",80
Sample,70927,0,"LR5_HatShakerS.wav",74
Sample,70927,0,"A5H_s.wav",75
Sample,71142,0,"LR4_SnareBPDT.wav",72
Sample,71142,0,"A6H_s.wav",90
Sample,71142,0,"LR_Hat Synth.wav",80
Sample,71356,0,"A6H_s.wav",90
Sample,71356,0,"LR5_HatShakerS.wav",74
Sample,71463,0,"LR5_HatShakerEC.wav",79
Sample,71463,0,"B6H_s.wav",90
Sample,71570,0,"LR_Hat Synth.wav",80
Sample,71570,0,"A6H_s.wav",90
Sample,71784,0,"LR5_HatShakerS.wav",74
Sample,71784,0,"G#6H_Ab6H_s.wav",90
Sample,71999,0,"LR4_KickTBCD.wav",99
Sample,71999,0,"A6H_s.wav",90
Sample,71999,0,"LR_Hat Synth.wav",80
Sample,72213,0,"B6H_s.wav",90
Sample,72213,0,"LR5_HatShakerS.wav",74
Sample,72427,0,"LR_Hat Synth.wav",80
Sample,72427,0,"C#7H_Db7H_s.wav",90
Sample,72642,0,"LR5_HatShakerS.wav",74
Sample,72642,0,"D7H_s.wav",90
Sample,72856,0,"LR_Hat Synth.wav",80
Sample,72856,0,"E7H_s.wav",90
Sample,72856,0,"LR4_SnareBPDT.wav",72
Sample,73070,0,"C#7H_Db7H_s.wav",90
Sample,73070,0,"LR5_HatShakerS.wav",74
Sample,73177,0,"LR5_HatShakerEC.wav",79
Sample,73284,0,"B6H_s.wav",90
Sample,73284,0,"LR_Hat Synth.wav",80
Sample,73499,0,"LR5_HatShakerS.wav",74
Sample,73499,0,"A6H_s.wav",90
Sample,73713,0,"G#6H_Ab6H.wav",90
Sample,73713,0,"LR_Hat Synth.wav",80
Sample,73713,0,"LR4_KickTBCD.wav",99
Sample,73927,0,"LR5_HatShakerS.wav",74
Sample,74142,0,"B5H_s.wav",75
Sample,74142,0,"LR_Hat Synth.wav",80
Sample,74356,0,"LR5_HatShakerS.wav",74
Sample,74570,0,"A6H_s.wav",90
Sample,74570,0,"LR_Hat Synth.wav",80
Sample,74570,0,"LR4_SnareBPDT.wav",72
Sample,74784,0,"LR5_HatShakerS.wav",74
Sample,74784,0,"A6H_s.wav",90
Sample,74892,0,"B6H_s.wav",90
Sample,74892,0,"LR5_HatShakerEC.wav",79
Sample,74999,0,"A6H_s.wav",90
Sample,74999,0,"LR_Hat Synth.wav",80
Sample,75213,0,"LR5_HatShakerS.wav",74
Sample,75213,0,"G#6H_Ab6H_s.wav",90
Sample,75427,0,"A6H_s.wav",90
Sample,75427,0,"LR4_KickTBCD.wav",99
Sample,75427,0,"LR_Hat Synth.wav",80
Sample,75642,0,"A5H_s.wav",75
Sample,75642,0,"LR5_HatShakerS.wav",74
Sample,75856,0,"LR_Hat Synth.wav",80
Sample,75856,0,"E6H_s.wav",75
Sample,76070,0,"A5H_s.wav",75
Sample,76070,0,"LR5_HatShakerS.wav",74
Sample,76284,0,"LR4_SnareBPDT.wav",72
Sample,76284,0,"A6H_s.wav",90
Sample,76284,0,"LR_Hat Synth.wav",80
Sample,76499,0,"A6H_s.wav",90
Sample,76499,0,"LR5_HatShakerS.wav",74
Sample,76606,0,"B6H_s.wav",90
Sample,76606,0,"LR5_HatShakerEC.wav",79
Sample,76713,0,"A6H_s.wav",90
Sample,76713,0,"LR_Hat Synth.wav",80
Sample,76927,0,"LR5_HatShakerS.wav",74
Sample,76927,0,"G#6H_Ab6H_s.wav",90
Sample,77142,0,"A6H_s.wav",90
Sample,77142,0,"LR4_KickTBCD.wav",99
Sample,77142,0,"LR_Hat Synth.wav",80
Sample,77356,0,"A5H_s.wav",75
Sample,77356,0,"LR5_HatShakerS.wav",74
Sample,77570,0,"LR_Hat Synth.wav",80
Sample,77570,0,"E6H_s.wav",75
Sample,77784,0,"LR5_HatShakerS.wav",74
Sample,77784,0,"A5H_s.wav",75
Sample,77999,0,"A6H_s.wav",90
Sample,77999,0,"LR4_SnareBPDT.wav",72
Sample,77999,0,"LR_Hat Synth.wav",80
Sample,78213,0,"LR5_HatShakerS.wav",74
Sample,78213,0,"B6H_s.wav",90
Sample,78320,0,"LR5_HatShakerEC.wav",79
Sample,78427,0,"A6H_s.wav",90
Sample,78427,0,"LR_Hat Synth.wav",80
Sample,78642,0,"G#6H_Ab6H_s.wav",90
Sample,78642,0,"LR5_HatShakerS.wav",74
Sample,78856,0,"LR4_KickTBCD.wav",99
Sample,78856,0,"LR_Hat Synth.wav",80
Sample,78856,0,"A6H_s.wav",90
Sample,79070,0,"LR5_HatShakerS.wav",74
Sample,79070,0,"B6H_s.wav",90
Sample,79284,0,"LR_Hat Synth.wav",80
Sample,79284,0,"C#7H_Db7H_s.wav",90
Sample,79499,0,"LR5_HatShakerS.wav",74
Sample,79499,0,"D7H_s.wav",90
Sample,79713,0,"LR_Hat Synth.wav",80
Sample,79713,0,"E7H_s.wav",90
Sample,79713,0,"LR4_SnareBPDT.wav",72
Sample,79927,0,"C#7H_Db7H_s.wav",90
Sample,79927,0,"LR5_HatShakerS.wav",74
Sample,80034,0,"LR5_HatShakerEC.wav",79
Sample,80142,0,"B6H_s.wav",90
Sample,80142,0,"LR_Hat Synth.wav",80
Sample,80356,0,"LR5_HatShakerS.wav",74
Sample,80356,0,"A6H_s.wav",90
Sample,80570,0,"LR_RevCyHLWX.wav",85
Sample,80570,0,"G#6H_Ab6H_s.wav",90
Sample,80570,0,"LR4_KickTBCD.wav",66
Sample,80570,0,"LR_Hat Synth.wav",80
Sample,80677,0,"LR4_KickTBCD.wav",37
Sample,80784,0,"LR4_KickTBCD.wav",46
Sample,80892,0,"LR4_KickTBCD.wav",37
Sample,80999,0,"B5H_s.wav",75
Sample,80999,0,"LR_Hat Synth.wav",80
Sample,80999,0,"LR4_KickTBCD.wav",66
Sample,81106,0,"LR4_KickTBCD.wav",37
Sample,81213,0,"LR4_KickTBCD.wav",46
Sample,81320,0,"LR4_KickTBCD.wav",37
Sample,81427,0,"LR4_KickTBCD.wav",66
Sample,81427,0,"G#5H_Ab5H.wav",40
Sample,81427,0,"LR_Hat Synth.wav",80
Sample,81534,0,"LR4_KickTBCD.wav",37
Sample,81642,0,"LR4_KickTBCD.wav",46
Sample,81749,0,"LR4_KickTBCD.wav",37
Sample,81856,0,"LR_Hat Synth.wav",80
Sample,81856,0,"LR4_SnareBPDT.wav",72
Sample,81856,0,"E5H.wav",30
Sample,82284,0,"LR5_RevCyEchoSC.wav",60
Sample,85606,0,"A5H.wav",15
Sample,85659,0,"C#6H_Db6H.wav",15
Sample,85713,0,"A6H.wav",75
Sample,86142,0,"G#6H_Ab6H_s.wav",90
Sample,86356,0,"A6H.wav",75
Sample,86999,0,"G#6H_Ab6H_s.wav",90
Sample,87213,0,"A6H.wav",75
Sample,87642,0,"A5H_s.wav",90
Sample,87856,0,"E6H_s.wav",90
Sample,88070,0,"A6H.wav",75
Sample,88713,0,"D6H_s.wav",90
Sample,88927,0,"A5H_s.wav",50
Sample,88981,0,"E5H_s.wav",50
Sample,89034,0,"A5H_s.wav",50
Sample,89088,0,"C#6H_Db6H.wav",90
Sample,89570,0,"D6H.wav",75
Sample,89999,0,"E6H.wav",75
Sample,89999,0,"A5H_s.wav",90
Sample,90427,0,"C#6H_Db6H.wav",75
Sample,90856,0,"E5H.wav",40
Sample,90856,0,"B5H.wav",60
Sample,90856,0,"F#5S_Gb5S.wav",50
Sample,92142,0,"A5H_s.wav",90
Sample,92356,0,"G#5H_Ab5H_s.wav",90
Sample,92570,0,"A5H.wav",70
Sample,92570,0,"C#5H_Db5H.wav",40
Sample,92570,0,"F#4S_Gb4S.wav",80
Sample,93642,0,"E5H_s.wav",60
Sample,93856,0,"A5H_s.wav",90
Sample,94070,0,"B5H_s.wav",90
Sample,94284,0,"C#6H_Db6H.wav",70
Sample,94499,0,"E5S.wav",66
Sample,94713,0,"A5H_s.wav",90
Sample,94927,0,"B5H_s.wav",90
Sample,95142,0,"C#6H_Db6H.wav",70
Sample,95356,0,"E5S.wav",66
Sample,95570,0,"C#6H_Db6H_s.wav",90
Sample,95784,0,"D6H_s.wav",90
Sample,95999,0,"E6H.wav",70
Sample,96213,0,"E5S.wav",66
Sample,96427,0,"C#6H_Db6H_s.wav",90
Sample,96642,0,"D6H_s.wav",90
Sample,96856,0,"E6H.wav",70
Sample,97070,0,"E5S.wav",66
Sample,97284,0,"D6H_s.wav",90
Sample,97499,0,"C#6H_Db6H_s.wav",90
Sample,97713,0,"B5H.wav",70
Sample,97927,0,"E5S.wav",66
Sample,98142,0,"D6H_s.wav",90
Sample,98356,0,"C#6H_Db6H_s.wav",90
Sample,98570,0,"B5H.wav",70
Sample,98999,0,"G#5H_Ab5H_s.wav",70
Sample,99267,0,"C#6H_Db6H_s.wav",70
Sample,99427,0,"A6H.wav",75
Sample,99856,0,"G#6H_Ab6H_s.wav",90
Sample,100070,0,"A6H.wav",75
Sample,100713,0,"G#6H_Ab6H_s.wav",90
Sample,100927,0,"A6H.wav",75
Sample,101356,0,"A5H_s.wav",90
Sample,101570,0,"E6H_s.wav",90
Sample,101784,0,"A6H.wav",75
Sample,102213,0,"A5H_s.wav",90
Sample,102427,0,"D6H_s.wav",90
Sample,102642,0,"A5H_s.wav",50
Sample,102695,0,"E5H_s.wav",50
Sample,102749,0,"A5H_s.wav",50
Sample,102802,0,"C#6H_Db6H.wav",90
Sample,103284,0,"D6H.wav",75
Sample,103713,0,"E6H.wav",75
Sample,104142,0,"C#7H_Db7H.wav",75
Sample,104570,0,"B6H.wav",75
Sample,104999,0,"E6H_s.wav",90
Sample,105267,0,"B6H_s.wav",90
Sample,105427,0,"C#7H_Db7H_s.wav",90
Sample,105642,0,"B6H_s.wav",90
Sample,105856,0,"A6H_s.wav",90
Sample,106070,0,"G#6H_Ab6H_s.wav",90
Sample,106284,0,"C#6H_Db6H.wav",50
Sample,106284,0,"A6H.wav",80
Sample,107570,0,"A5H_s.wav",90
Sample,107784,0,"B5H_s.wav",90
Sample,107999,0,"C#6H_Db6H.wav",70
Sample,108213,0,"E5S.wav",66
Sample,108427,0,"A5H_s.wav",90
Sample,108642,0,"B5H_s.wav",90
Sample,108856,0,"C#6H_Db6H.wav",70
Sample,109070,0,"E5S.wav",66
Sample,109284,0,"C#6H_Db6H_s.wav",90
Sample,109499,0,"D6H_s.wav",90
Sample,109713,0,"E6H.wav",70
Sample,109927,0,"LR5_RevCyVocalFM.wav",66
Sample,109927,0,"E5S.wav",66
Sample,110142,0,"C#6H_Db6H_s.wav",90
Sample,110356,0,"D6H_s.wav",90
Sample,110570,0,"E6H.wav",70
Sample,110784,0,"E5S.wav",66
Sample,110999,0,"D6H_s.wav",90
Sample,111213,0,"C#6H_Db6H_s.wav",90
Sample,111427,0,"B5H.wav",70
Sample,111642,0,"E5H_s.wav",60
Sample,111856,0,"G#5H_Ab5H_s.wav",70
Sample,112070,0,"B5H_s.wav",80
Sample,112284,0,"A6H_s.wav",90
Sample,112499,0,"B6H_s.wav",90
Sample,112713,0,"A6H_s.wav",90
Sample,112927,0,"G#6H_Ab6H_s.wav",90
Sample,113142,0,"LR_CymbalHLWX.wav",82
Sample,113142,0,"LR4_KickTBCD.wav",99
Sample,113142,0,"A6H_s.wav",90
Sample,113356,0,"A5H_s.wav",75
Sample,113356,0,"LR5_HatShakerS.wav",74
Sample,113570,0,"E6H_s.wav",75
Sample,113570,0,"LR_Hat Synth.wav",80
Sample,113784,0,"LR5_HatShakerS.wav",74
Sample,113784,0,"A5H_s.wav",75
Sample,113999,0,"A6H_s.wav",90
Sample,113999,0,"LR4_SnareBPDT.wav",72
Sample,113999,0,"LR_Hat Synth.wav",80
Sample,114213,0,"LR5_HatShakerS.wav",74
Sample,114213,0,"A6H_s.wav",90
Sample,114320,0,"LR5_HatShakerEC.wav",79
Sample,114320,0,"B6H_s.wav",90
Sample,114427,0,"A6H_s.wav",90
Sample,114427,0,"LR_Hat Synth.wav",80
Sample,114642,0,"G#6H_Ab6H_s.wav",90
Sample,114642,0,"LR5_HatShakerS.wav",74
Sample,114856,0,"A6H_s.wav",90
Sample,114856,0,"LR_Hat Synth.wav",80
Sample,114856,0,"LR4_KickTBCD.wav",99
Sample,115070,0,"A5H_s.wav",75
Sample,115070,0,"LR5_HatShakerS.wav",74
Sample,115284,0,"E6H_s.wav",75
Sample,115284,0,"LR_Hat Synth.wav",80
Sample,115499,0,"A5H_s.wav",75
Sample,115499,0,"LR5_HatShakerS.wav",74
Sample,115713,0,"A6H_s.wav",90
Sample,115713,0,"LR_Hat Synth.wav",80
Sample,115713,0,"LR4_SnareBPDT.wav",72
Sample,115927,0,"A6H_s.wav",90
Sample,115927,0,"LR5_HatShakerS.wav",74
Sample,116034,0,"B6H_s.wav",90
Sample,116034,0,"LR5_HatShakerEC.wav",79
Sample,116142,0,"A6H_s.wav",90
Sample,116142,0,"LR_Hat Synth.wav",80
Sample,116356,0,"LR5_HatShakerS.wav",74
Sample,116356,0,"G#6H_Ab6H_s.wav",90
Sample,116570,0,"LR_Hat Synth.wav",80
Sample,116570,0,"LR4_KickTBCD.wav",99
Sample,116570,0,"A6H_s.wav",90
Sample,116784,0,"B6H_s.wav",90
Sample,116784,0,"LR5_HatShakerS.wav",74
Sample,116999,0,"LR_Hat Synth.wav",80
Sample,116999,0,"C#7H_Db7H_s.wav",90
Sample,117213,0,"D7H_s.wav",90
Sample,117213,0,"LR5_HatShakerS.wav",74
Sample,117427,0,"E7H_s.wav",90
Sample,117427,0,"LR_Hat Synth.wav",80
Sample,117427,0,"LR4_SnareBPDT.wav",72
Sample,117642,0,"LR5_HatShakerS.wav",74
Sample,117642,0,"C#7H_Db7H_s.wav",90
Sample,117749,0,"LR5_HatShakerEC.wav",79
Sample,117856,0,"LR_Hat Synth.wav",80
Sample,117856,0,"B6H_s.wav",75
Sample,117963,0,"C#7H_Db7H_s.wav",75
Sample,118070,0,"B6H_s.wav",75
Sample,118070,0,"LR5_HatShakerS.wav",74
Sample,118177,0,"A6H_s.wav",75
Sample,118284,0,"G#6H_Ab6H.wav",70
Sample,118284,0,"LR_Hat Synth.wav",80
Sample,118284,0,"LR4_KickTBCD.wav",99
Sample,118499,0,"B5H_s.wav",75
Sample,118499,0,"LR5_HatShakerS.wav",74
Sample,118713,0,"LR_Hat Synth.wav",80
Sample,118713,0,"E6H_s.wav",75
Sample,118927,0,"B5H_s.wav",75
Sample,118927,0,"LR5_HatShakerS.wav",74
Sample,119142,0,"LR4_SnareBPDT.wav",72
Sample,119142,0,"A6H_s.wav",90
Sample,119142,0,"LR_Hat Synth.wav",80
Sample,119356,0,"A6H_s.wav",90
Sample,119356,0,"LR5_HatShakerS.wav",74
Sample,119463,0,"LR5_HatShakerEC.wav",79
Sample,119463,0,"B6H_s.wav",90
Sample,119570,0,"A6H_s.wav",90
Sample,119570,0,"LR_Hat Synth.wav",80
Sample,119784,0,"LR5_HatShakerS.wav",74
Sample,119784,0,"G#6H_Ab6H_s.wav",90
Sample,119999,0,"LR_Hat Synth.wav",80
Sample,119999,0,"A6H_s.wav",90
Sample,119999,0,"LR4_KickTBCD.wav",99
Sample,120213,0,"A5H_s.wav",75
Sample,120213,0,"LR5_HatShakerS.wav",74
Sample,120427,0,"LR_Hat Synth.wav",80
Sample,120427,0,"E6H_s.wav",75
Sample,120642,0,"A5H_s.wav",75
Sample,120642,0,"LR5_HatShakerS.wav",74
Sample,120856,0,"LR4_SnareBPDT.wav",72
Sample,120856,0,"A6H_s.wav",90
Sample,120856,0,"LR_Hat Synth.wav",80
Sample,121070,0,"LR5_HatShakerS.wav",74
Sample,121070,0,"A6H_s.wav",90
Sample,121177,0,"LR5_HatShakerEC.wav",79
Sample,121177,0,"B6H_s.wav",90
Sample,121284,0,"LR_Hat Synth.wav",80
Sample,121284,0,"A6H_s.wav",90
Sample,121499,0,"LR5_HatShakerS.wav",74
Sample,121499,0,"G#6H_Ab6H_s.wav",90
Sample,121713,0,"LR4_KickTBCD.wav",99
Sample,121713,0,"LR_Hat Synth.wav",80
Sample,121713,0,"A6H_s.wav",90
Sample,121927,0,"A5H_s.wav",75
Sample,121927,0,"LR5_HatShakerS.wav",74
Sample,122142,0,"LR_Hat Synth.wav",80
Sample,122142,0,"E6H_s.wav",75
Sample,122356,0,"LR5_HatShakerS.wav",74
Sample,122356,0,"A5H_s.wav",75
Sample,122570,0,"LR_Hat Synth.wav",80
Sample,122570,0,"A6H_s.wav",90
Sample,122570,0,"LR4_SnareBPDT.wav",72
Sample,122784,0,"A6H_s.wav",90
Sample,122784,0,"LR5_HatShakerS.wav",74
Sample,122892,0,"LR5_HatShakerEC.wav",79
Sample,122892,0,"B6H_s.wav",90
Sample,122999,0,"LR_Hat Synth.wav",80
Sample,122999,0,"A6H_s.wav",90
Sample,123213,0,"G#6H_Ab6H_s.wav",90
Sample,123213,0,"LR5_HatShakerS.wav",74
Sample,123427,0,"LR_Hat Synth.wav",80
Sample,123427,0,"LR4_KickTBCD.wav",99
Sample,123427,0,"A6H_s.wav",90
Sample,123642,0,"LR5_HatShakerS.wav",74
Sample,123642,0,"B6H_s.wav",90
Sample,123856,0,"LR_Hat Synth.wav",80
Sample,123856,0,"C#7H_Db7H_s.wav",90
Sample,124070,0,"D7H_s.wav",90
Sample,124070,0,"LR5_HatShakerS.wav",74
Sample,124284,0,"LR4_SnareBPDT.wav",72
Sample,124284,0,"LR_Hat Synth.wav",80
Sample,124284,0,"E7H_s.wav",90
Sample,124499,0,"C#7H_Db7H_s.wav",90
Sample,124499,0,"LR5_HatShakerS.wav",74
Sample,124606,0,"LR5_HatShakerEC.wav",79
Sample,124713,0,"B6H_s.wav",75
Sample,124713,0,"LR_Hat Synth.wav",80
Sample,124820,0,"C#7H_Db7H_s.wav",75
Sample,124927,0,"LR5_HatShakerS.wav",74
Sample,124927,0,"B6H_s.wav",75
Sample,125034,0,"A6H_s.wav",75
Sample,125142,0,"LR_Hat Synth.wav",80
Sample,125142,0,"LR4_KickTBCD.wav",66
Sample,125142,0,"G#6H_Ab6H_s.wav",90
Sample,125356,0,"B5H_s.wav",75
Sample,125570,0,"E6H_s.wav",75
Sample,125570,0,"LR_Hat Synth.wav",80
Sample,125570,0,"LR4_KickTBCD.wav",66
Sample,125784,0,"B5H_s.wav",75
Sample,125999,0,"A6H_s.wav",90
Sample,125999,0,"LR_Hat Synth.wav",80
Sample,125999,0,"LR4_KickTBCD.wav",66
Sample,126213,0,"A6H_s.wav",90
Sample,126320,0,"B6H_s.wav",90
Sample,126427,0,"A6H_s.wav",90
Sample,126427,0,"LR4_SnareBPDT.wav",72
Sample,126427,0,"LR_Hat Synth.wav",80
Sample,126642,0,"G#6H_Ab6H_s.wav",90
Sample,126856,0,"LR4_KickTBCD.wav",99
Sample,126856,0,"LR_CymbalG.wav",83
Sample,126856,0,"A6H_s.wav",90
Sample,126856,0,"LR_CymbalHLWX.wav",30
Sample,127070,0,"LR5_HatShakerS.wav",74
Sample,127070,0,"A5H_s.wav",75
Sample,127284,0,"LR_Hat Synth.wav",80
Sample,127284,0,"E6H_s.wav",75
Sample,127499,0,"LR5_HatShakerS.wav",74
Sample,127499,0,"A5H_s.wav",75
Sample,127713,0,"LR_Hat Synth.wav",80
Sample,127713,0,"A6H_s.wav",90
Sample,127713,0,"LR4_SnareBPDT.wav",72
Sample,127927,0,"B6H_s.wav",90
Sample,127927,0,"LR5_HatShakerS.wav",74
Sample,128034,0,"LR5_HatShakerEC.wav",79
Sample,128142,0,"LR_Hat Synth.wav",80
Sample,128142,0,"A6H_s.wav",90
Sample,128356,0,"LR5_HatShakerS.wav",74
Sample,128356,0,"G#6H_Ab6H_s.wav",90
Sample,128570,0,"LR4_KickTBCD.wav",99
Sample,128570,0,"LR_Hat Synth.wav",80
Sample,128570,0,"A6H_s.wav",90
Sample,128784,0,"A5H_s.wav",75
Sample,128784,0,"LR5_HatShakerS.wav",74
Sample,128999,0,"LR_Hat Synth.wav",80
Sample,128999,0,"E6H_s.wav",75
Sample,129213,0,"LR5_HatShakerS.wav",74
Sample,129213,0,"A5H_s.wav",75
Sample,129427,0,"LR_Hat Synth.wav",80
Sample,129427,0,"LR4_SnareBPDT.wav",72
Sample,129427,0,"A6H_s.wav",90
Sample,129642,0,"A6H_s.wav",90
Sample,129642,0,"LR5_HatShakerS.wav",74
Sample,129749,0,"LR5_HatShakerEC.wav",79
Sample,129749,0,"B6H_s.wav",90
Sample,129856,0,"A6H_s.wav",90
Sample,129856,0,"LR_Hat Synth.wav",80
Sample,130070,0,"LR5_HatShakerS.wav",74
Sample,130070,0,"G#6H_Ab6H_s.wav",90
Sample,130284,0,"A6H_s.wav",90
Sample,130284,0,"LR_Hat Synth.wav",80
Sample,130284,0,"LR4_KickTBCD.wav",99
Sample,130499,0,"LR5_HatShakerS.wav",74
Sample,130499,0,"B6H_s.wav",90
Sample,130713,0,"LR_Hat Synth.wav",80
Sample,130713,0,"C#7H_Db7H_s.wav",90
Sample,130927,0,"D7H_s.wav",90
Sample,130927,0,"LR5_HatShakerS.wav",74
Sample,131142,0,"LR_Hat Synth.wav",80
Sample,131142,0,"LR4_SnareBPDT.wav",72
Sample,131142,0,"E7H_s.wav",90
Sample,131356,0,"C#7H_Db7H_s.wav",90
Sample,131356,0,"LR5_HatShakerS.wav",74
Sample,131463,0,"LR5_HatShakerEC.wav",79
Sample,131570,0,"B6H_s.wav",90
Sample,131570,0,"LR_Hat Synth.wav",80
Sample,131784,0,"LR5_HatShakerS.wav",74
Sample,131784,0,"A6H_s.wav",90
Sample,131999,0,"LR_Hat Synth.wav",80
Sample,131999,0,"G#6H_Ab6H.wav",90
Sample,131999,0,"LR4_KickTBCD.wav",99
Sample,132213,0,"LR5_HatShakerS.wav",74
Sample,132427,0,"LR_Hat Synth.wav",80
Sample,132427,0,"B5H_s.wav",75
Sample,132642,0,"LR5_HatShakerS.wav",74
Sample,132856,0,"LR4_SnareBPDT.wav",72
Sample,132856,0,"A6H_s.wav",90
Sample,132856,0,"LR_Hat Synth.wav",80
Sample,133070,0,"A6H_s.wav",90
Sample,133070,0,"LR5_HatShakerS.wav",74
Sample,133177,0,"LR5_HatShakerEC.wav",79
Sample,133177,0,"B6H_s.wav",90
Sample,133284,0,"LR_Hat Synth.wav",80
Sample,133284,0,"A6H_s.wav",90
Sample,133499,0,"G#6H_Ab6H_s.wav",90
Sample,133499,0,"LR5_HatShakerS.wav",74
Sample,133713,0,"A6H_s.wav",90
Sample,133713,0,"LR4_KickTBCD.wav",99
Sample,133713,0,"LR_Hat Synth.wav",80
Sample,133927,0,"A5H_s.wav",75
Sample,133927,0,"LR5_HatShakerS.wav",74
Sample,134142,0,"LR_Hat Synth.wav",80
Sample,134142,0,"E6H_s.wav",75
Sample,134356,0,"A5H_s.wav",75
Sample,134356,0,"LR5_HatShakerS.wav",74
Sample,134570,0,"LR_Hat Synth.wav",80
Sample,134570,0,"LR4_SnareBPDT.wav",72
Sample,134570,0,"A6H_s.wav",90
Sample,134784,0,"A6H_s.wav",90
Sample,134784,0,"LR5_HatShakerS.wav",74
Sample,134892,0,"B6H_s.wav",90
Sample,134892,0,"LR5_HatShakerEC.wav",79
Sample,134999,0,"A6H_s.wav",90
Sample,134999,0,"LR_Hat Synth.wav",80
Sample,135213,0,"G#6H_Ab6H_s.wav",90
Sample,135213,0,"LR5_HatShakerS.wav",74
Sample,135427,0,"A6H_s.wav",90
Sample,135427,0,"LR_Hat Synth.wav",80
Sample,135427,0,"LR4_KickTBCD.wav",99
Sample,135642,0,"A5H_s.wav",75
Sample,135642,0,"LR5_HatShakerS.wav",74
Sample,135856,0,"LR_Hat Synth.wav",80
Sample,135856,0,"E6H_s.wav",75
Sample,136070,0,"A5H_s.wav",75
Sample,136070,0,"LR5_HatShakerS.wav",74
Sample,136284,0,"A6H_s.wav",90
Sample,136284,0,"LR_Hat Synth.wav",80
Sample,136284,0,"LR4_SnareBPDT.wav",72
Sample,136499,0,"A6H_s.wav",90
Sample,136499,0,"LR5_HatShakerS.wav",74
Sample,136606,0,"B6H_s.wav",90
Sample,136606,0,"LR5_HatShakerEC.wav",79
Sample,136713,0,"A6H_s.wav",90
Sample,136713,0,"LR_Hat Synth.wav",80
Sample,136927,0,"G#6H_Ab6H_s.wav",90
Sample,136927,0,"LR5_HatShakerS.wav",74
Sample,137142,0,"LR4_KickTBCD.wav",99
Sample,137142,0,"A6H_s.wav",90
Sample,137142,0,"LR_Hat Synth.wav",80
Sample,137356,0,"LR5_HatShakerS.wav",74
Sample,137356,0,"B6H_s.wav",90
Sample,137570,0,"LR_Hat Synth.wav",80
Sample,137570,0,"C#7H_Db7H_s.wav",90
Sample,137784,0,"D7H_s.wav",90
Sample,137784,0,"LR5_HatShakerS.wav",74
Sample,137999,0,"LR_Hat Synth.wav",80
Sample,137999,0,"E7H_s.wav",90
Sample,137999,0,"LR4_SnareBPDT.wav",72
Sample,138213,0,"LR5_HatShakerS.wav",74
Sample,138213,0,"C#7H_Db7H_s.wav",90
Sample,138320,0,"LR5_HatShakerEC.wav",79
Sample,138427,0,"B6H_s.wav",90
Sample,138427,0,"LR_Hat Synth.wav",80
Sample,138642,0,"LR5_HatShakerS.wav",74
Sample,138642,0,"A6H_s.wav",90
Sample,138856,0,"LR_RevCyHLWX.wav",100
Sample,138856,0,"LR_Hat Synth.wav",80
Sample,138856,0,"G#6H_Ab6H_s.wav",90
Sample,138856,0,"LR4_KickTBCD.wav",66
Sample,138963,0,"LR4_KickTBCD.wav",37
Sample,139070,0,"LR4_KickTBCD.wav",46
Sample,139177,0,"LR4_KickTBCD.wav",37
Sample,139284,0,"LR_Hat Synth.wav",80
Sample,139284,0,"LR4_KickTBCD.wav",66
Sample,139284,0,"B5H_s.wav",75
Sample,139392,0,"LR4_KickTBCD.wav",37
Sample,139499,0,"LR4_KickTBCD.wav",46
Sample,139606,0,"LR4_KickTBCD.wav",37
Sample,139713,0,"LR_Hat Synth.wav",80
Sample,139713,0,"LR4_KickTBCD.wav",66
Sample,139713,0,"G#5H_Ab5H.wav",40
Sample,139820,0,"LR4_KickTBCD.wav",37
Sample,139927,0,"LR4_KickTBCD.wav",46
Sample,140034,0,"LR4_KickTBCD.wav",37
Sample,140142,0,"E5H.wav",30
Sample,140142,0,"LR_Hat Synth.wav",80
Sample,140142,0,"LR4_SnareBPDT.wav",72
Sample,140463,0,"A5H.wav",15
Sample,140517,0,"C#6H_Db6H.wav",15
Sample,140570,0,"C#6H_Db6H.wav",30
Sample,140570,0,"A6H.wav",75
Sample,140999,0,"G#6H_Ab6H.wav",75
Sample,141427,0,"A6H.wav",75
Sample,141856,0,"G#6H_Ab6H.wav",75
Sample,142284,0,"A6H.wav",75
Sample,142713,0,"E6H.wav",75
Sample,143142,0,"A6H.wav",75
Sample,143570,0,"D6H.wav",90
Sample,143999,0,"C#6H_Db6H.wav",75
Sample,144427,0,"D6H.wav",90
Sample,144856,0,"E6H.wav",75
Sample,145284,0,"C#6H_Db6H.wav",75
Sample,145713,0,"G#5H_Ab5H.wav",40
Sample,145713,0,"E5H.wav",30
Sample,145713,0,"E4S.wav",80
Sample,145713,0,"B5H.wav",60
Sample,146570,0,"A5H.wav",60
Sample,146999,0,"G#5H_Ab5H.wav",60
Sample,147320,0,"C#5H_Db5H.wav",25
Sample,147374,0,"F#5H_Gb5H.wav",35
Sample,147427,0,"A5H.wav",60
Sample,148713,0,"A5H.wav",75
Sample,148927,0,"B5H.wav",75
Sample,149142,0,"C#6H_Db6H.wav",90
Sample,150427,0,"C#6H_Db6H_s.wav",75
Sample,150642,0,"D6H_s.wav",75
Sample,150856,0,"E6H.wav",90
Sample,152142,0,"D6H_s.wav",75
Sample,152356,0,"C#6H_Db6H_s.wav",75
Sample,152570,0,"B5H.wav",90
Sample,154177,0,"A5H.wav",15
Sample,154231,0,"C#6H_Db6H.wav",15
Sample,154284,0,"A6H.wav",75
Sample,154713,0,"G#6H_Ab6H.wav",75
Sample,155142,0,"A6H.wav",75
Sample,155570,0,"G#6H_Ab6H.wav",75
Sample,155838,0,"D6H_s.wav",40
Sample,155945,0,"F#6H_Gb6H_s.wav",40
Sample,156106,0,"A6H.wav",75
Sample,156427,0,"E6H.wav",75
Sample,156856,0,"A6H.wav",75
Sample,157284,0,"D6H.wav",75
Sample,157713,0,"C#6H_Db6H.wav",45
Sample,157713,0,"E5H.wav",25
Sample,158142,0,"D6H.wav",75
Sample,158570,0,"E6H.wav",75
Sample,158999,0,"C#7H_Db7H.wav",75
Sample,159427,0,"B6H.wav",75
Sample,160713,0,"A5H_s.wav",75
Sample,160927,0,"G#5H_Ab5H_s.wav",75
Sample,161142,0,"A5H.wav",75
Sample,162427,0,"A5H.wav",75
Sample,162642,0,"B5H.wav",75
Sample,162856,0,"C#6H_Db6H.wav",90
Sample,164142,0,"C#6H_Db6H_s.wav",75
Sample,164356,0,"D6H_s.wav",75
Sample,164570,0,"E6H.wav",90
Sample,165856,0,"D6H_s.wav",75
Sample,166070,0,"C#6H_Db6H_s.wav",75
Sample,166284,0,"B5H.wav",90

[TimingPoints]
0,428.571428571429,4,1,0,100,1,0
1,-100,4,2,0,5,0,0
41142,428.571428571429,4,2,0,5,1,0
54856,-100,4,2,0,5,0,1
82284,-100,4,2,0,5,0,0
113142,-100,4,2,0,5,0,1
140142,-100,4,2,0,5,0,0

[HitObjects]
288,192,0,5,0,0:0:0:97:F#4S_Gb4S.wav
352,192,428,1,0,0:0:0:97:C#5S_Db5S.wav
416,192,857,1,0,0:0:0:97:F#5S_Gb5S.wav
96,192,1714,1,0,0:0:0:93:D4S.wav
160,192,2142,1,0,0:0:0:93:A4S.wav
224,192,2571,128,0,4714:0:0:0:93:D5S.wav
288,192,6857,1,0,0:0:0:97:F#4S_Gb4S.wav
352,192,7285,1,0,0:0:0:97:C#5S_Db5S.wav
416,192,7714,1,0,0:0:0:97:F#5S_Gb5S.wav
96,192,8571,1,0,0:0:0:93:D4S.wav
160,192,9000,1,0,0:0:0:93:A4S.wav
224,192,9428,128,0,11571:0:0:0:93:D5S.wav
96,192,13714,1,0,0:0:0:97:F#4S_Gb4S.wav
160,192,14142,1,0,0:0:0:97:C#5S_Db5S.wav
224,192,14571,1,0,0:0:0:97:F#5S_Gb5S_s.wav
352,192,14785,1,0,0:0:0:97:A5S.wav
160,192,15428,1,0,0:0:0:93:D4S.wav
224,192,15857,1,0,0:0:0:93:A4S.wav
288,192,16285,1,0,0:0:0:93:D5S.wav
224,192,16714,1,0,0:0:0:93:A4S.wav
96,192,17142,1,0,0:0:0:93:A3S.wav
160,192,17571,1,0,0:0:0:93:E4S.wav
224,192,18000,1,0,0:0:0:93:A4S.wav
160,192,18857,1,0,0:0:0:93:E4S.wav
224,192,19285,1,0,0:0:0:93:B4S.wav
288,192,19714,1,0,0:0:0:93:E5S.wav
224,192,20571,1,0,0:0:0:97:F#4S_Gb4S.wav
288,192,21000,1,0,0:0:0:97:C#5S_Db5S.wav
352,192,21428,1,0,0:0:0:97:F#5S_Gb5S.wav
179,192,22285,1,0,0:0:0:93:D4S.wav
230,192,22714,1,0,0:0:0:93:A4S.wav
288,192,23142,1,0,0:0:0:93:D5S.wav
96,192,24000,1,0,0:0:0:93:A3S.wav
160,192,24428,1,0,0:0:0:93:E4S.wav
224,192,24857,1,0,0:0:0:93:C#5S_Db5S.wav
329,192,25714,1,0,0:0:0:93:E4S.wav
402,192,26142,1,0,0:0:0:93:B4S.wav
475,192,26571,128,0,27428:0:0:0:93:G#5S_Ab5S.wav
96,192,27428,1,0,0:0:0:97:F#4S_Gb4S.wav
160,192,27857,1,0,0:0:0:97:C#5S_Db5S.wav
224,192,28285,1,0,0:0:0:97:F#5S_Gb5S_s.wav
352,192,28500,1,0,0:0:0:97:A5S.wav
160,192,29142,1,0,0:0:0:93:D4S.wav
224,192,29571,1,0,0:0:0:93:A4S.wav
288,192,30000,1,0,0:0:0:93:D5S.wav
224,192,30428,1,0,0:0:0:93:A4S.wav
96,192,30857,1,0,0:0:0:93:A3S.wav
160,192,31285,1,0,0:0:0:93:E4S.wav
224,192,31714,1,0,0:0:0:93:A4S.wav
160,192,32571,1,0,0:0:0:93:E4S.wav
224,192,33000,1,0,0:0:0:93:B4S.wav
288,192,33428,1,0,0:0:0:93:E5S.wav
224,192,34285,1,0,0:0:0:97:F#4S_Gb4S.wav
288,192,34714,1,0,0:0:0:97:C#5S_Db5S.wav
329,192,35142,1,0,0:0:0:97:F#5S_Gb5S.wav
160,192,36000,1,0,0:0:0:93:D4S.wav
224,192,36428,1,0,0:0:0:93:A4S.wav
281,192,36857,1,0,0:0:0:93:D5S.wav
96,192,37714,1,0,0:0:0:93:A3S.wav
160,192,38142,1,0,0:0:0:93:E4S.wav
224,192,38571,1,0,0:0:0:93:C#5S_Db5S.wav
329,192,39428,1,0,0:0:0:93:E4S.wav
402,192,39857,1,0,0:0:0:93:B4S.wav
475,192,40285,128,0,41142:0:0:0:93:E5S.wav
36,192,41142,1,0,0:0:0:93:F#4S_Gb4S.wav
109,192,41570,1,0,0:0:0:93:C#5S_Db5S.wav
182,192,41999,1,0,0:0:0:93:F#5S_Gb5S.wav
109,192,42427,1,0,0:0:0:93:C#5S_Db5S.wav
288,192,42856,1,0,0:0:0:93:D4S.wav
352,192,43284,1,0,0:0:0:93:A4S.wav
416,192,43713,1,0,0:0:0:93:D5S.wav
352,192,44142,1,0,0:0:0:93:A4S.wav
160,192,44570,1,0,0:0:0:93:A3S.wav
224,192,44999,1,0,0:0:0:93:E4S.wav
288,192,45427,1,0,0:0:0:93:C#5S_Db5S.wav
224,192,45856,1,0,0:0:0:93:E4S.wav
224,192,46284,1,0,0:0:0:93:E4S.wav
288,192,46713,1,0,0:0:0:93:B4S.wav
352,192,47142,1,0,0:0:0:93:E5S.wav
288,192,47570,1,0,0:0:0:93:B4S.wav
36,192,47999,1,0,0:0:0:93:F#4S_Gb4S.wav
109,192,48427,1,0,0:0:0:93:C#5S_Db5S.wav
182,192,48856,1,0,0:0:0:93:F#5S_Gb5S.wav
109,192,49284,1,0,0:0:0:93:C#5S_Db5S.wav
288,192,49713,1,0,0:0:0:93:D4S.wav
352,192,50142,1,0,0:0:0:93:A4S.wav
416,192,50570,1,0,0:0:0:93:D5S.wav
352,192,50999,1,0,0:0:0:93:A4S.wav
182,192,51427,1,0,0:0:0:93:A3S.wav
224,192,51856,1,0,0:0:0:93:E4S.wav
288,192,52284,1,0,0:0:0:93:C#5S_Db5S.wav
224,192,52713,1,0,0:0:0:93:E4S.wav
224,192,53142,1,0,0:0:0:93:E4S.wav
288,192,53570,1,0,0:0:0:93:B4S.wav
352,192,53999,1,0,0:0:0:93:E5S.wav
288,192,54427,1,0,0:0:0:93:B4S.wav
475,192,54856,1,0,0:0:0:94:F#3ss_SVS.wav
36,192,54856,1,0,0:0:0:82:LR_CymbalHLWX.wav
109,192,55284,1,0,0:0:0:94:C#4ss_SVS.wav
182,192,55713,1,0,0:0:0:94:A4ss_SVS.wav
109,192,56142,1,0,0:0:0:94:C#4ss_SVS.wav
182,192,56570,1,0,0:0:0:94:D4ss_SVS.wav
224,192,56999,1,0,0:0:0:94:A4ss_SVS.wav
288,192,57427,1,0,0:0:0:94:D5ss_SVS.wav
224,192,57856,1,0,0:0:0:94:A4ss_SVS.wav
288,192,58284,1,0,0:0:0:94:A3ss_SVS.wav
352,192,58713,1,0,0:0:0:94:E4ss_SVS.wav
416,192,59142,1,0,0:0:0:94:C#5ss_SVS.wav
352,192,59570,1,0,0:0:0:94:E4ss_SVS.wav
182,192,59999,1,0,0:0:0:94:E3ss_SVS.wav
224,192,60427,1,0,0:0:0:94:B3ss_SVS.wav
288,192,60856,1,0,0:0:0:94:E4ss_SVS.wav
224,192,61284,1,0,0:0:0:94:B3ss_SVS.wav
36,192,61713,1,0,0:0:0:94:F#3ss_SVS.wav
109,192,62142,1,0,0:0:0:94:C#4ss_SVS.wav
182,192,62570,1,0,0:0:0:94:A4ss_SVS.wav
109,192,62999,1,0,0:0:0:94:C#4ss_SVS.wav
182,192,63427,1,0,0:0:0:94:D4ss_SVS.wav
224,192,63856,1,0,0:0:0:94:A4ss_SVS.wav
288,192,64284,1,0,0:0:0:94:D5ss_SVS.wav
224,192,64713,1,0,0:0:0:94:A4ss_SVS.wav
288,192,65142,1,0,0:0:0:94:A3ss_SVS.wav
352,192,65570,1,0,0:0:0:94:E4ss_SVS.wav
416,192,65999,1,0,0:0:0:94:C#5ss_SVS.wav
352,192,66427,1,0,0:0:0:94:E4ss_SVS.wav
288,192,66856,1,0,0:0:0:88:E3ss_SVS.wav
224,192,67284,1,0,0:0:0:88:B3ss_SVS.wav
182,192,67713,1,0,0:0:0:88:E4ss_SVS.wav
109,192,68142,1,0,0:0:0:88:B3ss_SVS.wav
475,192,68570,1,0,0:0:0:94:F#3ss_SVS.wav
36,192,68570,1,0,0:0:0:30:LR_CymbalHLWX.wav
160,192,68999,1,0,0:0:0:94:C#4ss_SVS.wav
224,192,69427,1,0,0:0:0:94:A4ss_SVS.wav
160,192,69856,1,0,0:0:0:94:C#4ss_SVS.wav
288,192,70284,1,0,0:0:0:94:D4ss_SVS.wav
352,192,70713,1,0,0:0:0:94:A4ss_SVS.wav
416,192,71142,1,0,0:0:0:94:D5ss_SVS.wav
352,192,71570,1,0,0:0:0:94:A4ss_SVS.wav
224,192,71999,1,0,0:0:0:94:A3ss_SVS.wav
288,192,72427,1,0,0:0:0:94:E4ss_SVS.wav
352,192,72856,1,0,0:0:0:94:C#5ss_SVS.wav
288,192,73284,1,0,0:0:0:94:E4ss_SVS.wav
160,192,73713,1,0,0:0:0:94:E3ss_SVS.wav
224,192,74142,1,0,0:0:0:94:B3ss_SVS.wav
288,192,74570,1,0,0:0:0:94:E4ss_SVS.wav
224,192,74999,1,0,0:0:0:94:B3ss_SVS.wav
36,192,75427,1,0,0:0:0:94:F#3ss_SVS.wav
160,192,75856,1,0,0:0:0:94:C#4ss_SVS.wav
224,192,76284,1,0,0:0:0:94:A4ss_SVS.wav
160,192,76713,1,0,0:0:0:94:C#4ss_SVS.wav
288,192,77142,1,0,0:0:0:94:D4ss_SVS.wav
352,192,77570,1,0,0:0:0:94:A4ss_SVS.wav
416,192,77999,1,0,0:0:0:94:D5ss_SVS.wav
352,192,78427,1,0,0:0:0:94:A4ss_SVS.wav
230,192,78856,1,0,0:0:0:94:A3ss_SVS.wav
288,192,79284,1,0,0:0:0:94:E4ss_SVS.wav
352,192,79713,1,0,0:0:0:94:C#5ss_SVS.wav
288,192,80142,1,0,0:0:0:94:E4ss_SVS.wav
224,192,80570,1,0,0:0:0:88:E3ss_SVS.wav
182,192,80999,1,0,0:0:0:88:B3ss_SVS.wav
109,192,81427,1,0,0:0:0:88:E4ss_SVS.wav
36,192,81856,1,0,0:0:0:88:B3ss_SVS.wav
475,192,82284,1,0,0:0:0:41:LR4_KickTBCD.wav
96,192,85713,1,0,0:0:0:97:F#4S_Gb4S.wav
160,192,86142,1,0,0:0:0:97:C#5S_Db5S.wav
288,192,86570,1,0,0:0:0:97:F#5S_Gb5S_s.wav
352,192,86784,1,0,0:0:0:97:A5S.wav
109,192,87427,1,0,0:0:0:93:D4S.wav
182,192,87856,1,0,0:0:0:93:A4S.wav
224,192,88284,1,0,0:0:0:93:D5S.wav
182,192,88713,1,0,0:0:0:93:A4S.wav
329,192,89142,1,0,0:0:0:93:A3S.wav
402,192,89570,1,0,0:0:0:93:E4S.wav
475,192,89999,1,0,0:0:0:93:A4S.wav
160,192,90856,1,0,0:0:0:93:E4S.wav
224,192,91284,1,0,0:0:0:93:B4S.wav
288,192,91713,1,0,0:0:0:93:E5S.wav
36,192,92570,1,0,0:0:0:97:F#4S_Gb4S.wav
109,192,92999,128,0,94284:0:0:0:93:C#5S_Db5S.wav
36,192,94284,1,0,0:0:0:93:D4S.wav
182,192,94713,1,0,0:0:0:93:A4S.wav
288,192,95142,1,0,0:0:0:93:D5S.wav
109,192,95999,1,0,0:0:0:93:A3S.wav
224,192,96427,1,0,0:0:0:93:E4S.wav
352,192,96856,1,0,0:0:0:93:C#5S_Db5S.wav
182,192,97713,1,0,0:0:0:93:E4S.wav
288,192,98142,1,0,0:0:0:93:B4S.wav
416,192,98570,1,0,0:0:0:93:G#5S_Ab5S.wav
96,192,99427,1,0,0:0:0:97:F#4S_Gb4S.wav
160,192,99856,1,0,0:0:0:97:C#5S_Db5S.wav
288,192,100284,1,0,0:0:0:97:F#5S_Gb5S_s.wav
352,192,100499,1,0,0:0:0:97:A5S.wav
160,192,101142,1,0,0:0:0:93:D4S.wav
224,192,101570,1,0,0:0:0:93:A4S.wav
281,192,101999,1,0,0:0:0:93:D5S.wav
224,192,102427,1,0,0:0:0:93:A4S.wav
329,192,102856,1,0,0:0:0:93:A3S.wav
402,192,103284,1,0,0:0:0:93:E4S.wav
475,192,103713,1,0,0:0:0:93:A4S.wav
224,192,104570,1,0,0:0:0:93:E4S.wav
281,192,104999,1,0,0:0:0:93:B4S.wav
332,192,105427,1,0,0:0:0:93:E5S.wav
96,192,106284,5,0,0:0:0:97:F#4S_Gb4S.wav
160,192,106713,1,0,0:0:0:97:C#5S_Db5S.wav
224,192,107142,1,0,0:0:0:97:F#5S_Gb5S.wav
36,192,107999,1,0,0:0:0:93:D4S.wav
182,192,108427,1,0,0:0:0:93:A4S.wav
288,192,108856,1,0,0:0:0:93:D5S.wav
109,192,109713,1,0,0:0:0:93:A3S.wav
230,192,110142,1,0,0:0:0:93:E4S.wav
352,192,110570,1,0,0:0:0:93:C#5S_Db5S.wav
182,192,111427,1,0,0:0:0:93:E4S.wav
288,192,111856,1,0,0:0:0:93:B4S.wav
416,192,112284,1,0,0:0:0:93:E5S.wav
475,192,113142,1,0,0:0:0:94:F#3ss_SVS.wav
32,192,113142,1,0,0:0:0:82:LR_CymbalHLWX.wav
96,192,113570,1,0,0:0:0:94:C#4ss_SVS.wav
160,192,113999,1,0,0:0:0:94:A4ss_SVS.wav
224,192,114427,1,0,0:0:0:94:C#4ss_SVS.wav
96,192,114856,1,0,0:0:0:94:D4ss_SVS.wav
160,192,115284,1,0,0:0:0:94:A4ss_SVS.wav
224,192,115713,1,0,0:0:0:94:D5ss_SVS.wav
288,192,116142,1,0,0:0:0:94:A4ss_SVS.wav
160,192,116570,1,0,0:0:0:94:A3ss_SVS.wav
224,192,116999,1,0,0:0:0:94:E4ss_SVS.wav
288,192,117427,1,0,0:0:0:94:C#5ss_SVS.wav
329,192,117856,1,0,0:0:0:94:E4ss_SVS.wav
224,192,118284,1,0,0:0:0:94:E3ss_SVS.wav
288,192,118713,1,0,0:0:0:94:B3ss_SVS.wav
352,192,119142,1,0,0:0:0:94:E4ss_SVS.wav
402,192,119570,1,0,0:0:0:94:B3ss_SVS.wav
36,192,119999,1,0,0:0:0:94:F#3ss_SVS.wav
109,192,120427,1,0,0:0:0:94:C#4ss_SVS.wav
182,192,120856,1,0,0:0:0:94:A4ss_SVS.wav
224,192,121284,1,0,0:0:0:94:C#4ss_SVS.wav
160,192,121713,1,0,0:0:0:94:D4ss_SVS.wav
224,192,122142,1,0,0:0:0:94:A4ss_SVS.wav
288,192,122570,1,0,0:0:0:94:D5ss_SVS.wav
352,192,122999,1,0,0:0:0:94:A4ss_SVS.wav
288,192,123427,1,0,0:0:0:94:A3ss_SVS.wav
352,192,123856,1,0,0:0:0:94:E4ss_SVS.wav
416,192,124284,1,0,0:0:0:94:C#5ss_SVS.wav
480,192,124713,1,0,0:0:0:94:E4ss_SVS.wav
288,192,125142,1,0,0:0:0:88:E3ss_SVS.wav
224,192,125570,1,0,0:0:0:88:B3ss_SVS.wav
160,192,125999,1,0,0:0:0:88:E4ss_SVS.wav
96,192,126427,1,0,0:0:0:88:B3ss_SVS.wav
475,192,126856,1,0,0:0:0:94:F#3ss_SVS.wav
36,192,126856,1,0,0:0:0:30:LR_CymbalHLWX.wav
160,192,127284,1,0,0:0:0:94:C#4ss_SVS.wav
224,192,127713,1,0,0:0:0:94:A4ss_SVS.wav
160,192,128142,1,0,0:0:0:94:C#4ss_SVS.wav
32,192,128570,1,0,0:0:0:94:D4ss_SVS.wav
224,192,128999,1,0,0:0:0:94:A4ss_SVS.wav
281,192,129427,1,0,0:0:0:94:D5ss_SVS.wav
224,192,129856,1,0,0:0:0:94:A4ss_SVS.wav
32,192,130284,1,0,0:0:0:94:A3ss_SVS.wav
256,192,130713,1,0,0:0:0:94:E4ss_SVS.wav
329,192,131142,1,0,0:0:0:94:C#5ss_SVS.wav
288,192,131570,1,0,0:0:0:94:E4ss_SVS.wav
32,192,131999,1,0,0:0:0:94:E3ss_SVS.wav
332,192,132427,1,0,0:0:0:94:B3ss_SVS.wav
402,192,132856,1,0,0:0:0:94:E4ss_SVS.wav
352,192,133284,1,0,0:0:0:94:B3ss_SVS.wav
36,192,133713,1,0,0:0:0:94:F#3ss_SVS.wav
109,192,134142,1,0,0:0:0:94:C#4ss_SVS.wav
182,192,134570,1,0,0:0:0:94:A4ss_SVS.wav
96,192,134999,1,0,0:0:0:94:C#4ss_SVS.wav
475,192,135427,1,0,0:0:0:94:D4ss_SVS.wav
402,192,135856,1,0,0:0:0:94:A4ss_SVS.wav
329,192,136284,1,0,0:0:0:94:D5ss_SVS.wav
416,192,136713,1,0,0:0:0:94:A4ss_SVS.wav
96,192,137142,1,0,0:0:0:94:A3ss_SVS.wav
160,192,137570,1,0,0:0:0:94:E4ss_SVS.wav
224,192,137999,1,0,0:0:0:94:C#5ss_SVS.wav
160,192,138427,1,0,0:0:0:94:E4ss_SVS.wav
480,192,138856,1,0,0:0:0:88:E3ss_SVS.wav
352,192,139284,1,0,0:0:0:88:B3ss_SVS.wav
224,192,139713,1,0,0:0:0:88:E4ss_SVS.wav
96,192,140142,1,0,0:0:0:88:B3ss_SVS.wav
475,192,140570,128,0,142284:0:0:0:93:F#4S_Gb4S.wav
32,192,140570,1,0,0:0:0:16:LR_CymbalHLWX.wav
352,192,142284,1,0,0:0:0:97:F#5S_Gb5S.wav
288,192,142713,1,0,0:0:0:97:C#5S_Db5S.wav
224,192,143142,1,0,0:0:0:97:A4S.wav
182,192,143570,1,0,0:0:0:97:E4S.wav
109,192,143999,1,0,0:0:0:97:A3S.wav
182,192,144427,1,0,0:0:0:93:E4S.wav
224,192,144856,128,0,145713:0:0:0:93:A4S.wav
36,192,145713,128,0,147427:0:0:0:97:E4S.wav
160,192,147427,1,0,0:0:0:93:F#3S_Gb3S.wav
224,192,147856,1,0,0:0:0:93:C#4S_Db4S.wav
288,192,148284,128,0,149142:0:0:0:93:A4S.wav
224,192,149142,1,0,0:0:0:97:D4S.wav
288,192,149570,1,0,0:0:0:97:A4S.wav
352,192,149999,128,0,150856:0:0:0:97:D5S.wav
288,192,150856,1,0,0:0:0:97:A3S.wav
352,192,151284,1,0,0:0:0:97:E4S.wav
416,192,151713,128,0,152570:0:0:0:97:C#5S_Db5S.wav
352,192,152570,1,0,0:0:0:97:E4S.wav
416,192,152999,1,0,0:0:0:97:B4S.wav
475,192,153427,128,0,154284:0:0:0:97:G#5S_Ab5S.wav
36,192,154284,5,0,0:0:0:97:F#4S_Gb4S.wav
109,192,154713,1,0,0:0:0:97:C#5S_Db5S.wav
182,192,155142,128,0,155999:0:0:0:97:F#5S_Gb5S.wav
329,192,155999,1,0,0:0:0:93:D4S.wav
402,192,156427,1,0,0:0:0:93:A4S.wav
475,192,156856,1,0,0:0:0:93:D5S.wav
256,192,157284,1,0,0:0:0:93:A3S.wav
96,192,157713,1,0,0:0:0:93:A3S.wav
160,192,158142,1,0,0:0:0:93:E4S.wav
224,192,158570,128,0,159427:0:0:0:93:A4S.wav
288,192,159427,1,0,0:0:0:97:E4S.wav
352,192,159856,1,0,0:0:0:97:B4S.wav
416,192,160284,128,0,161142:0:0:0:97:G#5S_Ab5S.wav
36,192,161142,1,0,0:0:0:97:F#4S_Gb4S.wav
96,192,161570,128,0,162856:0:0:0:93:C#5S_Db5S.wav
224,192,162856,1,0,0:0:0:93:D4S.wav
288,192,163284,1,0,0:0:0:93:A4S.wav
352,192,163713,1,0,0:0:0:93:D5S.wav
160,192,164570,1,0,0:0:0:93:A3S.wav
224,192,164999,1,0,0:0:0:93:E4S.wav
288,192,165427,1,0,0:0:0:93:A4S.wav
96,192,166284,1,0,0:0:0:93:E4S.wav
160,192,166713,1,0,0:0:0:93:B4S.wav
224,192,167142,1,0,0:0:0:93:E5S.wav
