osu file format v14

[General]
AudioFilename: Yiruma - River Flows In You (LR Mix).mp3
AudioLeadIn: 0
PreviewTime: 53945
Countdown: 0
SampleSet: Soft
StackLeniency: 0.7
Mode: 3
LetterboxInBreaks: 0
SpecialStyle: 0
WidescreenStoryboard: 1
SamplesMatchPlaybackRate: 1

[Editor]
Bookmarks: 13612,27326,40290,54005,60433
DistanceSpacing: 0.8
BeatDivisor: 4
GridSize: 8
TimelineZoom: 1.1

[Metadata]
Title:River Flows in You (LR Mix)
TitleUnicode:River Flows in You (LR Mix)
Artist:Yiruma
ArtistUnicode:Yiruma
Creator:LordRaika
Version:7K Insane
Source:
Tags:Instrumental Piano Dubstep Gero Exile-
BeatmapID:774997
BeatmapSetID:299333

[Difficulty]
HPDrainRate:8.8
CircleSize:7
OverallDifficulty:8.6
ApproachRate:5
SliderMultiplier:1.4
SliderTickRate:1

[Events]
//Background and Video events
0,0,"BG2.jpg",0,0
//Break Periods
//Storyboard Layer 0 (Background)
//Storyboard Layer 1 (Fail)
//Storyboard Layer 2 (Pass)
//Storyboard Layer 3 (Foreground)
//Storyboard Sound Samples
Sample,51427,0,"LR5_RevCyVocalFM.wav",100
Sample,80570,0,"LR_RevCyHLWX.wav",85
Sample,80999,0,"B3ss_SVS.wav",38
Sample,81427,0,"E4ss_SVS.wav",38
Sample,82284,0,"LR5_RevCyEchoSC.wav",60
Sample,94284,0,"D4S.wav",66
Sample,94713,0,"A4S.wav",66
Sample,95142,0,"D5S.wav",66
Sample,95999,0,"A3S.wav",66
Sample,96427,0,"E4S.wav",66
Sample,96856,0,"C#5S_Db5S.wav",66
Sample,97713,0,"E4S.wav",66
Sample,98142,0,"B4S.wav",66
Sample,98570,0,"G#5S_Ab5S.wav",66
Sample,107999,0,"D4S.wav",66
Sample,108427,0,"A4S.wav",66
Sample,108856,0,"D5S.wav",66
Sample,109713,0,"A3S.wav",66
Sample,109927,0,"LR5_RevCyVocalFM.wav",66
Sample,110142,0,"E4S.wav",66
Sample,110570,0,"C#5S_Db5S.wav",66
Sample,138856,0,"LR_RevCyHLWX.wav",100
Sample,139284,0,"B3ss_SVS.wav",38
Sample,139713,0,"E4ss_SVS.wav",38

[TimingPoints]
0,428.571428571429,4,1,0,100,1,0
1,-100,4,2,0,5,0,0
41142,428.571428571429,4,2,0,5,1,0
54856,-100,4,2,0,5,0,1
82284,-100,4,2,0,5,0,0
113142,-100,4,2,0,5,0,1
140142,-100,4,2,0,5,0,0

[HitObjects]
475,192,0,5,0,0:0:0:75:A6H.wav
109,192,0,128,0,1714:0:0:0:80:F#4S_Gb4S.wav
416,192,428,1,0,0:0:0:75:G#6H_Ab6H.wav
182,192,428,128,0,1714:0:0:0:80:C#5S_Db5S.wav
480,192,857,1,0,0:0:0:75:A6H.wav
256,192,857,128,0,1714:0:0:0:80:F#5S_Gb5S.wav
416,192,1285,1,0,0:0:0:75:G#6H_Ab6H.wav
480,192,1714,1,0,0:0:0:75:A6H.wav
32,192,1714,128,0,4714:0:0:0:66:D4S.wav
352,192,2142,1,0,0:0:0:75:E6H.wav
96,192,2142,128,0,4714:0:0:0:66:A4S.wav
480,192,2571,1,0,0:0:0:75:A6H.wav
160,192,2571,128,0,4714:0:0:0:66:D5S.wav
288,192,3000,128,0,4714:0:0:0:90:D6H.wav
288,192,6750,1,0,0:0:0:15:A5H.wav
352,192,6803,1,0,0:0:0:15:C#6H_Db6H.wav
486,192,6857,1,0,0:0:0:75:A6H.wav
96,192,6857,128,0,8571:0:0:0:80:F#4S_Gb4S.wav
435,192,7285,1,0,0:0:0:75:G#6H_Ab6H.wav
160,192,7285,128,0,8571:0:0:0:80:C#5S_Db5S.wav
486,192,7714,1,0,0:0:0:75:A6H.wav
224,192,7714,128,0,8571:0:0:0:80:F#5S_Gb5S.wav
435,192,8142,1,0,0:0:0:75:G#6H_Ab6H.wav
486,192,8571,1,0,0:0:0:75:A6H.wav
32,192,8571,128,0,11571:0:0:0:66:D4S.wav
352,192,9000,1,0,0:0:0:75:E6H.wav
96,192,9000,128,0,11571:0:0:0:66:A4S.wav
486,192,9428,1,0,0:0:0:75:A6H.wav
160,192,9428,128,0,11571:0:0:0:66:D5S.wav
288,192,9857,128,0,11571:0:0:0:90:D6H.wav
288,192,13607,1,0,0:0:0:15:A5H.wav
352,192,13660,1,0,0:0:0:15:C#6H_Db6H.wav
486,192,13714,1,0,0:0:0:75:A6H.wav
32,192,13714,128,0,14571:0:0:0:80:F#4S_Gb4S.wav
435,192,14142,1,0,0:0:0:90:G#6H_Ab6H_s.wav
96,192,14142,128,0,14571:0:0:0:80:C#5S_Db5S.wav
486,192,14357,1,0,0:0:0:75:A6H.wav
160,192,14571,1,0,0:0:0:80:F#5S_Gb5S_s.wav
224,192,14785,128,0,15428:0:0:0:80:A5S.wav
435,192,15000,1,0,0:0:0:90:G#6H_Ab6H_s.wav
486,192,15214,1,0,0:0:0:75:A6H.wav
32,192,15428,128,0,15857:0:0:0:66:D4S.wav
329,192,15642,1,0,0:0:0:90:A5H_s.wav
402,192,15857,1,0,0:0:0:90:E6H_s.wav
96,192,15857,128,0,16285:0:0:0:66:A4S.wav
486,192,16071,1,0,0:0:0:75:A6H.wav
160,192,16285,128,0,16714:0:0:0:66:D5S.wav
352,192,16500,1,0,0:0:0:90:A5H_s.wav
480,192,16714,1,0,0:0:0:90:D6H_s.wav
96,192,16714,128,0,17142:0:0:0:66:A4S.wav
402,192,16928,1,0,0:0:0:50:A5H_s.wav
329,192,16982,1,0,0:0:0:50:E5H_s.wav
402,192,17035,1,0,0:0:0:50:A5H_s.wav
475,192,17089,1,0,0:0:0:90:C#6H_Db6H.wav
32,192,17142,1,0,0:0:0:66:A3S.wav
416,192,17571,1,0,0:0:0:75:D6H.wav
96,192,17571,1,0,0:0:0:66:E4S.wav
486,192,18000,1,0,0:0:0:75:E6H.wav
329,192,18000,1,0,0:0:0:90:A5H_s.wav
160,192,18000,128,0,18857:0:0:0:66:A4S.wav
435,192,18428,1,0,0:0:0:75:C#6H_Db6H.wav
36,192,18857,1,0,0:0:0:66:E4S.wav
256,192,18857,128,0,19714:0:0:0:90:B5H.wav
109,192,19285,1,0,0:0:0:66:B4S.wav
182,192,19714,128,0,20571:0:0:0:66:E5S.wav
402,192,20142,1,0,0:0:0:90:A5H_s.wav
329,192,20357,1,0,0:0:0:90:G#5H_Ab5H_s.wav
36,192,20571,1,0,0:0:0:80:F#4S_Gb4S.wav
402,192,20571,128,0,21428:0:0:0:90:A5H.wav
109,192,21000,1,0,0:0:0:80:C#5S_Db5S.wav
182,192,21428,128,0,22285:0:0:0:80:F#5S_Gb5S.wav
224,192,21642,1,0,0:0:0:70:E5H_s.wav
352,192,21857,1,0,0:0:0:90:A5H_s.wav
416,192,22071,1,0,0:0:0:90:B5H_s.wav
96,192,22285,1,0,0:0:0:66:D4S.wav
480,192,22285,128,0,23142:0:0:0:90:C#6H_Db6H.wav
160,192,22714,1,0,0:0:0:66:A4S.wav
224,192,23142,128,0,24000:0:0:0:66:D5S.wav
352,192,23571,1,0,0:0:0:90:C#6H_Db6H_s.wav
435,192,23785,1,0,0:0:0:90:D6H_s.wav
32,192,24000,1,0,0:0:0:66:A3S.wav
486,192,24000,128,0,24857:0:0:0:90:E6H.wav
96,192,24428,1,0,0:0:0:66:E4S.wav
160,192,24857,128,0,25714:0:0:0:66:C#5S_Db5S.wav
486,192,25285,1,0,0:0:0:90:D6H_s.wav
435,192,25500,1,0,0:0:0:90:C#6H_Db6H_s.wav
96,192,25714,1,0,0:0:0:66:E4S.wav
352,192,25714,128,0,26571:0:0:0:90:B5H.wav
160,192,26142,1,0,0:0:0:66:B4S.wav
256,192,26571,128,0,27428:0:0:0:66:G#5S_Ab5S.wav
329,192,27321,1,0,0:0:0:15:A5H.wav
402,192,27375,1,0,0:0:0:15:C#6H_Db6H.wav
486,192,27428,1,0,0:0:0:75:A6H.wav
32,192,27428,128,0,28285:0:0:0:80:F#4S_Gb4S.wav
435,192,27857,1,0,0:0:0:90:G#6H_Ab6H_s.wav
96,192,27857,128,0,28285:0:0:0:80:C#5S_Db5S.wav
486,192,28071,1,0,0:0:0:75:A6H.wav
160,192,28285,128,0,29142:0:0:0:80:F#5S_Gb5S_s.wav
224,192,28500,128,0,29142:0:0:0:80:A5S.wav
435,192,28714,1,0,0:0:0:90:G#6H_Ab6H_s.wav
486,192,28928,1,0,0:0:0:75:A6H.wav
32,192,29142,128,0,30000:0:0:0:66:D4S.wav
329,192,29357,1,0,0:0:0:90:A5H_s.wav
435,192,29571,1,0,0:0:0:90:E6H_s.wav
96,192,29571,128,0,30000:0:0:0:66:A4S.wav
486,192,29785,1,0,0:0:0:75:A6H.wav
160,192,30000,128,0,30857:0:0:0:66:D5S.wav
402,192,30214,1,0,0:0:0:90:A5H_s.wav
475,192,30428,1,0,0:0:0:90:D6H_s.wav
96,192,30428,128,0,30857:0:0:0:66:A4S.wav
402,192,30642,1,0,0:0:0:50:A5H_s.wav
329,192,30696,1,0,0:0:0:50:E5H_s.wav
402,192,30750,1,0,0:0:0:50:A5H_s.wav
475,192,30803,1,0,0:0:0:90:C#6H_Db6H.wav
32,192,30857,128,0,31285:0:0:0:66:A3S.wav
352,192,31285,1,0,0:0:0:75:D6H.wav
96,192,31285,128,0,31714:0:0:0:66:E4S.wav
435,192,31714,1,0,0:0:0:75:E6H.wav
160,192,31714,128,0,32571:0:0:0:66:A4S.wav
486,192,32142,1,0,0:0:0:75:C#7H_Db7H.wav
435,192,32571,1,0,0:0:0:75:B6H.wav
36,192,32571,1,0,0:0:0:66:E4S.wav
329,192,33000,1,0,0:0:0:90:E6H_s.wav
109,192,33000,1,0,0:0:0:66:B4S.wav
435,192,33267,1,0,0:0:0:90:B6H_s.wav
486,192,33428,1,0,0:0:0:90:C#7H_Db7H_s.wav
182,192,33428,128,0,34285:0:0:0:66:E5S.wav
435,192,33642,1,0,0:0:0:90:B6H_s.wav
352,192,33857,1,0,0:0:0:90:A6H_s.wav
288,192,34071,1,0,0:0:0:90:G#6H_Ab6H_s.wav
32,192,34285,128,0,34714:0:0:0:80:F#4S_Gb4S.wav
352,192,34285,128,0,35142:0:0:0:90:A6H.wav
96,192,34714,128,0,35142:0:0:0:80:C#5S_Db5S.wav
160,192,35142,128,0,36000:0:0:0:80:F#5S_Gb5S.wav
288,192,35571,1,0,0:0:0:90:A5H_s.wav
352,192,35785,1,0,0:0:0:90:B5H_s.wav
96,192,36000,128,0,36428:0:0:0:66:D4S.wav
416,192,36000,128,0,36857:0:0:0:90:C#6H_Db6H.wav
160,192,36428,128,0,36857:0:0:0:66:A4S.wav
224,192,36857,128,0,37714:0:0:0:66:D5S.wav
352,192,37285,1,0,0:0:0:90:C#6H_Db6H_s.wav
435,192,37500,1,0,0:0:0:90:D6H_s.wav
486,192,37714,128,0,38571:0:0:0:90:E6H.wav
32,192,37714,128,0,38142:0:0:0:66:A3S.wav
96,192,38142,128,0,38571:0:0:0:66:E4S.wav
160,192,38571,128,0,39428:0:0:0:66:C#5S_Db5S.wav
486,192,39000,1,0,0:0:0:90:D6H_s.wav
435,192,39214,1,0,0:0:0:90:C#6H_Db6H_s.wav
32,192,39428,128,0,39857:0:0:0:66:E4S.wav
352,192,39428,128,0,40285:0:0:0:90:B5H.wav
96,192,39857,128,0,40285:0:0:0:66:B4S.wav
435,192,40285,1,0,0:0:0:90:A6H_s.wav
160,192,40285,128,0,41142:0:0:0:66:E5S.wav
486,192,40500,1,0,0:0:0:90:B6H_s.wav
435,192,40714,1,0,0:0:0:90:A6H_s.wav
352,192,40928,1,0,0:0:0:90:G#6H_Ab6H_s.wav
25,192,41142,5,0,0:0:0:10:LR5_HatLowB.wav
416,192,41142,1,0,0:0:0:90:A6H_s.wav
230,192,41142,1,0,0:0:0:66:F#4S_Gb4S.wav
352,192,41356,1,0,0:0:0:75:A5H_s.wav
109,192,41356,1,0,0:0:0:15:LR5_HatShakerS.wav
480,192,41570,1,0,0:0:0:75:E6H_s.wav
288,192,41570,1,0,0:0:0:66:C#5S_Db5S.wav
36,192,41570,1,0,0:0:0:11:LR5_HatLowB.wav
352,192,41784,1,0,0:0:0:75:A5H_s.wav
160,192,41784,1,0,0:0:0:16:LR5_HatShakerS.wav
435,192,41999,1,0,0:0:0:90:A6H_s.wav
281,192,41999,1,0,0:0:0:66:F#5S_Gb5S.wav
36,192,41999,1,0,0:0:0:12:LR5_HatLowB.wav
486,192,42213,1,0,0:0:0:90:B6H_s.wav
109,192,42213,1,0,0:0:0:17:LR5_HatShakerS.wav
182,192,42320,1,0,0:0:0:17:LR5_HatShakerEC.wav
435,192,42427,1,0,0:0:0:90:A6H_s.wav
288,192,42427,1,0,0:0:0:66:C#5S_Db5S.wav
36,192,42427,1,0,0:0:0:13:LR5_HatLowB.wav
352,192,42642,1,0,0:0:0:90:G#6H_Ab6H_s.wav
160,192,42642,1,0,0:0:0:18:LR5_HatShakerS.wav
486,192,42856,1,0,0:0:0:90:A6H_s.wav
230,192,42856,1,0,0:0:0:66:D4S.wav
25,192,42856,1,0,0:0:0:15:LR5_HatLowB.wav
352,192,43070,1,0,0:0:0:75:A5H_s.wav
76,192,43070,1,0,0:0:0:20:LR5_HatShakerS.wav
435,192,43284,1,0,0:0:0:75:E6H_s.wav
475,192,43284,1,0,0:0:0:66:A4S.wav
182,192,43284,1,0,0:0:0:17:LR5_HatLowB.wav
352,192,43499,1,0,0:0:0:75:A5H_s.wav
36,192,43499,1,0,0:0:0:22:LR5_HatShakerS.wav
435,192,43713,1,0,0:0:0:90:A6H_s.wav
281,192,43713,1,0,0:0:0:66:D5S.wav
96,192,43713,1,0,0:0:0:19:LR5_HatLowB.wav
486,192,43927,1,0,0:0:0:90:B6H_s.wav
160,192,43927,1,0,0:0:0:24:LR5_HatShakerS.wav
109,192,44034,1,0,0:0:0:24:LR5_HatShakerEC.wav
435,192,44142,1,0,0:0:0:90:A6H_s.wav
288,192,44142,1,0,0:0:0:66:A4S.wav
36,192,44142,1,0,0:0:0:21:LR5_HatLowB.wav
352,192,44356,1,0,0:0:0:90:G#6H_Ab6H_s.wav
160,192,44356,1,0,0:0:0:26:LR5_HatShakerS.wav
435,192,44570,1,0,0:0:0:90:A6H_s.wav
230,192,44570,1,0,0:0:0:66:A3S.wav
36,192,44570,1,0,0:0:0:24:LR5_HatLowB.wav
486,192,44784,1,0,0:0:0:90:B6H_s.wav
109,192,44784,1,0,0:0:0:29:LR5_HatShakerS.wav
329,192,44999,1,0,0:0:0:90:C#7H_Db7H_s.wav
182,192,44999,1,0,0:0:0:66:E4S.wav
36,192,44999,1,0,0:0:0:27:LR5_HatLowB.wav
402,192,45213,1,0,0:0:0:90:D7H_s.wav
76,192,45213,1,0,0:0:0:32:LR5_HatShakerS.wav
486,192,45427,1,0,0:0:0:90:E7H_s.wav
224,192,45427,1,0,0:0:0:66:C#5S_Db5S.wav
25,192,45427,1,0,0:0:0:30:LR5_HatLowB.wav
384,192,45642,1,0,0:0:0:90:C#7H_Db7H_s.wav
182,192,45642,1,0,0:0:0:35:LR5_HatShakerS.wav
109,192,45749,1,0,0:0:0:35:LR5_HatShakerEC.wav
329,192,45856,1,0,0:0:0:90:B6H_s.wav
36,192,45856,1,0,0:0:0:66:E4S.wav
256,192,45856,1,0,0:0:0:33:LR5_HatLowB.wav
475,192,46070,1,0,0:0:0:90:A6H_s.wav
182,192,46070,1,0,0:0:0:38:LR5_HatShakerS.wav
384,192,46284,1,0,0:0:0:90:G#6H_Ab6H.wav
288,192,46284,1,0,0:0:0:66:E4S.wav
109,192,46284,1,0,0:0:0:37:LR5_HatLowB.wav
32,192,46499,1,0,0:0:0:42:LR5_HatShakerS.wav
475,192,46713,1,0,0:0:0:75:B5H_s.wav
329,192,46713,1,0,0:0:0:66:B4S.wav
96,192,46713,1,0,0:0:0:41:LR5_HatLowB.wav
160,192,46927,1,0,0:0:0:46:LR5_HatShakerS.wav
435,192,47142,1,0,0:0:0:90:A6H_s.wav
281,192,47142,1,0,0:0:0:66:E5S.wav
25,192,47142,1,0,0:0:0:45:LR5_HatLowB.wav
486,192,47356,1,0,0:0:0:90:B6H_s.wav
160,192,47356,1,0,0:0:0:50:LR5_HatShakerS.wav
96,192,47463,1,0,0:0:0:50:LR5_HatShakerEC.wav
435,192,47570,1,0,0:0:0:90:A6H_s.wav
224,192,47570,1,0,0:0:0:66:B4S.wav
32,192,47570,1,0,0:0:0:49:LR5_HatLowB.wav
352,192,47784,1,0,0:0:0:90:G#6H_Ab6H_s.wav
76,192,47784,1,0,0:0:0:50:LR5_HatShakerS.wav
486,192,47999,1,0,0:0:0:90:A6H_s.wav
288,192,47999,1,0,0:0:0:66:F#4S_Gb4S.wav
25,192,47999,1,0,0:0:0:49:LR5_HatLowB.wav
384,192,48213,1,0,0:0:0:75:A5H_s.wav
160,192,48213,1,0,0:0:0:50:LR5_HatShakerS.wav
352,192,48427,1,0,0:0:0:75:E6H_s.wav
224,192,48427,1,0,0:0:0:66:C#5S_Db5S.wav
96,192,48427,1,0,0:0:0:49:LR5_HatLowB.wav
384,192,48642,1,0,0:0:0:75:A5H_s.wav
160,192,48642,1,0,0:0:0:50:LR5_HatShakerS.wav
480,192,48856,1,0,0:0:0:90:A6H_s.wav
281,192,48856,1,0,0:0:0:66:F#5S_Gb5S.wav
36,192,48856,1,0,0:0:0:49:LR5_HatLowB.wav
416,192,49070,1,0,0:0:0:90:B6H_s.wav
109,192,49070,1,0,0:0:0:50:LR5_HatShakerS.wav
182,192,49177,1,0,0:0:0:50:LR5_HatShakerEC.wav
480,192,49284,1,0,0:0:0:90:A6H_s.wav
288,192,49284,1,0,0:0:0:66:C#5S_Db5S.wav
25,192,49284,1,0,0:0:0:49:LR5_HatLowB.wav
384,192,49499,1,0,0:0:0:90:G#6H_Ab6H_s.wav
76,192,49499,1,0,0:0:0:50:LR5_HatShakerS.wav
352,192,49713,1,0,0:0:0:90:A6H_s.wav
224,192,49713,1,0,0:0:0:66:D4S.wav
160,192,49713,1,0,0:0:0:49:LR5_HatLowB.wav
480,192,49927,1,0,0:0:0:75:A5H_s.wav
76,192,49927,1,0,0:0:0:50:LR5_HatShakerS.wav
435,192,50142,1,0,0:0:0:75:E6H_s.wav
288,192,50142,1,0,0:0:0:66:A4S.wav
25,192,50142,1,0,0:0:0:49:LR5_HatLowB.wav
475,192,50356,1,0,0:0:0:75:A5H_s.wav
76,192,50356,1,0,0:0:0:50:LR5_HatShakerS.wav
402,192,50570,1,0,0:0:0:90:A6H_s.wav
329,192,50570,1,0,0:0:0:66:D5S.wav
160,192,50570,1,0,0:0:0:49:LR5_HatLowB.wav
256,192,50784,1,0,0:0:0:90:B6H_s.wav
36,192,50784,1,0,0:0:0:50:LR5_HatShakerS.wav
128,192,50892,1,0,0:0:0:50:LR5_HatShakerEC.wav
480,192,50999,1,0,0:0:0:90:A6H_s.wav
352,192,50999,1,0,0:0:0:66:A4S.wav
182,192,50999,1,0,0:0:0:49:LR5_HatLowB.wav
384,192,51213,1,0,0:0:0:90:G#6H_Ab6H_s.wav
109,192,51213,1,0,0:0:0:55:LR5_HatShakerS.wav
480,192,51427,1,0,0:0:0:90:A6H_s.wav
182,192,51427,1,0,0:0:0:66:A3S.wav
36,192,51427,1,0,0:0:0:54:LR5_HatLowB.wav
256,192,51642,1,0,0:0:0:90:B6H_s.wav
109,192,51642,1,0,0:0:0:60:LR5_HatShakerS.wav
329,192,51856,1,0,0:0:0:90:C#7H_Db7H_s.wav
182,192,51856,1,0,0:0:0:66:E4S.wav
36,192,51856,1,0,0:0:0:59:LR5_HatLowB.wav
402,192,52070,1,0,0:0:0:90:D7H_s.wav
256,192,52070,1,0,0:0:0:65:LR5_HatShakerS.wav
475,192,52284,1,0,0:0:0:90:E7H_s.wav
329,192,52284,1,0,0:0:0:66:C#5S_Db5S.wav
182,192,52284,1,0,0:0:0:64:LR5_HatLowB.wav
384,192,52499,1,0,0:0:0:90:C#7H_Db7H_s.wav
256,192,52499,1,0,0:0:0:70:LR5_HatShakerS.wav
182,192,52606,1,0,0:0:0:50:LR5_HatShakerEC.wav
475,192,52713,1,0,0:0:0:90:B6H_s.wav
109,192,52713,1,0,0:0:0:66:E4S.wav
329,192,52713,1,0,0:0:0:69:LR5_HatLowB.wav
435,192,52927,1,0,0:0:0:90:A6H_s.wav
36,192,52927,1,0,0:0:0:75:LR5_HatShakerS.wav
329,192,53142,1,0,0:0:0:90:G#6H_Ab6H.wav
182,192,53142,1,0,0:0:0:66:E4S.wav
109,192,53142,1,0,0:0:0:74:LR5_HatLowB.wav
256,192,53356,1,0,0:0:0:80:LR5_HatShakerS.wav
329,192,53570,1,0,0:0:0:75:B5H_s.wav
182,192,53570,1,0,0:0:0:66:B4S.wav
36,192,53570,1,0,0:0:0:79:LR5_HatLowB.wav
109,192,53784,1,0,0:0:0:85:LR5_HatShakerS.wav
435,192,53999,1,0,0:0:0:90:A6H_s.wav
182,192,53999,1,0,0:0:0:66:E5S.wav
435,192,54213,1,0,0:0:0:90:A6H_s.wav
486,192,54320,1,0,0:0:0:90:B6H_s.wav
435,192,54427,1,0,0:0:0:90:A6H_s.wav
109,192,54427,1,0,0:0:0:66:B4S.wav
352,192,54642,1,0,0:0:0:90:G#6H_Ab6H_s.wav
288,192,54856,1,0,0:0:0:41:LR_CymbalHLWX.wav
416,192,54856,1,0,0:0:0:90:A6H_s.wav
182,192,54856,1,0,0:0:0:60:F#3ss_SVS.wav
480,192,54856,1,0,0:0:0:41:LR_CymbalHLWX.wav
25,192,54856,1,0,0:0:0:99:LR4_KickTBCD.wav
352,192,55070,1,0,0:0:0:75:A5H_s.wav
76,192,55070,1,0,0:0:0:74:LR5_HatShakerS.wav
402,192,55284,1,0,0:0:0:75:E6H_s.wav
36,192,55284,1,0,0:0:0:60:C#4ss_SVS.wav
182,192,55284,1,0,0:0:0:80:LR_Hat Synth.wav
352,192,55499,1,0,0:0:0:75:A5H_s.wav
109,192,55499,1,0,0:0:0:74:LR5_HatShakerS.wav
402,192,55713,1,0,0:0:0:90:A6H_s.wav
36,192,55713,1,0,0:0:0:60:A4ss_SVS.wav
288,192,55713,1,0,0:0:0:72:LR4_SnareBPDT.wav
182,192,55713,1,0,0:0:0:60:LR_Hat Synth.wav
416,192,55927,1,0,0:0:0:90:A6H_s.wav
96,192,55927,1,0,0:0:0:74:LR5_HatShakerS.wav
480,192,56034,1,0,0:0:0:90:B6H_s.wav
182,192,56034,1,0,0:0:0:79:LR5_HatShakerEC.wav
416,192,56142,1,0,0:0:0:90:A6H_s.wav
36,192,56142,1,0,0:0:0:60:C#4ss_SVS.wav
224,192,56142,1,0,0:0:0:60:LR_Hat Synth.wav
329,192,56356,1,0,0:0:0:90:G#6H_Ab6H_s.wav
182,192,56356,1,0,0:0:0:74:LR5_HatShakerS.wav
402,192,56570,1,0,0:0:0:90:A6H_s.wav
256,192,56570,1,0,0:0:0:60:D4ss_SVS.wav
36,192,56570,1,0,0:0:0:80:LR_Hat Synth.wav
109,192,56570,1,0,0:0:0:99:LR4_KickTBCD.wav
329,192,56784,1,0,0:0:0:75:A5H_s.wav
182,192,56784,1,0,0:0:0:74:LR5_HatShakerS.wav
435,192,56999,1,0,0:0:0:75:E6H_s.wav
109,192,56999,1,0,0:0:0:60:A4ss_SVS.wav
256,192,56999,1,0,0:0:0:80:LR_Hat Synth.wav
352,192,57213,1,0,0:0:0:75:A5H_s.wav
182,192,57213,1,0,0:0:0:74:LR5_HatShakerS.wav
475,192,57427,1,0,0:0:0:90:A6H_s.wav
109,192,57427,1,0,0:0:0:60:D5ss_SVS.wav
36,192,57427,1,0,0:0:0:60:LR_Hat Synth.wav
402,192,57427,1,0,0:0:0:72:LR4_SnareBPDT.wav
329,192,57642,1,0,0:0:0:90:A6H_s.wav
182,192,57642,1,0,0:0:0:74:LR5_HatShakerS.wav
402,192,57749,1,0,0:0:0:90:B6H_s.wav
109,192,57749,1,0,0:0:0:79:LR5_HatShakerEC.wav
329,192,57856,1,0,0:0:0:90:A6H_s.wav
256,192,57856,1,0,0:0:0:60:A4ss_SVS.wav
32,192,57856,1,0,0:0:0:60:LR_Hat Synth.wav
402,192,58070,1,0,0:0:0:90:G#6H_Ab6H_s.wav
109,192,58070,1,0,0:0:0:74:LR5_HatShakerS.wav
329,192,58284,1,0,0:0:0:90:A6H_s.wav
182,192,58284,1,0,0:0:0:60:A3ss_SVS.wav
32,192,58284,1,0,0:0:0:99:LR4_KickTBCD.wav
475,192,58284,1,0,0:0:0:80:LR_Hat Synth.wav
288,192,58499,1,0,0:0:0:90:B6H_s.wav
109,192,58499,1,0,0:0:0:74:LR5_HatShakerS.wav
352,192,58713,1,0,0:0:0:90:C#7H_Db7H_s.wav
182,192,58713,1,0,0:0:0:60:E4ss_SVS.wav
36,192,58713,1,0,0:0:0:80:LR_Hat Synth.wav
435,192,58927,1,0,0:0:0:90:D7H_s.wav
256,192,58927,1,0,0:0:0:74:LR5_HatShakerS.wav
486,192,59142,1,0,0:0:0:90:E7H_s.wav
329,192,59142,1,0,0:0:0:60:C#5ss_SVS.wav
96,192,59142,1,0,0:0:0:72:LR4_SnareBPDT.wav
36,192,59142,1,0,0:0:0:60:LR_Hat Synth.wav
384,192,59356,1,0,0:0:0:90:C#7H_Db7H_s.wav
182,192,59356,1,0,0:0:0:74:LR5_HatShakerS.wav
96,192,59463,1,0,0:0:0:79:LR5_HatShakerEC.wav
352,192,59570,1,0,0:0:0:90:B6H_s.wav
475,192,59570,1,0,0:0:0:60:E4ss_SVS.wav
36,192,59570,1,0,0:0:0:60:LR_Hat Synth.wav
256,192,59784,1,0,0:0:0:90:A6H_s.wav
109,192,59784,1,0,0:0:0:74:LR5_HatShakerS.wav
475,192,59999,1,0,0:0:0:90:G#6H_Ab6H.wav
160,192,59999,1,0,0:0:0:60:E3ss_SVS.wav
329,192,59999,1,0,0:0:0:80:LR_Hat Synth.wav
25,192,59999,1,0,0:0:0:99:LR4_KickTBCD.wav
256,192,60213,1,0,0:0:0:74:LR5_HatShakerS.wav
416,192,60427,1,0,0:0:0:75:B5H_s.wav
182,192,60427,1,0,0:0:0:60:B3ss_SVS.wav
36,192,60427,1,0,0:0:0:80:LR_Hat Synth.wav
109,192,60642,1,0,0:0:0:74:LR5_HatShakerS.wav
435,192,60856,1,0,0:0:0:90:A6H_s.wav
182,192,60856,1,0,0:0:0:60:E4ss_SVS.wav
36,192,60856,1,0,0:0:0:60:LR_Hat Synth.wav
224,192,60856,1,0,0:0:0:72:LR4_SnareBPDT.wav
435,192,61070,1,0,0:0:0:90:A6H_s.wav
109,192,61070,1,0,0:0:0:74:LR5_HatShakerS.wav
486,192,61177,1,0,0:0:0:90:B6H_s.wav
182,192,61177,1,0,0:0:0:79:LR5_HatShakerEC.wav
435,192,61284,1,0,0:0:0:90:A6H_s.wav
288,192,61284,1,0,0:0:0:60:B3ss_SVS.wav
109,192,61284,1,0,0:0:0:60:LR_Hat Synth.wav
352,192,61499,1,0,0:0:0:90:G#6H_Ab6H_s.wav
36,192,61499,1,0,0:0:0:74:LR5_HatShakerS.wav
486,192,61713,1,0,0:0:0:90:A6H_s.wav
402,192,61713,1,0,0:0:0:60:F#3ss_SVS.wav
109,192,61713,1,0,0:0:0:99:LR4_KickTBCD.wav
182,192,61713,1,0,0:0:0:80:LR_Hat Synth.wav
329,192,61927,1,0,0:0:0:75:A5H_s.wav
36,192,61927,1,0,0:0:0:74:LR5_HatShakerS.wav
402,192,62142,1,0,0:0:0:75:E6H_s.wav
288,192,62142,1,0,0:0:0:60:C#4ss_SVS.wav
96,192,62142,1,0,0:0:0:80:LR_Hat Synth.wav
352,192,62356,1,0,0:0:0:75:A5H_s.wav
32,192,62356,1,0,0:0:0:74:LR5_HatShakerS.wav
416,192,62570,1,0,0:0:0:90:A6H_s.wav
182,192,62570,1,0,0:0:0:60:A4ss_SVS.wav
224,192,62570,1,0,0:0:0:72:LR4_SnareBPDT.wav
128,192,62570,1,0,0:0:0:60:LR_Hat Synth.wav
416,192,62784,1,0,0:0:0:90:A6H_s.wav
36,192,62784,1,0,0:0:0:74:LR5_HatShakerS.wav
486,192,62892,1,0,0:0:0:90:B6H_s.wav
128,192,62892,1,0,0:0:0:79:LR5_HatShakerEC.wav
435,192,62999,1,0,0:0:0:90:A6H_s.wav
288,192,62999,1,0,0:0:0:60:C#4ss_SVS.wav
182,192,62999,1,0,0:0:0:60:LR_Hat Synth.wav
352,192,63213,1,0,0:0:0:90:G#6H_Ab6H_s.wav
76,192,63213,1,0,0:0:0:74:LR5_HatShakerS.wav
486,192,63427,1,0,0:0:0:90:A6H_s.wav
230,192,63427,1,0,0:0:0:60:D4ss_SVS.wav
182,192,63427,1,0,0:0:0:80:LR_Hat Synth.wav
25,192,63427,1,0,0:0:0:99:LR4_KickTBCD.wav
402,192,63642,1,0,0:0:0:75:A5H_s.wav
109,192,63642,1,0,0:0:0:74:LR5_HatShakerS.wav
329,192,63856,1,0,0:0:0:75:E6H_s.wav
256,192,63856,1,0,0:0:0:60:A4ss_SVS.wav
36,192,63856,1,0,0:0:0:80:LR_Hat Synth.wav
402,192,64070,1,0,0:0:0:75:A5H_s.wav
76,192,64070,1,0,0:0:0:74:LR5_HatShakerS.wav
475,192,64284,1,0,0:0:0:90:A6H_s.wav
182,192,64284,1,0,0:0:0:60:D5ss_SVS.wav
36,192,64284,1,0,0:0:0:60:LR_Hat Synth.wav
224,192,64284,1,0,0:0:0:72:LR4_SnareBPDT.wav
329,192,64499,1,0,0:0:0:90:B6H_s.wav
96,192,64499,1,0,0:0:0:74:LR5_HatShakerS.wav
160,192,64606,1,0,0:0:0:79:LR5_HatShakerEC.wav
402,192,64713,1,0,0:0:0:90:A6H_s.wav
224,192,64713,1,0,0:0:0:60:A4ss_SVS.wav
32,192,64713,1,0,0:0:0:60:LR_Hat Synth.wav
329,192,64927,1,0,0:0:0:90:G#6H_Ab6H_s.wav
76,192,64927,1,0,0:0:0:74:LR5_HatShakerS.wav
402,192,65142,1,0,0:0:0:90:A6H_s.wav
230,192,65142,1,0,0:0:0:60:A3ss_SVS.wav
25,192,65142,1,0,0:0:0:99:LR4_KickTBCD.wav
182,192,65142,1,0,0:0:0:80:LR_Hat Synth.wav
475,192,65356,1,0,0:0:0:90:B6H_s.wav
76,192,65356,1,0,0:0:0:74:LR5_HatShakerS.wav
329,192,65570,1,0,0:0:0:90:C#7H_Db7H_s.wav
288,192,65570,1,0,0:0:0:60:E4ss_SVS.wav
182,192,65570,1,0,0:0:0:80:LR_Hat Synth.wav
402,192,65784,1,0,0:0:0:90:D7H_s.wav
36,192,65784,1,0,0:0:0:74:LR5_HatShakerS.wav
475,192,65999,1,0,0:0:0:90:E7H_s.wav
109,192,65999,1,0,0:0:0:60:C#5ss_SVS.wav
160,192,65999,1,0,0:0:0:72:LR4_SnareBPDT.wav
224,192,65999,1,0,0:0:0:60:LR_Hat Synth.wav
402,192,66213,1,0,0:0:0:90:C#7H_Db7H_s.wav
36,192,66213,1,0,0:0:0:74:LR5_HatShakerS.wav
109,192,66320,1,0,0:0:0:79:LR5_HatShakerEC.wav
329,192,66427,1,0,0:0:0:90:B6H_s.wav
182,192,66427,1,0,0:0:0:60:E4ss_SVS.wav
224,192,66427,1,0,0:0:0:60:LR_Hat Synth.wav
402,192,66642,1,0,0:0:0:90:A6H_s.wav
96,192,66642,1,0,0:0:0:74:LR5_HatShakerS.wav
475,192,66856,1,0,0:0:0:90:G#6H_Ab6H.wav
329,192,66856,1,0,0:0:0:38:E3ss_SVS.wav
182,192,66856,1,0,0:0:0:66:LR4_KickTBCD.wav
32,192,66856,1,0,0:0:0:48:LR_Hat Synth.wav
182,192,67070,1,0,0:0:0:33:LR4_KickTBCD.wav
475,192,67070,1,0,0:0:0:33:LR4_KickTBCD.wav
402,192,67284,1,0,0:0:0:75:B5H_s.wav
109,192,67284,1,0,0:0:0:38:B3ss_SVS.wav
329,192,67284,1,0,0:0:0:48:LR_Hat Synth.wav
256,192,67284,1,0,0:0:0:66:LR4_KickTBCD.wav
402,192,67499,1,0,0:0:0:33:LR4_KickTBCD.wav
109,192,67499,1,0,0:0:0:33:LR4_KickTBCD.wav
329,192,67713,1,0,0:0:0:40:G#5H_Ab5H.wav
256,192,67713,1,0,0:0:0:38:E4ss_SVS.wav
25,192,67713,1,0,0:0:0:66:LR4_KickTBCD.wav
182,192,67713,1,0,0:0:0:48:LR_Hat Synth.wav
36,192,67927,1,0,0:0:0:33:LR4_KickTBCD.wav
329,192,67927,1,0,0:0:0:33:LR4_KickTBCD.wav
256,192,68142,1,0,0:0:0:36:LR4_SnareBPDT.wav
475,192,68142,1,0,0:0:0:30:E5H.wav
182,192,68142,1,0,0:0:0:38:B3ss_SVS.wav
96,192,68142,1,0,0:0:0:48:LR_Hat Synth.wav
402,192,68142,1,0,0:0:0:36:LR4_SnareBPDT.wav
32,192,68570,1,0,0:0:0:99:LR4_KickTBCD.wav
486,192,68570,1,0,0:0:0:90:A6H_s.wav
230,192,68570,1,0,0:0:0:60:F#3ss_SVS.wav
182,192,68570,1,0,0:0:0:83:LR_CymbalG.wav
352,192,68570,1,0,0:0:0:30:LR_CymbalHLWX.wav
384,192,68784,1,0,0:0:0:75:A5H_s.wav
76,192,68784,1,0,0:0:0:74:LR5_HatShakerS.wav
352,192,68999,1,0,0:0:0:75:E6H_s.wav
224,192,68999,1,0,0:0:0:60:C#4ss_SVS.wav
32,192,68999,1,0,0:0:0:80:LR_Hat Synth.wav
384,192,69213,1,0,0:0:0:75:A5H_s.wav
76,192,69213,1,0,0:0:0:74:LR5_HatShakerS.wav
480,192,69427,1,0,0:0:0:90:A6H_s.wav
182,192,69427,1,0,0:0:0:60:A4ss_SVS.wav
36,192,69427,1,0,0:0:0:60:LR_Hat Synth.wav
224,192,69427,1,0,0:0:0:72:LR4_SnareBPDT.wav
435,192,69642,1,0,0:0:0:90:A6H_s.wav
109,192,69642,1,0,0:0:0:74:LR5_HatShakerS.wav
486,192,69749,1,0,0:0:0:90:B6H_s.wav
160,192,69749,1,0,0:0:0:79:LR5_HatShakerEC.wav
352,192,69856,1,0,0:0:0:90:A6H_s.wav
224,192,69856,1,0,0:0:0:60:C#4ss_SVS.wav
36,192,69856,1,0,0:0:0:60:LR_Hat Synth.wav
384,192,70070,1,0,0:0:0:90:G#6H_Ab6H_s.wav
182,192,70070,1,0,0:0:0:74:LR5_HatShakerS.wav
486,192,70284,1,0,0:0:0:90:A6H_s.wav
288,192,70284,1,0,0:0:0:60:D4ss_SVS.wav
329,192,70284,1,0,0:0:0:99:LR4_KickTBCD.wav
109,192,70284,1,0,0:0:0:80:LR_Hat Synth.wav
384,192,70499,1,0,0:0:0:75:A5H_s.wav
36,192,70499,1,0,0:0:0:74:LR5_HatShakerS.wav
480,192,70713,1,0,0:0:0:75:E6H_s.wav
182,192,70713,1,0,0:0:0:60:A4ss_SVS.wav
96,192,70713,1,0,0:0:0:80:LR_Hat Synth.wav
402,192,70927,1,0,0:0:0:75:A5H_s.wav
36,192,70927,1,0,0:0:0:74:LR5_HatShakerS.wav
329,192,71142,1,0,0:0:0:90:A6H_s.wav
109,192,71142,1,0,0:0:0:60:D5ss_SVS.wav
475,192,71142,1,0,0:0:0:72:LR4_SnareBPDT.wav
256,192,71142,1,0,0:0:0:60:LR_Hat Synth.wav
435,192,71356,1,0,0:0:0:90:A6H_s.wav
182,192,71356,1,0,0:0:0:74:LR5_HatShakerS.wav
486,192,71463,1,0,0:0:0:90:B6H_s.wav
128,192,71463,1,0,0:0:0:79:LR5_HatShakerEC.wav
435,192,71570,1,0,0:0:0:90:A6H_s.wav
288,192,71570,1,0,0:0:0:60:A4ss_SVS.wav
36,192,71570,1,0,0:0:0:60:LR_Hat Synth.wav
352,192,71784,1,0,0:0:0:90:G#6H_Ab6H_s.wav
160,192,71784,1,0,0:0:0:74:LR5_HatShakerS.wav
435,192,71999,1,0,0:0:0:90:A6H_s.wav
288,192,71999,1,0,0:0:0:60:A3ss_SVS.wav
25,192,71999,1,0,0:0:0:99:LR4_KickTBCD.wav
96,192,71999,1,0,0:0:0:80:LR_Hat Synth.wav
486,192,72213,1,0,0:0:0:90:B6H_s.wav
160,192,72213,1,0,0:0:0:74:LR5_HatShakerS.wav
402,192,72427,1,0,0:0:0:90:C#7H_Db7H_s.wav
288,192,72427,1,0,0:0:0:60:E4ss_SVS.wav
96,192,72427,1,0,0:0:0:80:LR_Hat Synth.wav
352,192,72642,1,0,0:0:0:90:D7H_s.wav
32,192,72642,1,0,0:0:0:74:LR5_HatShakerS.wav
416,192,72856,1,0,0:0:0:90:E7H_s.wav
475,192,72856,1,0,0:0:0:60:C#5ss_SVS.wav
128,192,72856,1,0,0:0:0:60:LR_Hat Synth.wav
182,192,72856,1,0,0:0:0:72:LR4_SnareBPDT.wav
329,192,73070,1,0,0:0:0:90:C#7H_Db7H_s.wav
32,192,73070,1,0,0:0:0:74:LR5_HatShakerS.wav
96,192,73177,1,0,0:0:0:79:LR5_HatShakerEC.wav
475,192,73284,1,0,0:0:0:90:B6H_s.wav
288,192,73284,1,0,0:0:0:60:E4ss_SVS.wav
182,192,73284,1,0,0:0:0:60:LR_Hat Synth.wav
402,192,73499,1,0,0:0:0:90:A6H_s.wav
76,192,73499,1,0,0:0:0:74:LR5_HatShakerS.wav
182,192,73713,1,0,0:0:0:90:G#6H_Ab6H.wav
329,192,73713,1,0,0:0:0:60:E3ss_SVS.wav
480,192,73713,1,0,0:0:0:80:LR_Hat Synth.wav
25,192,73713,1,0,0:0:0:99:LR4_KickTBCD.wav
256,192,73927,1,0,0:0:0:74:LR5_HatShakerS.wav
329,192,74142,1,0,0:0:0:75:B5H_s.wav
109,192,74142,1,0,0:0:0:60:B3ss_SVS.wav
402,192,74142,1,0,0:0:0:80:LR_Hat Synth.wav
182,192,74356,1,0,0:0:0:74:LR5_HatShakerS.wav
475,192,74570,1,0,0:0:0:90:A6H_s.wav
109,192,74570,1,0,0:0:0:60:E4ss_SVS.wav
256,192,74570,1,0,0:0:0:72:LR4_SnareBPDT.wav
36,192,74570,1,0,0:0:0:60:LR_Hat Synth.wav
435,192,74784,1,0,0:0:0:90:A6H_s.wav
182,192,74784,1,0,0:0:0:74:LR5_HatShakerS.wav
329,192,74892,1,0,0:0:0:90:B6H_s.wav
96,192,74892,1,0,0:0:0:79:LR5_HatShakerEC.wav
435,192,74999,1,0,0:0:0:90:A6H_s.wav
256,192,74999,1,0,0:0:0:60:B3ss_SVS.wav
182,192,74999,1,0,0:0:0:60:LR_Hat Synth.wav
329,192,75213,1,0,0:0:0:90:G#6H_Ab6H_s.wav
109,192,75213,1,0,0:0:0:74:LR5_HatShakerS.wav
402,192,75427,1,0,0:0:0:90:A6H_s.wav
230,192,75427,1,0,0:0:0:60:F#3ss_SVS.wav
25,192,75427,1,0,0:0:0:99:LR4_KickTBCD.wav
182,192,75427,1,0,0:0:0:80:LR_Hat Synth.wav
480,192,75642,1,0,0:0:0:75:A5H_s.wav
76,192,75642,1,0,0:0:0:74:LR5_HatShakerS.wav
416,192,75856,1,0,0:0:0:75:E6H_s.wav
288,192,75856,1,0,0:0:0:60:C#4ss_SVS.wav
36,192,75856,1,0,0:0:0:80:LR_Hat Synth.wav
480,192,76070,1,0,0:0:0:75:A5H_s.wav
109,192,76070,1,0,0:0:0:74:LR5_HatShakerS.wav
402,192,76284,1,0,0:0:0:90:A6H_s.wav
329,192,76284,1,0,0:0:0:60:A4ss_SVS.wav
256,192,76284,1,0,0:0:0:60:LR_Hat Synth.wav
182,192,76284,1,0,0:0:0:72:LR4_SnareBPDT.wav
475,192,76499,1,0,0:0:0:90:A6H_s.wav
36,192,76499,1,0,0:0:0:74:LR5_HatShakerS.wav
402,192,76606,1,0,0:0:0:90:B6H_s.wav
96,192,76606,1,0,0:0:0:79:LR5_HatShakerEC.wav
475,192,76713,1,0,0:0:0:90:A6H_s.wav
288,192,76713,1,0,0:0:0:60:C#4ss_SVS.wav
160,192,76713,1,0,0:0:0:60:LR_Hat Synth.wav
384,192,76927,1,0,0:0:0:90:G#6H_Ab6H_s.wav
32,192,76927,1,0,0:0:0:74:LR5_HatShakerS.wav
486,192,77142,1,0,0:0:0:90:A6H_s.wav
352,192,77142,1,0,0:0:0:60:D4ss_SVS.wav
256,192,77142,1,0,0:0:0:80:LR_Hat Synth.wav
96,192,77142,1,0,0:0:0:99:LR4_KickTBCD.wav
384,192,77356,1,0,0:0:0:75:A5H_s.wav
182,192,77356,1,0,0:0:0:74:LR5_HatShakerS.wav
288,192,77570,1,0,0:0:0:75:E6H_s.wav
480,192,77570,1,0,0:0:0:60:A4ss_SVS.wav
32,192,77570,1,0,0:0:0:80:LR_Hat Synth.wav
402,192,77784,1,0,0:0:0:75:A5H_s.wav
182,192,77784,1,0,0:0:0:74:LR5_HatShakerS.wav
480,192,77999,1,0,0:0:0:90:A6H_s.wav
109,192,77999,1,0,0:0:0:60:D5ss_SVS.wav
25,192,77999,1,0,0:0:0:72:LR4_SnareBPDT.wav
256,192,77999,1,0,0:0:0:60:LR_Hat Synth.wav
402,192,78213,1,0,0:0:0:90:B6H_s.wav
182,192,78213,1,0,0:0:0:74:LR5_HatShakerS.wav
109,192,78320,1,0,0:0:0:79:LR5_HatShakerEC.wav
480,192,78427,1,0,0:0:0:90:A6H_s.wav
288,192,78427,1,0,0:0:0:60:A4ss_SVS.wav
36,192,78427,1,0,0:0:0:60:LR_Hat Synth.wav
416,192,78642,1,0,0:0:0:90:G#6H_Ab6H_s.wav
109,192,78642,1,0,0:0:0:74:LR5_HatShakerS.wav
480,192,78856,1,0,0:0:0:90:A6H_s.wav
230,192,78856,1,0,0:0:0:60:A3ss_SVS.wav
160,192,78856,1,0,0:0:0:99:LR4_KickTBCD.wav
352,192,78856,1,0,0:0:0:80:LR_Hat Synth.wav
402,192,79070,1,0,0:0:0:90:B6H_s.wav
36,192,79070,1,0,0:0:0:74:LR5_HatShakerS.wav
182,192,79284,1,0,0:0:0:90:C#7H_Db7H_s.wav
332,192,79284,1,0,0:0:0:60:E4ss_SVS.wav
109,192,79284,1,0,0:0:0:80:LR_Hat Synth.wav
435,192,79499,1,0,0:0:0:90:D7H_s.wav
36,192,79499,1,0,0:0:0:74:LR5_HatShakerS.wav
486,192,79713,1,0,0:0:0:90:E7H_s.wav
182,192,79713,1,0,0:0:0:60:C#5ss_SVS.wav
128,192,79713,1,0,0:0:0:60:LR_Hat Synth.wav
224,192,79713,1,0,0:0:0:72:LR4_SnareBPDT.wav
329,192,79927,1,0,0:0:0:90:C#7H_Db7H_s.wav
32,192,79927,1,0,0:0:0:74:LR5_HatShakerS.wav
96,192,80034,1,0,0:0:0:79:LR5_HatShakerEC.wav
402,192,80142,1,0,0:0:0:90:B6H_s.wav
475,192,80142,1,0,0:0:0:60:E4ss_SVS.wav
160,192,80142,1,0,0:0:0:60:LR_Hat Synth.wav
329,192,80356,1,0,0:0:0:90:A6H_s.wav
76,192,80356,1,0,0:0:0:74:LR5_HatShakerS.wav
256,192,80570,1,0,0:0:0:90:G#6H_Ab6H.wav
475,192,80570,1,0,0:0:0:38:E3ss_SVS.wav
182,192,80570,1,0,0:0:0:48:LR_Hat Synth.wav
25,192,80570,1,0,0:0:0:66:LR4_KickTBCD.wav
402,192,80677,1,0,0:0:0:28:LR4_KickTBCD.wav
109,192,80677,1,0,0:0:0:28:LR4_KickTBCD.wav
329,192,80784,1,0,0:0:0:36:LR4_KickTBCD.wav
182,192,80784,1,0,0:0:0:36:LR4_KickTBCD.wav
109,192,80892,1,0,0:0:0:28:LR4_KickTBCD.wav
402,192,80892,1,0,0:0:0:28:LR4_KickTBCD.wav
256,192,80999,1,0,0:0:0:75:B5H_s.wav
475,192,80999,1,0,0:0:0:48:LR_Hat Synth.wav
36,192,80999,1,0,0:0:0:66:LR4_KickTBCD.wav
329,192,81106,1,0,0:0:0:28:LR4_KickTBCD.wav
182,192,81106,1,0,0:0:0:28:LR4_KickTBCD.wav
402,192,81213,1,0,0:0:0:36:LR4_KickTBCD.wav
109,192,81213,1,0,0:0:0:36:LR4_KickTBCD.wav
36,192,81320,1,0,0:0:0:28:LR4_KickTBCD.wav
475,192,81320,1,0,0:0:0:28:LR4_KickTBCD.wav
329,192,81427,1,0,0:0:0:40:G#5H_Ab5H.wav
182,192,81427,1,0,0:0:0:48:LR_Hat Synth.wav
256,192,81427,1,0,0:0:0:66:LR4_KickTBCD.wav
36,192,81534,1,0,0:0:0:28:LR4_KickTBCD.wav
475,192,81534,1,0,0:0:0:28:LR4_KickTBCD.wav
402,192,81642,1,0,0:0:0:36:LR4_KickTBCD.wav
109,192,81642,1,0,0:0:0:36:LR4_KickTBCD.wav
329,192,81749,1,0,0:0:0:28:LR4_KickTBCD.wav
182,192,81749,1,0,0:0:0:28:LR4_KickTBCD.wav
402,192,81856,1,0,0:0:0:30:E5H.wav
475,192,81856,1,0,0:0:0:38:B3ss_SVS.wav
36,192,81856,1,0,0:0:0:48:LR_Hat Synth.wav
109,192,81856,1,0,0:0:0:36:LR4_SnareBPDT.wav
256,192,81856,1,0,0:0:0:36:LR4_SnareBPDT.wav
25,192,82284,1,0,0:0:0:41:LR4_KickTBCD.wav
288,192,85606,1,0,0:0:0:15:A5H.wav
352,192,85659,1,0,0:0:0:15:C#6H_Db6H.wav
486,192,85713,1,0,0:0:0:75:A6H.wav
32,192,85713,128,0,86570:0:0:0:80:F#4S_Gb4S.wav
435,192,86142,1,0,0:0:0:90:G#6H_Ab6H_s.wav
96,192,86142,128,0,86570:0:0:0:80:C#5S_Db5S.wav
486,192,86356,1,0,0:0:0:75:A6H.wav
256,192,86570,1,0,0:0:0:80:F#5S_Gb5S_s.wav
182,192,86784,128,0,87427:0:0:0:80:A5S.wav
435,192,86999,1,0,0:0:0:90:G#6H_Ab6H_s.wav
486,192,87213,1,0,0:0:0:75:A6H.wav
32,192,87427,128,0,87856:0:0:0:66:D4S.wav
288,192,87642,1,0,0:0:0:90:A5H_s.wav
352,192,87856,1,0,0:0:0:90:E6H_s.wav
96,192,87856,128,0,88284:0:0:0:66:A4S.wav
416,192,88070,1,0,0:0:0:75:A6H.wav
160,192,88284,128,0,88713:0:0:0:66:D5S.wav
352,192,88499,1,0,0:0:0:90:A5H_s.wav
480,192,88713,1,0,0:0:0:90:D6H_s.wav
96,192,88713,128,0,89142:0:0:0:66:A4S.wav
329,192,88927,1,0,0:0:0:50:A5H_s.wav
256,192,88981,1,0,0:0:0:50:E5H_s.wav
402,192,89034,1,0,0:0:0:50:A5H_s.wav
475,192,89088,1,0,0:0:0:90:C#6H_Db6H.wav
32,192,89142,1,0,0:0:0:66:A3S.wav
352,192,89570,1,0,0:0:0:75:D6H.wav
96,192,89570,1,0,0:0:0:66:E4S.wav
486,192,89999,1,0,0:0:0:75:E6H.wav
288,192,89999,1,0,0:0:0:90:A5H_s.wav
160,192,89999,128,0,90856:0:0:0:66:A4S.wav
435,192,90427,1,0,0:0:0:75:C#6H_Db6H.wav
109,192,90856,1,0,0:0:0:50:F#5H_Gb5H.wav
475,192,90856,1,0,0:0:0:66:E4S.wav
36,192,90856,128,0,91713:0:0:0:60:B5H.wav
329,192,90856,128,0,91713:0:0:0:40:E5H.wav
182,192,91284,1,0,0:0:0:66:B4S.wav
256,192,91713,128,0,92570:0:0:0:66:E5S.wav
486,192,92142,1,0,0:0:0:90:A5H_s.wav
435,192,92356,1,0,0:0:0:90:G#5H_Ab5H_s.wav
32,192,92570,1,0,0:0:0:80:F#4S_Gb4S.wav
486,192,92570,128,0,94070:0:0:0:70:A5H.wav
182,192,92570,128,0,93642:0:0:0:40:C#5H_Db5H.wav
96,192,92999,128,0,93642:0:0:0:66:C#5S_Db5S.wav
32,192,93642,128,0,94392:0:0:0:60:E5H_s.wav
160,192,93856,128,0,94606:0:0:0:90:A5H_s.wav
329,192,94070,128,0,94820:0:0:0:90:B5H_s.wav
475,192,94284,128,0,95034:0:0:0:70:C#6H_Db6H.wav
32,192,94499,128,0,95142:0:0:0:66:E5S.wav
182,192,94713,128,0,95142:0:0:0:90:A5H_s.wav
329,192,94927,128,0,95142:0:0:0:90:B5H_s.wav
475,192,95142,1,0,0:0:0:70:C#6H_Db6H.wav
109,192,95356,128,0,96106:0:0:0:66:E5S.wav
182,192,95570,128,0,96320:0:0:0:90:C#6H_Db6H_s.wav
329,192,95784,128,0,96534:0:0:0:90:D6H_s.wav
402,192,95999,128,0,96749:0:0:0:70:E6H.wav
109,192,96213,128,0,96856:0:0:0:66:E5S.wav
182,192,96427,128,0,96856:0:0:0:90:C#6H_Db6H_s.wav
329,192,96642,128,0,96856:0:0:0:90:D6H_s.wav
402,192,96856,1,0,0:0:0:70:E6H.wav
475,192,97070,128,0,97820:0:0:0:66:E5S.wav
329,192,97284,128,0,98034:0:0:0:90:D6H_s.wav
182,192,97499,128,0,98249:0:0:0:90:C#6H_Db6H_s.wav
36,192,97713,128,0,98463:0:0:0:70:B5H.wav
475,192,97927,128,0,98999:0:0:0:66:E5S.wav
329,192,98142,128,0,98999:0:0:0:90:D6H_s.wav
182,192,98356,128,0,98999:0:0:0:90:C#6H_Db6H_s.wav
36,192,98570,128,0,98999:0:0:0:70:B5H.wav
256,192,98999,1,0,0:0:0:70:G#5H_Ab5H_s.wav
402,192,99267,1,0,0:0:0:70:C#6H_Db6H_s.wav
486,192,99427,1,0,0:0:0:75:A6H.wav
109,192,99427,1,0,0:0:0:80:F#4S_Gb4S.wav
435,192,99856,1,0,0:0:0:90:G#6H_Ab6H_s.wav
36,192,99856,1,0,0:0:0:80:C#5S_Db5S.wav
486,192,100070,128,0,100499:0:0:0:75:A6H.wav
109,192,100284,1,0,0:0:0:80:F#5S_Gb5S_s.wav
182,192,100499,128,0,101142:0:0:0:80:A5S.wav
435,192,100713,1,0,0:0:0:90:G#6H_Ab6H_s.wav
486,192,100927,128,0,101356:0:0:0:75:A6H.wav
32,192,101142,1,0,0:0:0:66:D4S.wav
329,192,101356,1,0,0:0:0:90:A5H_s.wav
402,192,101570,1,0,0:0:0:90:E6H_s.wav
96,192,101570,1,0,0:0:0:66:A4S.wav
480,192,101784,128,0,102213:0:0:0:75:A6H.wav
160,192,101999,1,0,0:0:0:66:D5S.wav
288,192,102213,1,0,0:0:0:90:A5H_s.wav
352,192,102427,1,0,0:0:0:90:D6H_s.wav
96,192,102427,128,0,102856:0:0:0:66:A4S.wav
402,192,102642,1,0,0:0:0:50:A5H_s.wav
224,192,102695,1,0,0:0:0:50:E5H_s.wav
329,192,102749,1,0,0:0:0:50:A5H_s.wav
402,192,102802,1,0,0:0:0:90:C#6H_Db6H.wav
32,192,102856,1,0,0:0:0:66:A3S.wav
329,192,103284,1,0,0:0:0:75:D6H.wav
96,192,103284,1,0,0:0:0:66:E4S.wav
402,192,103713,1,0,0:0:0:75:E6H.wav
160,192,103713,128,0,104570:0:0:0:66:A4S.wav
486,192,104142,1,0,0:0:0:75:C#7H_Db7H.wav
329,192,104570,1,0,0:0:0:75:B6H.wav
32,192,104570,1,0,0:0:0:66:E4S.wav
288,192,104999,1,0,0:0:0:90:E6H_s.wav
96,192,104999,1,0,0:0:0:66:B4S.wav
435,192,105267,1,0,0:0:0:90:B6H_s.wav
486,192,105427,1,0,0:0:0:90:C#7H_Db7H_s.wav
36,192,105427,128,0,106284:0:0:0:66:E5S.wav
435,192,105642,1,0,0:0:0:90:B6H_s.wav
352,192,105856,1,0,0:0:0:90:A6H_s.wav
288,192,106070,1,0,0:0:0:90:G#6H_Ab6H_s.wav
475,192,106284,5,0,0:0:0:80:F#4S_Gb4S.wav
329,192,106284,128,0,107142:0:0:0:80:A6H.wav
109,192,106284,1,0,0:0:0:50:C#6H_Db6H.wav
160,192,106713,1,0,0:0:0:80:C#5S_Db5S.wav
256,192,107142,128,0,107784:0:0:0:80:F#5S_Gb5S.wav
36,192,107570,128,0,108320:0:0:0:90:A5H_s.wav
182,192,107784,128,0,108534:0:0:0:90:B5H_s.wav
329,192,107999,128,0,108749:0:0:0:70:C#6H_Db6H.wav
475,192,108213,128,0,108963:0:0:0:66:E5S.wav
36,192,108427,128,0,109820:0:0:0:90:A5H_s.wav
182,192,108642,128,0,109177:0:0:0:90:B5H_s.wav
329,192,108856,128,0,109392:0:0:0:70:C#6H_Db6H.wav
475,192,109070,128,0,109606:0:0:0:66:E5S.wav
182,192,109284,128,0,110034:0:0:0:90:C#6H_Db6H_s.wav
329,192,109499,128,0,110249:0:0:0:90:D6H_s.wav
475,192,109713,128,0,110463:0:0:0:70:E6H.wav
36,192,109927,128,0,110677:0:0:0:66:E5S.wav
182,192,110142,128,0,111213:0:0:0:90:C#6H_Db6H_s.wav
329,192,110356,128,0,110999:0:0:0:90:D6H_s.wav
475,192,110570,128,0,110999:0:0:0:70:E6H.wav
36,192,110784,128,0,111427:0:0:0:66:E5S.wav
402,192,110999,128,0,111427:0:0:0:90:D6H_s.wav
256,192,111213,128,0,111642:0:0:0:90:C#6H_Db6H_s.wav
475,192,111427,1,0,0:0:0:66:E4S.wav
109,192,111427,128,0,111856:0:0:0:70:B5H.wav
329,192,111642,1,0,0:0:0:60:E5H_s.wav
182,192,111856,1,0,0:0:0:70:G#5H_Ab5H_s.wav
36,192,111856,1,0,0:0:0:66:B4S.wav
256,192,112070,1,0,0:0:0:80:B5H_s.wav
109,192,112284,5,0,0:0:0:66:E5S.wav
475,192,112284,1,0,0:0:0:90:A6H_s.wav
329,192,112499,1,0,0:0:0:90:B6H_s.wav
475,192,112713,1,0,0:0:0:90:A6H_s.wav
402,192,112927,1,0,0:0:0:90:G#6H_Ab6H_s.wav
25,192,113142,5,0,0:0:0:99:LR4_KickTBCD.wav
160,192,113142,1,0,0:0:0:41:LR_CymbalHLWX.wav
486,192,113142,1,0,0:0:0:90:A6H_s.wav
288,192,113142,1,0,0:0:0:60:F#3ss_SVS.wav
329,192,113142,1,0,0:0:0:41:LR_CymbalHLWX.wav
402,192,113356,1,0,0:0:0:75:A5H_s.wav
76,192,113356,1,0,0:0:0:74:LR5_HatShakerS.wav
256,192,113570,1,0,0:0:0:75:E6H_s.wav
475,192,113570,1,0,0:0:0:60:C#4ss_SVS.wav
182,192,113570,1,0,0:0:0:80:LR_Hat Synth.wav
384,192,113784,1,0,0:0:0:75:A5H_s.wav
76,192,113784,1,0,0:0:0:74:LR5_HatShakerS.wav
352,192,113999,1,0,0:0:0:90:A6H_s.wav
182,192,113999,1,0,0:0:0:60:A4ss_SVS.wav
224,192,113999,1,0,0:0:0:60:LR_Hat Synth.wav
25,192,113999,1,0,0:0:0:72:LR4_SnareBPDT.wav
475,192,114213,1,0,0:0:0:90:A6H_s.wav
76,192,114213,1,0,0:0:0:74:LR5_HatShakerS.wav
402,192,114320,1,0,0:0:0:90:B6H_s.wav
36,192,114320,1,0,0:0:0:79:LR5_HatShakerEC.wav
329,192,114427,1,0,0:0:0:90:A6H_s.wav
224,192,114427,1,0,0:0:0:60:C#4ss_SVS.wav
109,192,114427,1,0,0:0:0:60:LR_Hat Synth.wav
402,192,114642,1,0,0:0:0:90:G#6H_Ab6H_s.wav
182,192,114642,1,0,0:0:0:74:LR5_HatShakerS.wav
480,192,114856,1,0,0:0:0:90:A6H_s.wav
288,192,114856,1,0,0:0:0:60:D4ss_SVS.wav
32,192,114856,1,0,0:0:0:99:LR4_KickTBCD.wav
128,192,114856,1,0,0:0:0:80:LR_Hat Synth.wav
384,192,115070,1,0,0:0:0:75:A5H_s.wav
182,192,115070,1,0,0:0:0:74:LR5_HatShakerS.wav
480,192,115284,1,0,0:0:0:75:E6H_s.wav
109,192,115284,1,0,0:0:0:60:A4ss_SVS.wav
224,192,115284,1,0,0:0:0:80:LR_Hat Synth.wav
402,192,115499,1,0,0:0:0:75:A5H_s.wav
182,192,115499,1,0,0:0:0:74:LR5_HatShakerS.wav
329,192,115713,1,0,0:0:0:90:A6H_s.wav
109,192,115713,1,0,0:0:0:60:D5ss_SVS.wav
224,192,115713,1,0,0:0:0:72:LR4_SnareBPDT.wav
36,192,115713,1,0,0:0:0:60:LR_Hat Synth.wav
475,192,115927,1,0,0:0:0:90:A6H_s.wav
182,192,115927,1,0,0:0:0:74:LR5_HatShakerS.wav
402,192,116034,1,0,0:0:0:90:B6H_s.wav
32,192,116034,1,0,0:0:0:79:LR5_HatShakerEC.wav
329,192,116142,1,0,0:0:0:90:A6H_s.wav
288,192,116142,1,0,0:0:0:60:A4ss_SVS.wav
182,192,116142,1,0,0:0:0:60:LR_Hat Synth.wav
402,192,116356,1,0,0:0:0:90:G#6H_Ab6H_s.wav
109,192,116356,1,0,0:0:0:74:LR5_HatShakerS.wav
475,192,116570,1,0,0:0:0:90:A6H_s.wav
182,192,116570,1,0,0:0:0:60:A3ss_SVS.wav
329,192,116570,1,0,0:0:0:99:LR4_KickTBCD.wav
36,192,116570,1,0,0:0:0:80:LR_Hat Synth.wav
256,192,116784,1,0,0:0:0:90:B6H_s.wav
76,192,116784,1,0,0:0:0:74:LR5_HatShakerS.wav
475,192,116999,1,0,0:0:0:90:C#7H_Db7H_s.wav
329,192,116999,1,0,0:0:0:60:E4ss_SVS.wav
182,192,116999,1,0,0:0:0:80:LR_Hat Synth.wav
402,192,117213,1,0,0:0:0:90:D7H_s.wav
256,192,117213,1,0,0:0:0:74:LR5_HatShakerS.wav
475,192,117427,1,0,0:0:0:90:E7H_s.wav
329,192,117427,1,0,0:0:0:60:C#5ss_SVS.wav
36,192,117427,1,0,0:0:0:60:LR_Hat Synth.wav
160,192,117427,1,0,0:0:0:72:LR4_SnareBPDT.wav
109,192,117642,1,0,0:0:0:90:C#7H_Db7H_s.wav
256,192,117642,1,0,0:0:0:74:LR5_HatShakerS.wav
475,192,117749,1,0,0:0:0:79:LR5_HatShakerEC.wav
329,192,117856,1,0,0:0:0:75:B6H_s.wav
36,192,117856,1,0,0:0:0:60:E4ss_SVS.wav
182,192,117856,1,0,0:0:0:60:LR_Hat Synth.wav
402,192,117963,1,0,0:0:0:75:C#7H_Db7H_s.wav
329,192,118070,1,0,0:0:0:75:B6H_s.wav
109,192,118070,1,0,0:0:0:74:LR5_HatShakerS.wav
256,192,118177,1,0,0:0:0:75:A6H_s.wav
182,192,118284,1,0,0:0:0:70:G#6H_Ab6H.wav
480,192,118284,1,0,0:0:0:60:E3ss_SVS.wav
329,192,118284,1,0,0:0:0:80:LR_Hat Synth.wav
32,192,118284,1,0,0:0:0:99:LR4_KickTBCD.wav
416,192,118499,1,0,0:0:0:75:B5H_s.wav
109,192,118499,1,0,0:0:0:74:LR5_HatShakerS.wav
256,192,118713,1,0,0:0:0:75:E6H_s.wav
332,192,118713,1,0,0:0:0:60:B3ss_SVS.wav
182,192,118713,1,0,0:0:0:80:LR_Hat Synth.wav
402,192,118927,1,0,0:0:0:75:B5H_s.wav
76,192,118927,1,0,0:0:0:74:LR5_HatShakerS.wav
352,192,119142,1,0,0:0:0:90:A6H_s.wav
475,192,119142,1,0,0:0:0:60:E4ss_SVS.wav
182,192,119142,1,0,0:0:0:60:LR_Hat Synth.wav
32,192,119142,1,0,0:0:0:72:LR4_SnareBPDT.wav
435,192,119356,1,0,0:0:0:90:A6H_s.wav
96,192,119356,1,0,0:0:0:74:LR5_HatShakerS.wav
329,192,119463,1,0,0:0:0:90:B6H_s.wav
160,192,119463,1,0,0:0:0:79:LR5_HatShakerEC.wav
402,192,119570,1,0,0:0:0:90:A6H_s.wav
109,192,119570,1,0,0:0:0:60:B3ss_SVS.wav
224,192,119570,1,0,0:0:0:60:LR_Hat Synth.wav
352,192,119784,1,0,0:0:0:90:G#6H_Ab6H_s.wav
182,192,119784,1,0,0:0:0:74:LR5_HatShakerS.wav
416,192,119999,1,0,0:0:0:90:A6H_s.wav
475,192,119999,1,0,0:0:0:60:F#3ss_SVS.wav
25,192,119999,1,0,0:0:0:99:LR4_KickTBCD.wav
128,192,119999,1,0,0:0:0:80:LR_Hat Synth.wav
352,192,120213,1,0,0:0:0:75:A5H_s.wav
182,192,120213,1,0,0:0:0:74:LR5_HatShakerS.wav
480,192,120427,1,0,0:0:0:75:E6H_s.wav
288,192,120427,1,0,0:0:0:60:C#4ss_SVS.wav
36,192,120427,1,0,0:0:0:80:LR_Hat Synth.wav
352,192,120642,1,0,0:0:0:75:A5H_s.wav
182,192,120642,1,0,0:0:0:74:LR5_HatShakerS.wav
402,192,120856,1,0,0:0:0:90:A6H_s.wav
36,192,120856,1,0,0:0:0:60:A4ss_SVS.wav
96,192,120856,1,0,0:0:0:72:LR4_SnareBPDT.wav
475,192,120856,1,0,0:0:0:60:LR_Hat Synth.wav
329,192,121070,1,0,0:0:0:90:A6H_s.wav
182,192,121070,1,0,0:0:0:74:LR5_HatShakerS.wav
402,192,121177,1,0,0:0:0:90:B6H_s.wav
109,192,121177,1,0,0:0:0:79:LR5_HatShakerEC.wav
475,192,121284,1,0,0:0:0:90:A6H_s.wav
288,192,121284,1,0,0:0:0:60:C#4ss_SVS.wav
182,192,121284,1,0,0:0:0:60:LR_Hat Synth.wav
352,192,121499,1,0,0:0:0:90:G#6H_Ab6H_s.wav
36,192,121499,1,0,0:0:0:74:LR5_HatShakerS.wav
416,192,121713,1,0,0:0:0:90:A6H_s.wav
288,192,121713,1,0,0:0:0:60:D4ss_SVS.wav
128,192,121713,1,0,0:0:0:80:LR_Hat Synth.wav
182,192,121713,1,0,0:0:0:99:LR4_KickTBCD.wav
480,192,121927,1,0,0:0:0:75:A5H_s.wav
36,192,121927,1,0,0:0:0:74:LR5_HatShakerS.wav
402,192,122142,1,0,0:0:0:75:E6H_s.wav
224,192,122142,1,0,0:0:0:60:A4ss_SVS.wav
109,192,122142,1,0,0:0:0:80:LR_Hat Synth.wav
480,192,122356,1,0,0:0:0:75:A5H_s.wav
32,192,122356,1,0,0:0:0:74:LR5_HatShakerS.wav
352,192,122570,1,0,0:0:0:90:A6H_s.wav
182,192,122570,1,0,0:0:0:60:D5ss_SVS.wav
96,192,122570,1,0,0:0:0:72:LR4_SnareBPDT.wav
288,192,122570,1,0,0:0:0:60:LR_Hat Synth.wav
475,192,122784,1,0,0:0:0:90:A6H_s.wav
36,192,122784,1,0,0:0:0:74:LR5_HatShakerS.wav
402,192,122892,1,0,0:0:0:90:B6H_s.wav
96,192,122892,1,0,0:0:0:79:LR5_HatShakerEC.wav
329,192,122999,1,0,0:0:0:90:A6H_s.wav
256,192,122999,1,0,0:0:0:60:A4ss_SVS.wav
32,192,122999,1,0,0:0:0:60:LR_Hat Synth.wav
402,192,123213,1,0,0:0:0:90:G#6H_Ab6H_s.wav
160,192,123213,1,0,0:0:0:74:LR5_HatShakerS.wav
480,192,123427,1,0,0:0:0:90:A6H_s.wav
230,192,123427,1,0,0:0:0:60:A3ss_SVS.wav
109,192,123427,1,0,0:0:0:99:LR4_KickTBCD.wav
32,192,123427,1,0,0:0:0:80:LR_Hat Synth.wav
416,192,123642,1,0,0:0:0:90:B6H_s.wav
160,192,123642,1,0,0:0:0:74:LR5_HatShakerS.wav
352,192,123856,1,0,0:0:0:90:C#7H_Db7H_s.wav
224,192,123856,1,0,0:0:0:60:E4ss_SVS.wav
96,192,123856,1,0,0:0:0:80:LR_Hat Synth.wav
416,192,124070,1,0,0:0:0:90:D7H_s.wav
182,192,124070,1,0,0:0:0:74:LR5_HatShakerS.wav
480,192,124284,1,0,0:0:0:90:E7H_s.wav
36,192,124284,1,0,0:0:0:60:C#5ss_SVS.wav
128,192,124284,1,0,0:0:0:60:LR_Hat Synth.wav
224,192,124284,1,0,0:0:0:72:LR4_SnareBPDT.wav
384,192,124499,1,0,0:0:0:90:C#7H_Db7H_s.wav
182,192,124499,1,0,0:0:0:74:LR5_HatShakerS.wav
109,192,124606,1,0,0:0:0:79:LR5_HatShakerEC.wav
329,192,124713,1,0,0:0:0:75:B6H_s.wav
182,192,124713,1,0,0:0:0:60:E4ss_SVS.wav
36,192,124713,1,0,0:0:0:60:LR_Hat Synth.wav
402,192,124820,1,0,0:0:0:75:C#7H_Db7H_s.wav
329,192,124927,1,0,0:0:0:75:B6H_s.wav
109,192,124927,1,0,0:0:0:74:LR5_HatShakerS.wav
256,192,125034,1,0,0:0:0:75:A6H_s.wav
182,192,125142,1,0,0:0:0:70:G#6H_Ab6H.wav
480,192,125142,1,0,0:0:0:38:E3ss_SVS.wav
402,192,125142,1,0,0:0:0:48:LR_Hat Synth.wav
32,192,125142,1,0,0:0:0:66:LR4_KickTBCD.wav
352,192,125356,1,0,0:0:0:75:B5H_s.wav
480,192,125570,1,0,0:0:0:75:E6H_s.wav
288,192,125570,1,0,0:0:0:38:B3ss_SVS.wav
25,192,125570,1,0,0:0:0:66:LR4_KickTBCD.wav
182,192,125570,1,0,0:0:0:48:LR_Hat Synth.wav
329,192,125784,1,0,0:0:0:75:B5H_s.wav
480,192,125999,1,0,0:0:0:90:A6H_s.wav
256,192,125999,1,0,0:0:0:38:E4ss_SVS.wav
182,192,125999,1,0,0:0:0:48:LR_Hat Synth.wav
25,192,125999,1,0,0:0:0:66:LR4_KickTBCD.wav
352,192,126213,1,0,0:0:0:90:A6H_s.wav
402,192,126320,1,0,0:0:0:90:B6H_s.wav
475,192,126427,1,0,0:0:0:36:LR4_SnareBPDT.wav
182,192,126427,1,0,0:0:0:36:LR4_SnareBPDT.wav
352,192,126427,1,0,0:0:0:90:A6H_s.wav
36,192,126427,1,0,0:0:0:38:B3ss_SVS.wav
96,192,126427,1,0,0:0:0:48:LR_Hat Synth.wav
256,192,126642,1,0,0:0:0:90:G#6H_Ab6H_s.wav
416,192,126856,1,0,0:0:0:90:A6H_s.wav
182,192,126856,1,0,0:0:0:60:F#3ss_SVS.wav
352,192,126856,1,0,0:0:0:30:LR_CymbalHLWX.wav
128,192,126856,1,0,0:0:0:83:LR_CymbalG.wav
480,192,126856,1,0,0:0:0:99:LR4_KickTBCD.wav
288,192,127070,1,0,0:0:0:75:A5H_s.wav
36,192,127070,1,0,0:0:0:74:LR5_HatShakerS.wav
480,192,127284,1,0,0:0:0:75:E6H_s.wav
332,192,127284,1,0,0:0:0:60:C#4ss_SVS.wav
128,192,127284,1,0,0:0:0:80:LR_Hat Synth.wav
288,192,127499,1,0,0:0:0:75:A5H_s.wav
32,192,127499,1,0,0:0:0:74:LR5_HatShakerS.wav
416,192,127713,1,0,0:0:0:90:A6H_s.wav
329,192,127713,1,0,0:0:0:60:A4ss_SVS.wav
96,192,127713,1,0,0:0:0:60:LR_Hat Synth.wav
160,192,127713,1,0,0:0:0:72:LR4_SnareBPDT.wav
475,192,127927,1,0,0:0:0:90:B6H_s.wav
32,192,127927,1,0,0:0:0:74:LR5_HatShakerS.wav
109,192,128034,1,0,0:0:0:79:LR5_HatShakerEC.wav
329,192,128142,1,0,0:0:0:90:A6H_s.wav
288,192,128142,1,0,0:0:0:60:C#4ss_SVS.wav
160,192,128142,1,0,0:0:0:60:LR_Hat Synth.wav
402,192,128356,1,0,0:0:0:90:G#6H_Ab6H_s.wav
76,192,128356,1,0,0:0:0:74:LR5_HatShakerS.wav
182,192,128570,1,0,0:0:0:90:A6H_s.wav
475,192,128570,1,0,0:0:0:60:D4ss_SVS.wav
329,192,128570,1,0,0:0:0:80:LR_Hat Synth.wav
25,192,128570,1,0,0:0:0:99:LR4_KickTBCD.wav
402,192,128784,1,0,0:0:0:75:A5H_s.wav
109,192,128784,1,0,0:0:0:74:LR5_HatShakerS.wav
329,192,128999,1,0,0:0:0:75:E6H_s.wav
182,192,128999,1,0,0:0:0:60:A4ss_SVS.wav
36,192,128999,1,0,0:0:0:80:LR_Hat Synth.wav
402,192,129213,1,0,0:0:0:75:A5H_s.wav
109,192,129213,1,0,0:0:0:74:LR5_HatShakerS.wav
475,192,129427,1,0,0:0:0:90:A6H_s.wav
329,192,129427,1,0,0:0:0:60:D5ss_SVS.wav
256,192,129427,1,0,0:0:0:60:LR_Hat Synth.wav
182,192,129427,1,0,0:0:0:72:LR4_SnareBPDT.wav
402,192,129642,1,0,0:0:0:90:A6H_s.wav
36,192,129642,1,0,0:0:0:74:LR5_HatShakerS.wav
329,192,129749,1,0,0:0:0:90:B6H_s.wav
109,192,129749,1,0,0:0:0:79:LR5_HatShakerEC.wav
256,192,129856,1,0,0:0:0:90:A6H_s.wav
36,192,129856,1,0,0:0:0:60:A4ss_SVS.wav
475,192,129856,1,0,0:0:0:60:LR_Hat Synth.wav
402,192,130070,1,0,0:0:0:90:G#6H_Ab6H_s.wav
109,192,130070,1,0,0:0:0:74:LR5_HatShakerS.wav
36,192,130284,1,0,0:0:0:90:A6H_s.wav
480,192,130284,1,0,0:0:0:60:A3ss_SVS.wav
329,192,130284,1,0,0:0:0:99:LR4_KickTBCD.wav
288,192,130284,1,0,0:0:0:80:LR_Hat Synth.wav
402,192,130499,1,0,0:0:0:90:B6H_s.wav
109,192,130499,1,0,0:0:0:74:LR5_HatShakerS.wav
475,192,130713,1,0,0:0:0:90:C#7H_Db7H_s.wav
288,192,130713,1,0,0:0:0:60:E4ss_SVS.wav
182,192,130713,1,0,0:0:0:80:LR_Hat Synth.wav
329,192,130927,1,0,0:0:0:90:D7H_s.wav
36,192,130927,1,0,0:0:0:74:LR5_HatShakerS.wav
486,192,131142,1,0,0:0:0:90:E7H_s.wav
256,192,131142,1,0,0:0:0:60:C#5ss_SVS.wav
128,192,131142,1,0,0:0:0:60:LR_Hat Synth.wav
402,192,131142,1,0,0:0:0:72:LR4_SnareBPDT.wav
329,192,131356,1,0,0:0:0:90:C#7H_Db7H_s.wav
182,192,131356,1,0,0:0:0:74:LR5_HatShakerS.wav
109,192,131463,1,0,0:0:0:79:LR5_HatShakerEC.wav
486,192,131570,1,0,0:0:0:90:B6H_s.wav
256,192,131570,1,0,0:0:0:60:E4ss_SVS.wav
36,192,131570,1,0,0:0:0:60:LR_Hat Synth.wav
329,192,131784,1,0,0:0:0:90:A6H_s.wav
76,192,131784,1,0,0:0:0:74:LR5_HatShakerS.wav
384,192,131999,1,0,0:0:0:90:G#6H_Ab6H.wav
230,192,131999,1,0,0:0:0:60:E3ss_SVS.wav
25,192,131999,1,0,0:0:0:99:LR4_KickTBCD.wav
182,192,131999,1,0,0:0:0:80:LR_Hat Synth.wav
475,192,132213,1,0,0:0:0:74:LR5_HatShakerS.wav
256,192,132427,1,0,0:0:0:75:B5H_s.wav
402,192,132427,1,0,0:0:0:60:B3ss_SVS.wav
128,192,132427,1,0,0:0:0:80:LR_Hat Synth.wav
32,192,132642,1,0,0:0:0:74:LR5_HatShakerS.wav
435,192,132856,1,0,0:0:0:90:A6H_s.wav
281,192,132856,1,0,0:0:0:60:E4ss_SVS.wav
160,192,132856,1,0,0:0:0:60:LR_Hat Synth.wav
352,192,132856,1,0,0:0:0:72:LR4_SnareBPDT.wav
475,192,133070,1,0,0:0:0:90:A6H_s.wav
109,192,133070,1,0,0:0:0:74:LR5_HatShakerS.wav
402,192,133177,1,0,0:0:0:90:B6H_s.wav
36,192,133177,1,0,0:0:0:79:LR5_HatShakerEC.wav
329,192,133284,1,0,0:0:0:90:A6H_s.wav
182,192,133284,1,0,0:0:0:60:B3ss_SVS.wav
109,192,133284,1,0,0:0:0:60:LR_Hat Synth.wav
32,192,133499,1,0,0:0:0:90:G#6H_Ab6H_s.wav
402,192,133499,1,0,0:0:0:74:LR5_HatShakerS.wav
486,192,133713,1,0,0:0:0:90:A6H_s.wav
230,192,133713,1,0,0:0:0:60:F#3ss_SVS.wav
96,192,133713,1,0,0:0:0:99:LR4_KickTBCD.wav
352,192,133713,1,0,0:0:0:80:LR_Hat Synth.wav
402,192,133927,1,0,0:0:0:75:A5H_s.wav
36,192,133927,1,0,0:0:0:74:LR5_HatShakerS.wav
480,192,134142,1,0,0:0:0:75:E6H_s.wav
332,192,134142,1,0,0:0:0:60:C#4ss_SVS.wav
182,192,134142,1,0,0:0:0:80:LR_Hat Synth.wav
402,192,134356,1,0,0:0:0:75:A5H_s.wav
32,192,134356,1,0,0:0:0:74:LR5_HatShakerS.wav
329,192,134570,1,0,0:0:0:90:A6H_s.wav
160,192,134570,1,0,0:0:0:60:A4ss_SVS.wav
224,192,134570,1,0,0:0:0:72:LR4_SnareBPDT.wav
96,192,134570,1,0,0:0:0:60:LR_Hat Synth.wav
475,192,134784,1,0,0:0:0:90:A6H_s.wav
32,192,134784,1,0,0:0:0:74:LR5_HatShakerS.wav
416,192,134892,1,0,0:0:0:90:B6H_s.wav
96,192,134892,1,0,0:0:0:79:LR5_HatShakerEC.wav
352,192,134999,1,0,0:0:0:90:A6H_s.wav
288,192,134999,1,0,0:0:0:60:C#4ss_SVS.wav
182,192,134999,1,0,0:0:0:60:LR_Hat Synth.wav
402,192,135213,1,0,0:0:0:90:G#6H_Ab6H_s.wav
76,192,135213,1,0,0:0:0:74:LR5_HatShakerS.wav
160,192,135427,1,0,0:0:0:90:A6H_s.wav
475,192,135427,1,0,0:0:0:60:D4ss_SVS.wav
288,192,135427,1,0,0:0:0:80:LR_Hat Synth.wav
25,192,135427,1,0,0:0:0:99:LR4_KickTBCD.wav
329,192,135642,1,0,0:0:0:75:A5H_s.wav
76,192,135642,1,0,0:0:0:74:LR5_HatShakerS.wav
435,192,135856,1,0,0:0:0:75:E6H_s.wav
288,192,135856,1,0,0:0:0:60:A4ss_SVS.wav
182,192,135856,1,0,0:0:0:80:LR_Hat Synth.wav
329,192,136070,1,0,0:0:0:75:A5H_s.wav
76,192,136070,1,0,0:0:0:74:LR5_HatShakerS.wav
475,192,136284,1,0,0:0:0:90:A6H_s.wav
281,192,136284,1,0,0:0:0:60:D5ss_SVS.wav
36,192,136284,1,0,0:0:0:60:LR_Hat Synth.wav
402,192,136284,1,0,0:0:0:72:LR4_SnareBPDT.wav
182,192,136499,1,0,0:0:0:74:LR5_HatShakerS.wav
329,192,136499,1,0,0:0:0:90:A6H_s.wav
109,192,136606,1,0,0:0:0:79:LR5_HatShakerEC.wav
402,192,136606,1,0,0:0:0:90:B6H_s.wav
329,192,136713,1,0,0:0:0:90:A6H_s.wav
256,192,136713,1,0,0:0:0:60:A4ss_SVS.wav
182,192,136713,1,0,0:0:0:60:LR_Hat Synth.wav
475,192,136927,1,0,0:0:0:90:G#6H_Ab6H_s.wav
32,192,136927,1,0,0:0:0:74:LR5_HatShakerS.wav
402,192,137142,1,0,0:0:0:90:A6H_s.wav
182,192,137142,1,0,0:0:0:60:A3ss_SVS.wav
352,192,137142,1,0,0:0:0:80:LR_Hat Synth.wav
96,192,137142,1,0,0:0:0:99:LR4_KickTBCD.wav
288,192,137356,1,0,0:0:0:90:B6H_s.wav
160,192,137356,1,0,0:0:0:74:LR5_HatShakerS.wav
352,192,137570,1,0,0:0:0:90:C#7H_Db7H_s.wav
32,192,137570,1,0,0:0:0:60:E4ss_SVS.wav
224,192,137570,1,0,0:0:0:80:LR_Hat Synth.wav
435,192,137784,1,0,0:0:0:90:D7H_s.wav
329,192,137784,1,0,0:0:0:74:LR5_HatShakerS.wav
475,192,137999,1,0,0:0:0:90:E7H_s.wav
402,192,137999,1,0,0:0:0:60:C#5ss_SVS.wav
128,192,137999,1,0,0:0:0:60:LR_Hat Synth.wav
182,192,137999,1,0,0:0:0:72:LR4_SnareBPDT.wav
329,192,138213,1,0,0:0:0:90:C#7H_Db7H_s.wav
256,192,138213,1,0,0:0:0:74:LR5_HatShakerS.wav
402,192,138320,1,0,0:0:0:79:LR5_HatShakerEC.wav
256,192,138427,1,0,0:0:0:90:B6H_s.wav
182,192,138427,1,0,0:0:0:60:E4ss_SVS.wav
475,192,138427,1,0,0:0:0:60:LR_Hat Synth.wav
182,192,138642,1,0,0:0:0:90:A6H_s.wav
109,192,138642,1,0,0:0:0:74:LR5_HatShakerS.wav
109,192,138856,1,0,0:0:0:90:G#6H_Ab6H.wav
36,192,138856,1,0,0:0:0:38:E3ss_SVS.wav
256,192,138856,1,0,0:0:0:48:LR_Hat Synth.wav
475,192,138856,1,0,0:0:0:66:LR4_KickTBCD.wav
182,192,138963,1,0,0:0:0:28:LR4_KickTBCD.wav
402,192,138963,1,0,0:0:0:28:LR4_KickTBCD.wav
109,192,139070,1,0,0:0:0:36:LR4_KickTBCD.wav
329,192,139070,1,0,0:0:0:36:LR4_KickTBCD.wav
36,192,139177,1,0,0:0:0:28:LR4_KickTBCD.wav
256,192,139177,1,0,0:0:0:28:LR4_KickTBCD.wav
182,192,139284,1,0,0:0:0:75:B5H_s.wav
402,192,139284,1,0,0:0:0:48:LR_Hat Synth.wav
475,192,139284,1,0,0:0:0:66:LR4_KickTBCD.wav
109,192,139392,1,0,0:0:0:28:LR4_KickTBCD.wav
329,192,139392,1,0,0:0:0:28:LR4_KickTBCD.wav
402,192,139499,1,0,0:0:0:36:LR4_KickTBCD.wav
182,192,139499,1,0,0:0:0:36:LR4_KickTBCD.wav
475,192,139606,1,0,0:0:0:28:LR4_KickTBCD.wav
256,192,139606,1,0,0:0:0:28:LR4_KickTBCD.wav
36,192,139713,1,0,0:0:0:40:G#5H_Ab5H.wav
329,192,139713,1,0,0:0:0:66:LR4_KickTBCD.wav
109,192,139713,1,0,0:0:0:48:LR_Hat Synth.wav
182,192,139820,1,0,0:0:0:28:LR4_KickTBCD.wav
402,192,139820,1,0,0:0:0:28:LR4_KickTBCD.wav
109,192,139927,1,0,0:0:0:36:LR4_KickTBCD.wav
329,192,139927,1,0,0:0:0:36:LR4_KickTBCD.wav
36,192,140034,1,0,0:0:0:28:LR4_KickTBCD.wav
256,192,140034,1,0,0:0:0:28:LR4_KickTBCD.wav
329,192,140142,1,0,0:0:0:30:E5H.wav
109,192,140142,1,0,0:0:0:38:B3ss_SVS.wav
402,192,140142,1,0,0:0:0:48:LR_Hat Synth.wav
475,192,140142,1,0,0:0:0:36:LR4_SnareBPDT.wav
182,192,140142,1,0,0:0:0:36:LR4_SnareBPDT.wav
352,192,140463,1,0,0:0:0:15:A5H.wav
416,192,140517,1,0,0:0:0:15:C#6H_Db6H.wav
288,192,140570,1,0,0:0:0:8:LR_CymbalHLWX.wav
160,192,140570,1,0,0:0:0:30:C#6H_Db6H.wav
480,192,140570,1,0,0:0:0:75:A6H.wav
109,192,140570,1,0,0:0:0:66:F#4S_Gb4S.wav
25,192,140570,1,0,0:0:0:8:LR_CymbalHLWX.wav
416,192,140999,1,0,0:0:0:75:G#6H_Ab6H.wav
480,192,141427,1,0,0:0:0:75:A6H.wav
416,192,141856,1,0,0:0:0:75:G#6H_Ab6H.wav
486,192,142284,1,0,0:0:0:75:A6H.wav
160,192,142284,128,0,142713:0:0:0:80:F#5S_Gb5S.wav
329,192,142713,1,0,0:0:0:75:E6H.wav
32,192,142713,128,0,143142:0:0:0:80:C#5S_Db5S.wav
486,192,143142,1,0,0:0:0:75:A6H.wav
224,192,143142,128,0,143570:0:0:0:80:A4S.wav
402,192,143570,1,0,0:0:0:90:D6H.wav
160,192,143570,128,0,143999:0:0:0:80:E4S.wav
329,192,143999,1,0,0:0:0:75:C#6H_Db6H.wav
96,192,143999,128,0,144427:0:0:0:80:A3S.wav
402,192,144427,1,0,0:0:0:90:D6H.wav
160,192,144427,128,0,144856:0:0:0:66:E4S.wav
475,192,144856,1,0,0:0:0:75:E6H.wav
224,192,144856,128,0,145713:0:0:0:66:A4S.wav
352,192,145284,1,0,0:0:0:75:C#6H_Db6H.wav
475,192,145713,1,0,0:0:0:60:B5H.wav
32,192,145713,128,0,147427:0:0:0:80:E4S.wav
160,192,145713,128,0,147427:0:0:0:40:G#5H_Ab5H.wav
402,192,145713,128,0,146570:0:0:0:30:E5H.wav
475,192,146570,1,0,0:0:0:60:A5H.wav
435,192,146999,1,0,0:0:0:60:G#5H_Ab5H.wav
352,192,147320,1,0,0:0:0:25:C#5H_Db5H.wav
435,192,147374,1,0,0:0:0:35:F#5H_Gb5H.wav
96,192,147427,128,0,148284:0:0:0:66:F#3S_Gb3S.wav
486,192,147427,128,0,148713:0:0:0:60:A5H.wav
160,192,147856,128,0,148284:0:0:0:66:C#4S_Db4S.wav
256,192,148284,128,0,149142:0:0:0:66:A4S.wav
402,192,148713,1,0,0:0:0:75:A5H.wav
352,192,148927,1,0,0:0:0:75:B5H.wav
96,192,149142,128,0,150856:0:0:0:80:D4S.wav
416,192,149142,128,0,150427:0:0:0:90:C#6H_Db6H.wav
160,192,149570,128,0,150856:0:0:0:80:A4S.wav
224,192,149999,128,0,150856:0:0:0:80:D5S.wav
352,192,150427,1,0,0:0:0:75:C#6H_Db6H_s.wav
435,192,150642,1,0,0:0:0:75:D6H_s.wav
32,192,150856,128,0,152142:0:0:0:80:A3S.wav
486,192,150856,128,0,152142:0:0:0:90:E6H.wav
96,192,151284,128,0,152142:0:0:0:80:E4S.wav
160,192,151713,128,0,152142:0:0:0:80:C#5S_Db5S.wav
416,192,152142,128,0,153856:0:0:0:75:D6H_s.wav
352,192,152356,128,0,153856:0:0:0:75:C#6H_Db6H_s.wav
36,192,152570,128,0,153856:0:0:0:80:E4S.wav
256,192,152570,128,0,153856:0:0:0:90:B5H.wav
109,192,152999,128,0,153856:0:0:0:80:B4S.wav
182,192,153427,128,0,153856:0:0:0:80:G#5S_Ab5S.wav
329,192,154177,1,0,0:0:0:15:A5H.wav
402,192,154231,1,0,0:0:0:15:C#6H_Db6H.wav
475,192,154284,1,0,0:0:0:75:A6H.wav
96,192,154284,128,0,155999:0:0:0:80:F#4S_Gb4S.wav
402,192,154713,1,0,0:0:0:75:G#6H_Ab6H.wav
160,192,154713,128,0,155999:0:0:0:80:C#5S_Db5S.wav
475,192,155142,1,0,0:0:0:75:A6H.wav
256,192,155142,128,0,155999:0:0:0:80:F#5S_Gb5S.wav
402,192,155570,1,0,0:0:0:75:G#6H_Ab6H.wav
329,192,155838,1,0,0:0:0:40:D6H_s.wav
402,192,155945,1,0,0:0:0:40:F#6H_Gb6H_s.wav
32,192,155999,128,0,156427:0:0:0:66:D4S.wav
475,192,156106,1,0,0:0:0:75:A6H.wav
288,192,156427,1,0,0:0:0:75:E6H.wav
96,192,156427,128,0,156856:0:0:0:66:A4S.wav
416,192,156856,1,0,0:0:0:75:A6H.wav
160,192,156856,128,0,157284:0:0:0:66:D5S.wav
352,192,157284,1,0,0:0:0:75:D6H.wav
96,192,157284,1,0,0:0:0:66:A3S.wav
182,192,157713,1,0,0:0:0:25:E5H.wav
288,192,157713,1,0,0:0:0:45:C#6H_Db6H.wav
36,192,157713,128,0,158142:0:0:0:66:A3S.wav
352,192,158142,1,0,0:0:0:75:D6H.wav
109,192,158142,128,0,158570:0:0:0:66:E4S.wav
416,192,158570,1,0,0:0:0:75:E6H.wav
182,192,158570,128,0,159427:0:0:0:66:A4S.wav
486,192,158999,1,0,0:0:0:75:C#7H_Db7H.wav
109,192,159427,128,0,160713:0:0:0:80:E4S.wav
435,192,159427,128,0,160713:0:0:0:75:B6H.wav
182,192,159856,128,0,160713:0:0:0:80:B4S.wav
288,192,160284,128,0,160713:0:0:0:80:G#5S_Ab5S.wav
352,192,160713,1,0,0:0:0:75:A5H_s.wav
288,192,160927,1,0,0:0:0:75:G#5H_Ab5H_s.wav
96,192,161142,128,0,162427:0:0:0:80:F#4S_Gb4S.wav
352,192,161142,128,0,162427:0:0:0:75:A5H.wav
160,192,161570,128,0,162427:0:0:0:66:C#5S_Db5S.wav
224,192,162427,1,0,0:0:0:75:A5H.wav
329,192,162642,1,0,0:0:0:75:B5H.wav
402,192,162856,128,0,163927:0:0:0:90:C#6H_Db6H.wav
32,192,162856,1,0,0:0:0:66:D4S.wav
96,192,163284,1,0,0:0:0:66:A4S.wav
160,192,163713,128,0,164570:0:0:0:66:D5S.wav
352,192,164142,1,0,0:0:0:75:C#6H_Db6H_s.wav
435,192,164356,1,0,0:0:0:75:D6H_s.wav
96,192,164570,1,0,0:0:0:66:A3S.wav
486,192,164570,128,0,165642:0:0:0:90:E6H.wav
256,192,164999,1,0,0:0:0:66:E4S.wav
182,192,165427,128,0,166284:0:0:0:66:A4S.wav
416,192,165856,1,0,0:0:0:75:D6H_s.wav
352,192,166070,1,0,0:0:0:75:C#6H_Db6H_s.wav
288,192,166284,1,0,0:0:0:90:B5H.wav
32,192,166284,1,0,0:0:0:66:E4S.wav
96,192,166713,1,0,0:0:0:66:B4S.wav
160,192,167142,1,0,0:0:0:66:E5S.wav
