osu file format v14

[General]
AudioFilename: Yiruma - River Flows In You (LR Mix).mp3
AudioLeadIn: 0
PreviewTime: 53945
Countdown: 0
SampleSet: Soft
StackLeniency: 0.7
Mode: 3
LetterboxInBreaks: 0
SpecialStyle: 0
WidescreenStoryboard: 1
SamplesMatchPlaybackRate: 1

[Editor]
Bookmarks: 13612,27326,40290,54005,60433
DistanceSpacing: 0.8
BeatDivisor: 4
GridSize: 8
TimelineZoom: 1.3

[Metadata]
Title:River Flows in You (LR Mix)
TitleUnicode:River Flows in You (LR Mix)
Artist:Yiruma
ArtistUnicode:Yiruma
Creator:LordRaika
Version:5K Hard
Source:
Tags:Instrumental Piano Dubstep Gero Exile-
BeatmapID:786259
BeatmapSetID:299333

[Difficulty]
HPDrainRate:8.2
CircleSize:5
OverallDifficulty:8.2
ApproachRate:5
SliderMultiplier:1.4
SliderTickRate:1

[Events]
//Background and Video events
0,0,"BG2.jpg",0,0
//Break Periods
//Storyboard Layer 0 (Background)
//Storyboard Layer 1 (Fail)
//Storyboard Layer 2 (Pass)
//Storyboard Layer 3 (Foreground)
//Storyboard Sound Samples
Sample,41142,0,"LR5_HatLowB.wav",10
Sample,41356,0,"LR5_HatShakerS.wav",15
Sample,41570,0,"LR5_HatLowB.wav",11
Sample,41784,0,"LR5_HatShakerS.wav",16
Sample,41999,0,"LR5_HatLowB.wav",12
Sample,42213,0,"LR5_HatShakerS.wav",17
Sample,42320,0,"LR5_HatShakerEC.wav",17
Sample,42427,0,"LR5_HatLowB.wav",13
Sample,42642,0,"LR5_HatShakerS.wav",18
Sample,42856,0,"LR5_HatLowB.wav",15
Sample,43070,0,"LR5_HatShakerS.wav",20
Sample,43284,0,"LR5_HatLowB.wav",17
Sample,43499,0,"LR5_HatShakerS.wav",22
Sample,43713,0,"LR5_HatLowB.wav",19
Sample,43927,0,"LR5_HatShakerS.wav",24
Sample,44034,0,"LR5_HatShakerEC.wav",24
Sample,44142,0,"LR5_HatLowB.wav",21
Sample,44356,0,"LR5_HatShakerS.wav",26
Sample,44570,0,"LR5_HatLowB.wav",24
Sample,44784,0,"LR5_HatShakerS.wav",29
Sample,44999,0,"LR5_HatLowB.wav",27
Sample,45213,0,"LR5_HatShakerS.wav",32
Sample,45427,0,"LR5_HatLowB.wav",30
Sample,45642,0,"LR5_HatShakerS.wav",35
Sample,45749,0,"LR5_HatShakerEC.wav",35
Sample,45856,0,"LR5_HatLowB.wav",33
Sample,46070,0,"LR5_HatShakerS.wav",38
Sample,46284,0,"LR5_HatLowB.wav",37
Sample,46499,0,"LR5_HatShakerS.wav",42
Sample,46713,0,"LR5_HatLowB.wav",41
Sample,46927,0,"LR5_HatShakerS.wav",46
Sample,47142,0,"LR5_HatLowB.wav",45
Sample,47356,0,"LR5_HatShakerS.wav",50
Sample,47463,0,"LR5_HatShakerEC.wav",50
Sample,47570,0,"LR5_HatLowB.wav",49
Sample,47784,0,"LR5_HatShakerS.wav",50
Sample,47999,0,"LR5_HatLowB.wav",49
Sample,48213,0,"LR5_HatShakerS.wav",50
Sample,48427,0,"LR5_HatLowB.wav",49
Sample,48642,0,"LR5_HatShakerS.wav",50
Sample,48856,0,"LR5_HatLowB.wav",49
Sample,49070,0,"LR5_HatShakerS.wav",50
Sample,49177,0,"LR5_HatShakerEC.wav",50
Sample,49284,0,"LR5_HatLowB.wav",49
Sample,49499,0,"LR5_HatShakerS.wav",50
Sample,49713,0,"LR5_HatLowB.wav",49
Sample,49927,0,"LR5_HatShakerS.wav",50
Sample,50142,0,"LR5_HatLowB.wav",49
Sample,50356,0,"LR5_HatShakerS.wav",50
Sample,50570,0,"LR5_HatLowB.wav",49
Sample,50784,0,"LR5_HatShakerS.wav",50
Sample,50892,0,"LR5_HatShakerEC.wav",50
Sample,50999,0,"LR5_HatLowB.wav",49
Sample,51213,0,"LR5_HatShakerS.wav",50
Sample,51427,0,"LR5_RevCyVocalFM.wav",100
Sample,51427,0,"LR5_HatLowB.wav",54
Sample,51642,0,"LR5_HatShakerS.wav",50
Sample,51856,0,"LR5_HatLowB.wav",59
Sample,52070,0,"LR5_HatShakerS.wav",50
Sample,52284,0,"LR5_HatLowB.wav",64
Sample,52499,0,"LR5_HatShakerS.wav",50
Sample,52606,0,"LR5_HatShakerEC.wav",50
Sample,52713,0,"LR5_HatLowB.wav",69
Sample,52927,0,"LR5_HatShakerS.wav",50
Sample,53142,0,"LR5_HatLowB.wav",74
Sample,53356,0,"LR5_HatShakerS.wav",50
Sample,53570,0,"LR5_HatLowB.wav",79
Sample,53784,0,"LR5_HatShakerS.wav",50
Sample,55070,0,"LR5_HatShakerS.wav",74
Sample,55284,0,"LR_Hat Synth.wav",80
Sample,55499,0,"LR5_HatShakerS.wav",74
Sample,55713,0,"LR_Hat Synth.wav",80
Sample,55927,0,"LR5_HatShakerS.wav",74
Sample,56034,0,"LR5_HatShakerEC.wav",79
Sample,56142,0,"LR_Hat Synth.wav",80
Sample,56356,0,"LR5_HatShakerS.wav",74
Sample,56570,0,"LR_Hat Synth.wav",80
Sample,56784,0,"LR5_HatShakerS.wav",74
Sample,56999,0,"LR_Hat Synth.wav",80
Sample,57213,0,"LR5_HatShakerS.wav",74
Sample,57427,0,"LR_Hat Synth.wav",80
Sample,57642,0,"LR5_HatShakerS.wav",74
Sample,57749,0,"LR5_HatShakerEC.wav",79
Sample,57856,0,"LR_Hat Synth.wav",80
Sample,58070,0,"LR5_HatShakerS.wav",74
Sample,58284,0,"LR_Hat Synth.wav",80
Sample,58499,0,"LR5_HatShakerS.wav",74
Sample,58713,0,"LR_Hat Synth.wav",80
Sample,58927,0,"LR5_HatShakerS.wav",74
Sample,59142,0,"LR_Hat Synth.wav",80
Sample,59356,0,"LR5_HatShakerS.wav",74
Sample,59463,0,"LR5_HatShakerEC.wav",79
Sample,59570,0,"LR_Hat Synth.wav",80
Sample,59784,0,"LR5_HatShakerS.wav",74
Sample,59999,0,"LR_Hat Synth.wav",80
Sample,60213,0,"LR5_HatShakerS.wav",74
Sample,60427,0,"LR_Hat Synth.wav",80
Sample,60642,0,"LR5_HatShakerS.wav",74
Sample,60856,0,"LR_Hat Synth.wav",80
Sample,61070,0,"LR5_HatShakerS.wav",74
Sample,61177,0,"LR5_HatShakerEC.wav",79
Sample,61284,0,"LR_Hat Synth.wav",80
Sample,61499,0,"LR5_HatShakerS.wav",74
Sample,61713,0,"LR_Hat Synth.wav",80
Sample,61927,0,"LR5_HatShakerS.wav",74
Sample,62142,0,"LR_Hat Synth.wav",80
Sample,62356,0,"LR5_HatShakerS.wav",74
Sample,62570,0,"LR_Hat Synth.wav",80
Sample,62784,0,"LR5_HatShakerS.wav",74
Sample,62892,0,"LR5_HatShakerEC.wav",79
Sample,62999,0,"LR_Hat Synth.wav",80
Sample,63213,0,"LR5_HatShakerS.wav",74
Sample,63427,0,"LR_Hat Synth.wav",80
Sample,63642,0,"LR5_HatShakerS.wav",74
Sample,63856,0,"LR_Hat Synth.wav",80
Sample,64070,0,"LR5_HatShakerS.wav",74
Sample,64284,0,"LR_Hat Synth.wav",80
Sample,64499,0,"LR5_HatShakerS.wav",74
Sample,64606,0,"LR5_HatShakerEC.wav",79
Sample,64713,0,"LR_Hat Synth.wav",80
Sample,64927,0,"LR5_HatShakerS.wav",74
Sample,65142,0,"LR_Hat Synth.wav",80
Sample,65356,0,"LR5_HatShakerS.wav",74
Sample,65570,0,"LR_Hat Synth.wav",80
Sample,65784,0,"LR5_HatShakerS.wav",74
Sample,65999,0,"LR_Hat Synth.wav",80
Sample,66213,0,"LR5_HatShakerS.wav",74
Sample,66320,0,"LR5_HatShakerEC.wav",79
Sample,66427,0,"LR_Hat Synth.wav",80
Sample,66642,0,"LR5_HatShakerS.wav",74
Sample,66856,0,"LR_Hat Synth.wav",80
Sample,67284,0,"LR_Hat Synth.wav",80
Sample,67713,0,"LR_Hat Synth.wav",80
Sample,68142,0,"LR_Hat Synth.wav",80
Sample,68570,0,"LR_CymbalHLWX.wav",30
Sample,68784,0,"LR5_HatShakerS.wav",74
Sample,68999,0,"LR_Hat Synth.wav",80
Sample,69213,0,"LR5_HatShakerS.wav",74
Sample,69427,0,"LR_Hat Synth.wav",80
Sample,69642,0,"LR5_HatShakerS.wav",74
Sample,69749,0,"LR5_HatShakerEC.wav",79
Sample,69856,0,"LR_Hat Synth.wav",80
Sample,70070,0,"LR5_HatShakerS.wav",74
Sample,70284,0,"LR_Hat Synth.wav",80
Sample,70499,0,"LR5_HatShakerS.wav",74
Sample,70713,0,"LR_Hat Synth.wav",80
Sample,70927,0,"LR5_HatShakerS.wav",74
Sample,71142,0,"LR_Hat Synth.wav",80
Sample,71356,0,"LR5_HatShakerS.wav",74
Sample,71463,0,"LR5_HatShakerEC.wav",79
Sample,71570,0,"LR_Hat Synth.wav",80
Sample,71784,0,"LR5_HatShakerS.wav",74
Sample,71999,0,"LR_Hat Synth.wav",80
Sample,72213,0,"LR5_HatShakerS.wav",74
Sample,72427,0,"LR_Hat Synth.wav",80
Sample,72642,0,"LR5_HatShakerS.wav",74
Sample,72856,0,"LR_Hat Synth.wav",80
Sample,73070,0,"LR5_HatShakerS.wav",74
Sample,73177,0,"LR5_HatShakerEC.wav",79
Sample,73284,0,"LR_Hat Synth.wav",80
Sample,73499,0,"LR5_HatShakerS.wav",74
Sample,73713,0,"LR_Hat Synth.wav",80
Sample,73927,0,"LR5_HatShakerS.wav",74
Sample,74142,0,"LR_Hat Synth.wav",80
Sample,74356,0,"LR5_HatShakerS.wav",74
Sample,74570,0,"LR_Hat Synth.wav",80
Sample,74784,0,"LR5_HatShakerS.wav",74
Sample,74892,0,"LR5_HatShakerEC.wav",79
Sample,74999,0,"LR_Hat Synth.wav",80
Sample,75213,0,"LR5_HatShakerS.wav",74
Sample,75427,0,"LR_Hat Synth.wav",80
Sample,75642,0,"LR5_HatShakerS.wav",74
Sample,75856,0,"LR_Hat Synth.wav",80
Sample,76070,0,"LR5_HatShakerS.wav",74
Sample,76284,0,"LR_Hat Synth.wav",80
Sample,76499,0,"LR5_HatShakerS.wav",74
Sample,76606,0,"LR5_HatShakerEC.wav",79
Sample,76713,0,"LR_Hat Synth.wav",80
Sample,76927,0,"LR5_HatShakerS.wav",74
Sample,77142,0,"LR_Hat Synth.wav",80
Sample,77356,0,"LR5_HatShakerS.wav",74
Sample,77570,0,"LR_Hat Synth.wav",80
Sample,77784,0,"LR5_HatShakerS.wav",74
Sample,77999,0,"LR_Hat Synth.wav",80
Sample,78213,0,"LR5_HatShakerS.wav",74
Sample,78320,0,"LR5_HatShakerEC.wav",79
Sample,78427,0,"LR_Hat Synth.wav",80
Sample,78642,0,"LR5_HatShakerS.wav",74
Sample,78856,0,"LR_Hat Synth.wav",80
Sample,79070,0,"LR5_HatShakerS.wav",74
Sample,79284,0,"LR_Hat Synth.wav",80
Sample,79499,0,"LR5_HatShakerS.wav",74
Sample,79713,0,"LR_Hat Synth.wav",80
Sample,79927,0,"LR5_HatShakerS.wav",74
Sample,80034,0,"LR5_HatShakerEC.wav",79
Sample,80142,0,"LR_Hat Synth.wav",80
Sample,80356,0,"LR5_HatShakerS.wav",74
Sample,80570,0,"LR_RevCyHLWX.wav",85
Sample,80570,0,"LR_Hat Synth.wav",80
Sample,80999,0,"LR_Hat Synth.wav",80
Sample,81427,0,"LR_Hat Synth.wav",80
Sample,81856,0,"LR_Hat Synth.wav",80
Sample,82284,0,"LR5_RevCyEchoSC.wav",60
Sample,90856,0,"F#5H_Gb5H.wav",50
Sample,94284,0,"D4S.wav",66
Sample,94713,0,"A4S.wav",66
Sample,95142,0,"D5S.wav",66
Sample,95999,0,"A3S.wav",66
Sample,96427,0,"E4S.wav",66
Sample,96856,0,"C#5S_Db5S.wav",66
Sample,97713,0,"E4S.wav",66
Sample,98142,0,"B4S.wav",66
Sample,98570,0,"G#5S_Ab5S.wav",66
Sample,107999,0,"D4S.wav",66
Sample,108427,0,"A4S.wav",66
Sample,108856,0,"D5S.wav",66
Sample,109713,0,"A3S.wav",66
Sample,109927,0,"LR5_RevCyVocalFM.wav",66
Sample,110142,0,"E4S.wav",66
Sample,110570,0,"C#5S_Db5S.wav",66
Sample,111427,0,"E4S.wav",66
Sample,113356,0,"LR5_HatShakerS.wav",74
Sample,113570,0,"LR_Hat Synth.wav",80
Sample,113784,0,"LR5_HatShakerS.wav",74
Sample,113999,0,"LR_Hat Synth.wav",80
Sample,114213,0,"LR5_HatShakerS.wav",74
Sample,114320,0,"LR5_HatShakerEC.wav",79
Sample,114427,0,"LR_Hat Synth.wav",80
Sample,114642,0,"LR5_HatShakerS.wav",74
Sample,114856,0,"LR_Hat Synth.wav",80
Sample,115070,0,"LR5_HatShakerS.wav",74
Sample,115284,0,"LR_Hat Synth.wav",80
Sample,115499,0,"LR5_HatShakerS.wav",74
Sample,115713,0,"LR_Hat Synth.wav",80
Sample,115927,0,"LR5_HatShakerS.wav",74
Sample,116034,0,"LR5_HatShakerEC.wav",79
Sample,116142,0,"LR_Hat Synth.wav",80
Sample,116356,0,"LR5_HatShakerS.wav",74
Sample,116570,0,"LR_Hat Synth.wav",80
Sample,116784,0,"LR5_HatShakerS.wav",74
Sample,116999,0,"LR_Hat Synth.wav",80
Sample,117213,0,"LR5_HatShakerS.wav",74
Sample,117427,0,"LR_Hat Synth.wav",80
Sample,117642,0,"LR5_HatShakerS.wav",74
Sample,117749,0,"LR5_HatShakerEC.wav",79
Sample,117856,0,"LR_Hat Synth.wav",80
Sample,118070,0,"LR5_HatShakerS.wav",74
Sample,118284,0,"LR_Hat Synth.wav",80
Sample,118499,0,"LR5_HatShakerS.wav",74
Sample,118713,0,"LR_Hat Synth.wav",80
Sample,118927,0,"LR5_HatShakerS.wav",74
Sample,119142,0,"LR_Hat Synth.wav",80
Sample,119356,0,"LR5_HatShakerS.wav",74
Sample,119463,0,"LR5_HatShakerEC.wav",79
Sample,119570,0,"LR_Hat Synth.wav",80
Sample,119784,0,"LR5_HatShakerS.wav",74
Sample,119999,0,"LR_Hat Synth.wav",80
Sample,120213,0,"LR5_HatShakerS.wav",74
Sample,120427,0,"LR_Hat Synth.wav",80
Sample,120642,0,"LR5_HatShakerS.wav",74
Sample,120856,0,"LR_Hat Synth.wav",80
Sample,121070,0,"LR5_HatShakerS.wav",74
Sample,121177,0,"LR5_HatShakerEC.wav",79
Sample,121284,0,"LR_Hat Synth.wav",80
Sample,121499,0,"LR5_HatShakerS.wav",74
Sample,121713,0,"LR_Hat Synth.wav",80
Sample,121927,0,"LR5_HatShakerS.wav",74
Sample,122142,0,"LR_Hat Synth.wav",80
Sample,122356,0,"LR5_HatShakerS.wav",74
Sample,122570,0,"LR_Hat Synth.wav",80
Sample,122784,0,"LR5_HatShakerS.wav",74
Sample,122892,0,"LR5_HatShakerEC.wav",79
Sample,122999,0,"LR_Hat Synth.wav",80
Sample,123213,0,"LR5_HatShakerS.wav",74
Sample,123427,0,"LR_Hat Synth.wav",80
Sample,123642,0,"LR5_HatShakerS.wav",74
Sample,123856,0,"LR_Hat Synth.wav",80
Sample,124070,0,"LR5_HatShakerS.wav",74
Sample,124284,0,"LR_Hat Synth.wav",80
Sample,124499,0,"LR5_HatShakerS.wav",74
Sample,124606,0,"LR5_HatShakerEC.wav",79
Sample,124713,0,"LR_Hat Synth.wav",80
Sample,124927,0,"LR5_HatShakerS.wav",74
Sample,125142,0,"LR_Hat Synth.wav",80
Sample,125570,0,"LR_Hat Synth.wav",80
Sample,125999,0,"LR_Hat Synth.wav",80
Sample,126427,0,"LR_Hat Synth.wav",80
Sample,126856,0,"LR_CymbalHLWX.wav",30
Sample,127070,0,"LR5_HatShakerS.wav",74
Sample,127284,0,"LR_Hat Synth.wav",80
Sample,127499,0,"LR5_HatShakerS.wav",74
Sample,127713,0,"LR_Hat Synth.wav",80
Sample,127927,0,"LR5_HatShakerS.wav",74
Sample,128034,0,"LR5_HatShakerEC.wav",79
Sample,128142,0,"LR_Hat Synth.wav",80
Sample,128356,0,"LR5_HatShakerS.wav",74
Sample,128570,0,"LR_Hat Synth.wav",80
Sample,128784,0,"LR5_HatShakerS.wav",74
Sample,128999,0,"LR_Hat Synth.wav",80
Sample,129213,0,"LR5_HatShakerS.wav",74
Sample,129427,0,"LR_Hat Synth.wav",80
Sample,129642,0,"LR5_HatShakerS.wav",74
Sample,129749,0,"LR5_HatShakerEC.wav",79
Sample,129856,0,"LR_Hat Synth.wav",80
Sample,130070,0,"LR5_HatShakerS.wav",74
Sample,130284,0,"LR_Hat Synth.wav",80
Sample,130499,0,"LR5_HatShakerS.wav",74
Sample,130713,0,"LR_Hat Synth.wav",80
Sample,130927,0,"LR5_HatShakerS.wav",74
Sample,131142,0,"LR_Hat Synth.wav",80
Sample,131356,0,"LR5_HatShakerS.wav",74
Sample,131463,0,"LR5_HatShakerEC.wav",79
Sample,131570,0,"LR_Hat Synth.wav",80
Sample,131784,0,"LR5_HatShakerS.wav",74
Sample,131999,0,"LR_Hat Synth.wav",80
Sample,132213,0,"LR5_HatShakerS.wav",74
Sample,132427,0,"LR_Hat Synth.wav",80
Sample,132642,0,"LR5_HatShakerS.wav",74
Sample,132856,0,"LR_Hat Synth.wav",80
Sample,133070,0,"LR5_HatShakerS.wav",74
Sample,133177,0,"LR5_HatShakerEC.wav",79
Sample,133284,0,"LR_Hat Synth.wav",80
Sample,133499,0,"LR5_HatShakerS.wav",74
Sample,133713,0,"LR_Hat Synth.wav",80
Sample,133927,0,"LR5_HatShakerS.wav",74
Sample,134142,0,"LR_Hat Synth.wav",80
Sample,134356,0,"LR5_HatShakerS.wav",74
Sample,134570,0,"LR_Hat Synth.wav",80
Sample,134784,0,"LR5_HatShakerS.wav",74
Sample,134892,0,"LR5_HatShakerEC.wav",79
Sample,134999,0,"LR_Hat Synth.wav",80
Sample,135213,0,"LR5_HatShakerS.wav",74
Sample,135427,0,"LR_Hat Synth.wav",80
Sample,135642,0,"LR5_HatShakerS.wav",74
Sample,135856,0,"LR_Hat Synth.wav",80
Sample,136070,0,"LR5_HatShakerS.wav",74
Sample,136284,0,"LR_Hat Synth.wav",80
Sample,136499,0,"LR5_HatShakerS.wav",74
Sample,136606,0,"LR5_HatShakerEC.wav",79
Sample,136713,0,"LR_Hat Synth.wav",80
Sample,136927,0,"LR5_HatShakerS.wav",74
Sample,137142,0,"LR_Hat Synth.wav",80
Sample,137356,0,"LR5_HatShakerS.wav",74
Sample,137570,0,"LR_Hat Synth.wav",80
Sample,137784,0,"LR5_HatShakerS.wav",74
Sample,137999,0,"LR_Hat Synth.wav",80
Sample,138213,0,"LR5_HatShakerS.wav",74
Sample,138320,0,"LR5_HatShakerEC.wav",79
Sample,138427,0,"LR_Hat Synth.wav",80
Sample,138642,0,"LR5_HatShakerS.wav",74
Sample,138856,0,"LR_Hat Synth.wav",80
Sample,138856,0,"LR_RevCyHLWX.wav",100
Sample,139284,0,"LR_Hat Synth.wav",80
Sample,139713,0,"LR_Hat Synth.wav",80
Sample,140142,0,"LR_Hat Synth.wav",80
Sample,140570,0,"LR_CymbalHLWX.wav",16
Sample,145713,0,"E5H.wav",30

[TimingPoints]
0,428.571428571429,4,1,0,100,1,0
1,-100,4,2,0,5,0,0
41142,428.571428571429,4,2,0,5,1,0
54856,-100,4,2,0,5,0,1
82284,-100,4,2,0,5,0,0
113142,-100,4,2,0,5,0,1
140142,-100,4,2,0,5,0,0

[HitObjects]
475,192,0,5,0,0:0:0:75:A6H.wav
51,192,0,1,0,0:0:0:80:F#4S_Gb4S.wav
358,192,428,1,0,0:0:0:75:G#6H_Ab6H.wav
153,192,428,1,0,0:0:0:80:C#5S_Db5S.wav
480,192,857,1,0,0:0:0:75:A6H.wav
298,192,857,128,0,1714:0:0:0:80:F#5S_Gb5S.wav
358,192,1285,1,0,0:0:0:75:G#6H_Ab6H.wav
480,192,1714,1,0,0:0:0:75:A6H.wav
32,192,1714,1,0,0:0:0:66:D4S.wav
352,192,2142,1,0,0:0:0:75:E6H.wav
153,192,2142,1,0,0:0:0:66:A4S.wav
480,192,2571,1,0,0:0:0:75:A6H.wav
51,192,2571,128,0,4714:0:0:0:66:D5S.wav
358,192,3000,128,0,4714:0:0:0:90:D6H.wav
256,192,6750,1,0,0:0:0:15:A5H.wav
402,192,6803,1,0,0:0:0:15:C#6H_Db6H.wav
486,192,6857,1,0,0:0:0:75:A6H.wav
96,192,6857,1,0,0:0:0:80:F#4S_Gb4S.wav
384,192,7285,1,0,0:0:0:75:G#6H_Ab6H.wav
153,192,7285,1,0,0:0:0:80:C#5S_Db5S.wav
486,192,7714,1,0,0:0:0:75:A6H.wav
298,192,7714,128,0,8571:0:0:0:80:F#5S_Gb5S.wav
384,192,8142,1,0,0:0:0:75:G#6H_Ab6H.wav
486,192,8571,1,0,0:0:0:75:A6H.wav
32,192,8571,1,0,0:0:0:66:D4S.wav
358,192,9000,1,0,0:0:0:75:E6H.wav
153,192,9000,1,0,0:0:0:66:A4S.wav
486,192,9428,1,0,0:0:0:75:A6H.wav
213,192,9428,128,0,11571:0:0:0:66:D5S.wav
358,192,9857,128,0,11571:0:0:0:90:D6H.wav
256,192,13607,1,0,0:0:0:15:A5H.wav
402,192,13660,1,0,0:0:0:15:C#6H_Db6H.wav
486,192,13714,1,0,0:0:0:75:A6H.wav
42,192,13714,1,0,0:0:0:80:F#4S_Gb4S.wav
384,192,14142,1,0,0:0:0:90:G#6H_Ab6H_s.wav
128,192,14142,1,0,0:0:0:80:C#5S_Db5S.wav
486,192,14357,1,0,0:0:0:75:A6H.wav
298,192,14571,1,0,0:0:0:80:F#5S_Gb5S_s.wav
182,192,14785,128,0,15428:0:0:0:80:A5S.wav
384,192,15000,1,0,0:0:0:90:G#6H_Ab6H_s.wav
486,192,15214,1,0,0:0:0:75:A6H.wav
32,192,15428,1,0,0:0:0:66:D4S.wav
256,192,15642,1,0,0:0:0:90:A5H_s.wav
402,192,15857,1,0,0:0:0:90:E6H_s.wav
153,192,15857,1,0,0:0:0:66:A4S.wav
486,192,16071,1,0,0:0:0:75:A6H.wav
213,192,16285,1,0,0:0:0:66:D5S.wav
352,192,16500,1,0,0:0:0:90:A5H_s.wav
480,192,16714,1,0,0:0:0:90:D6H_s.wav
96,192,16714,1,0,0:0:0:66:A4S.wav
153,192,16928,1,0,0:0:0:50:A5H_s.wav
256,192,16982,1,0,0:0:0:50:E5H_s.wav
402,192,17035,1,0,0:0:0:50:A5H_s.wav
475,192,17089,1,0,0:0:0:90:C#6H_Db6H.wav
32,192,17142,1,0,0:0:0:66:A3S.wav
358,192,17571,1,0,0:0:0:75:D6H.wav
153,192,17571,1,0,0:0:0:66:E4S.wav
486,192,18000,1,0,0:0:0:75:E6H.wav
256,192,18000,1,0,0:0:0:90:A5H_s.wav
51,192,18000,128,0,18857:0:0:0:66:A4S.wav
384,192,18428,1,0,0:0:0:75:C#6H_Db6H.wav
256,192,18857,1,0,0:0:0:66:E4S.wav
460,192,18857,128,0,19714:0:0:0:90:B5H.wav
109,192,19285,1,0,0:0:0:66:B4S.wav
51,192,19714,128,0,20571:0:0:0:66:E5S.wav
460,192,20142,1,0,0:0:0:90:A5H_s.wav
329,192,20357,1,0,0:0:0:90:G#5H_Ab5H_s.wav
128,192,20571,1,0,0:0:0:80:F#4S_Gb4S.wav
460,192,20571,128,0,21428:0:0:0:90:A5H.wav
256,192,21000,1,0,0:0:0:80:C#5S_Db5S.wav
51,192,21428,128,0,22285:0:0:0:80:F#5S_Gb5S.wav
153,192,21642,1,0,0:0:0:70:E5H_s.wav
256,192,21857,1,0,0:0:0:90:A5H_s.wav
358,192,22071,1,0,0:0:0:90:B5H_s.wav
256,192,22285,1,0,0:0:0:66:D4S.wav
480,192,22285,128,0,23142:0:0:0:90:C#6H_Db6H.wav
160,192,22714,1,0,0:0:0:66:A4S.wav
256,192,23142,128,0,24000:0:0:0:66:D5S.wav
153,192,23571,1,0,0:0:0:90:C#6H_Db6H_s.wav
384,192,23785,1,0,0:0:0:90:D6H_s.wav
32,192,24000,1,0,0:0:0:66:A3S.wav
486,192,24000,128,0,24857:0:0:0:90:E6H.wav
153,192,24428,1,0,0:0:0:66:E4S.wav
51,192,24857,128,0,25714:0:0:0:66:C#5S_Db5S.wav
486,192,25285,1,0,0:0:0:90:D6H_s.wav
384,192,25500,1,0,0:0:0:90:C#6H_Db6H_s.wav
153,192,25714,1,0,0:0:0:66:E4S.wav
298,192,25714,128,0,26571:0:0:0:90:B5H.wav
51,192,26142,1,0,0:0:0:66:B4S.wav
153,192,26571,128,0,27000:0:0:0:66:G#5S_Ab5S.wav
256,192,27321,1,0,0:0:0:15:A5H.wav
402,192,27375,1,0,0:0:0:15:C#6H_Db6H.wav
486,192,27428,1,0,0:0:0:75:A6H.wav
32,192,27428,1,0,0:0:0:80:F#4S_Gb4S.wav
358,192,27857,1,0,0:0:0:90:G#6H_Ab6H_s.wav
153,192,27857,1,0,0:0:0:80:C#5S_Db5S.wav
486,192,28071,1,0,0:0:0:75:A6H.wav
213,192,28285,1,0,0:0:0:80:F#5S_Gb5S_s.wav
128,192,28500,128,0,29142:0:0:0:80:A5S.wav
358,192,28714,1,0,0:0:0:90:G#6H_Ab6H_s.wav
486,192,28928,1,0,0:0:0:75:A6H.wav
32,192,29142,1,0,0:0:0:66:D4S.wav
256,192,29357,1,0,0:0:0:90:A5H_s.wav
384,192,29571,1,0,0:0:0:90:E6H_s.wav
153,192,29571,1,0,0:0:0:66:A4S.wav
486,192,29785,1,0,0:0:0:75:A6H.wav
213,192,30000,1,0,0:0:0:66:D5S.wav
402,192,30214,1,0,0:0:0:90:A5H_s.wav
475,192,30428,1,0,0:0:0:90:D6H_s.wav
96,192,30428,1,0,0:0:0:66:A4S.wav
153,192,30642,1,0,0:0:0:50:A5H_s.wav
256,192,30696,1,0,0:0:0:50:E5H_s.wav
402,192,30750,1,0,0:0:0:50:A5H_s.wav
475,192,30803,1,0,0:0:0:90:C#6H_Db6H.wav
32,192,30857,1,0,0:0:0:66:A3S.wav
256,192,31285,1,0,0:0:0:75:D6H.wav
153,192,31285,1,0,0:0:0:66:E4S.wav
358,192,31714,1,0,0:0:0:75:E6H.wav
256,192,31714,128,0,32571:0:0:0:66:A4S.wav
486,192,32142,1,0,0:0:0:75:C#7H_Db7H.wav
384,192,32571,1,0,0:0:0:75:B6H.wav
153,192,32571,1,0,0:0:0:66:E4S.wav
460,192,33000,1,0,0:0:0:90:E6H_s.wav
51,192,33000,1,0,0:0:0:66:B4S.wav
384,192,33267,1,0,0:0:0:90:B6H_s.wav
486,192,33428,1,0,0:0:0:90:C#7H_Db7H_s.wav
182,192,33428,128,0,34285:0:0:0:66:E5S.wav
384,192,33642,1,0,0:0:0:90:B6H_s.wav
298,192,33857,1,0,0:0:0:90:A6H_s.wav
384,192,34071,1,0,0:0:0:90:G#6H_Ab6H_s.wav
469,192,34285,128,0,35142:0:0:0:90:A6H.wav
32,192,34285,1,0,0:0:0:80:F#4S_Gb4S.wav
153,192,34714,1,0,0:0:0:80:C#5S_Db5S.wav
256,192,35142,128,0,36000:0:0:0:80:F#5S_Gb5S.wav
153,192,35571,1,0,0:0:0:90:A5H_s.wav
352,192,35785,1,0,0:0:0:90:B5H_s.wav
469,192,36000,128,0,36857:0:0:0:90:C#6H_Db6H.wav
42,192,36000,1,0,0:0:0:66:D4S.wav
160,192,36428,1,0,0:0:0:66:A4S.wav
358,192,36857,128,0,37714:0:0:0:66:D5S.wav
153,192,37285,1,0,0:0:0:90:C#6H_Db6H_s.wav
256,192,37500,1,0,0:0:0:90:D6H_s.wav
460,192,37714,128,0,38571:0:0:0:90:E6H.wav
32,192,37714,1,0,0:0:0:66:A3S.wav
153,192,38142,1,0,0:0:0:66:E4S.wav
213,192,38571,128,0,39428:0:0:0:66:C#5S_Db5S.wav
486,192,39000,1,0,0:0:0:90:D6H_s.wav
384,192,39214,1,0,0:0:0:90:C#6H_Db6H_s.wav
51,192,39428,1,0,0:0:0:66:E4S.wav
153,192,39428,1,0,0:0:0:90:B5H.wav
358,192,39857,1,0,0:0:0:66:B4S.wav
435,192,40285,1,0,0:0:0:90:A6H_s.wav
153,192,40285,128,0,41142:0:0:0:66:E5S.wav
384,192,40500,1,0,0:0:0:90:B6H_s.wav
435,192,40714,1,0,0:0:0:90:A6H_s.wav
352,192,40928,1,0,0:0:0:90:G#6H_Ab6H_s.wav
469,192,41142,1,0,0:0:0:90:A6H_s.wav
256,192,41142,1,0,0:0:0:40:F#4S_Gb4S.wav
36,192,41142,1,0,0:0:0:40:F#4S_Gb4S.wav
329,192,41356,1,0,0:0:0:75:A5H_s.wav
256,192,41570,1,0,0:0:0:75:E6H_s.wav
51,192,41570,1,0,0:0:0:66:C#5S_Db5S.wav
329,192,41784,1,0,0:0:0:75:A5H_s.wav
435,192,41999,1,0,0:0:0:90:A6H_s.wav
128,192,41999,1,0,0:0:0:66:F#5S_Gb5S.wav
384,192,42213,1,0,0:0:0:90:B6H_s.wav
435,192,42427,1,0,0:0:0:90:A6H_s.wav
51,192,42427,1,0,0:0:0:66:C#5S_Db5S.wav
298,192,42642,1,0,0:0:0:90:G#6H_Ab6H_s.wav
486,192,42856,1,0,0:0:0:90:A6H_s.wav
109,192,42856,1,0,0:0:0:40:D4S.wav
36,192,42856,1,0,0:0:0:40:D4S.wav
358,192,43070,1,0,0:0:0:75:A5H_s.wav
256,192,43284,1,0,0:0:0:75:E6H_s.wav
182,192,43284,1,0,0:0:0:66:A4S.wav
358,192,43499,1,0,0:0:0:75:A5H_s.wav
435,192,43713,1,0,0:0:0:90:A6H_s.wav
51,192,43713,1,0,0:0:0:66:D5S.wav
256,192,43927,1,0,0:0:0:90:B6H_s.wav
460,192,44142,1,0,0:0:0:90:A6H_s.wav
153,192,44142,1,0,0:0:0:66:A4S.wav
358,192,44356,1,0,0:0:0:90:G#6H_Ab6H_s.wav
435,192,44570,1,0,0:0:0:90:A6H_s.wav
256,192,44570,1,0,0:0:0:40:A3S.wav
42,192,44570,1,0,0:0:0:40:A3S.wav
153,192,44784,1,0,0:0:0:90:B6H_s.wav
256,192,44999,1,0,0:0:0:90:C#7H_Db7H_s.wav
51,192,44999,1,0,0:0:0:66:E4S.wav
384,192,45213,1,0,0:0:0:90:D7H_s.wav
486,192,45427,1,0,0:0:0:90:E7H_s.wav
109,192,45427,1,0,0:0:0:66:C#5S_Db5S.wav
384,192,45642,1,0,0:0:0:90:C#7H_Db7H_s.wav
256,192,45856,1,0,0:0:0:90:B6H_s.wav
42,192,45856,1,0,0:0:0:66:E4S.wav
153,192,46070,1,0,0:0:0:90:A6H_s.wav
384,192,46284,1,0,0:0:0:90:G#6H_Ab6H.wav
460,192,46284,1,0,0:0:0:40:E4S.wav
42,192,46284,1,0,0:0:0:40:E4S.wav
358,192,46713,1,0,0:0:0:75:B5H_s.wav
153,192,46713,1,0,0:0:0:66:B4S.wav
256,192,47142,1,0,0:0:0:90:A6H_s.wav
51,192,47142,1,0,0:0:0:66:E5S.wav
486,192,47356,1,0,0:0:0:90:B6H_s.wav
384,192,47570,1,0,0:0:0:90:A6H_s.wav
182,192,47570,1,0,0:0:0:66:B4S.wav
460,192,47784,1,0,0:0:0:90:G#6H_Ab6H_s.wav
256,192,47999,1,0,0:0:0:90:A6H_s.wav
358,192,47999,1,0,0:0:0:40:F#4S_Gb4S.wav
51,192,47999,1,0,0:0:0:40:F#4S_Gb4S.wav
469,192,48213,1,0,0:0:0:75:A5H_s.wav
256,192,48427,1,0,0:0:0:75:E6H_s.wav
153,192,48427,1,0,0:0:0:66:C#5S_Db5S.wav
475,192,48642,1,0,0:0:0:75:A5H_s.wav
384,192,48856,1,0,0:0:0:90:A6H_s.wav
51,192,48856,1,0,0:0:0:66:F#5S_Gb5S.wav
256,192,49070,1,0,0:0:0:90:B6H_s.wav
402,192,49284,1,0,0:0:0:90:A6H_s.wav
153,192,49284,1,0,0:0:0:66:C#5S_Db5S.wav
460,192,49499,1,0,0:0:0:90:G#6H_Ab6H_s.wav
402,192,49713,1,0,0:0:0:90:A6H_s.wav
51,192,49713,1,0,0:0:0:40:D4S.wav
213,192,49713,1,0,0:0:0:40:D4S.wav
469,192,49927,1,0,0:0:0:75:A5H_s.wav
256,192,50142,1,0,0:0:0:75:E6H_s.wav
153,192,50142,1,0,0:0:0:66:A4S.wav
469,192,50356,1,0,0:0:0:75:A5H_s.wav
402,192,50570,1,0,0:0:0:90:A6H_s.wav
51,192,50570,1,0,0:0:0:66:D5S.wav
475,192,50784,1,0,0:0:0:90:B6H_s.wav
402,192,50999,1,0,0:0:0:90:A6H_s.wav
153,192,50999,1,0,0:0:0:66:A4S.wav
256,192,51213,1,0,0:0:0:90:G#6H_Ab6H_s.wav
469,192,51427,1,0,0:0:0:90:A6H_s.wav
51,192,51427,1,0,0:0:0:40:A3S.wav
182,192,51427,1,0,0:0:0:40:A3S.wav
256,192,51642,1,0,0:0:0:90:B6H_s.wav
384,192,51856,1,0,0:0:0:90:C#7H_Db7H_s.wav
36,192,51856,1,0,0:0:0:66:E4S.wav
469,192,52070,1,0,0:0:0:90:D7H_s.wav
298,192,52284,1,0,0:0:0:90:E7H_s.wav
109,192,52284,1,0,0:0:0:66:C#5S_Db5S.wav
469,192,52499,1,0,0:0:0:90:C#7H_Db7H_s.wav
384,192,52713,1,0,0:0:0:90:B6H_s.wav
42,192,52713,1,0,0:0:0:66:E4S.wav
298,192,52927,1,0,0:0:0:90:A6H_s.wav
469,192,53142,1,0,0:0:0:90:G#6H_Ab6H.wav
182,192,53142,1,0,0:0:0:40:E4S.wav
51,192,53142,1,0,0:0:0:40:E4S.wav
329,192,53570,1,0,0:0:0:75:B5H_s.wav
36,192,53570,1,0,0:0:0:66:B4S.wav
384,192,53999,1,0,0:0:0:90:A6H_s.wav
109,192,53999,1,0,0:0:0:66:E5S.wav
384,192,54213,1,0,0:0:0:90:A6H_s.wav
486,192,54320,1,0,0:0:0:90:B6H_s.wav
384,192,54427,1,0,0:0:0:90:A6H_s.wav
51,192,54427,1,0,0:0:0:66:B4S.wav
298,192,54642,1,0,0:0:0:90:G#6H_Ab6H_s.wav
182,192,54856,1,0,0:0:0:82:LR_CymbalHLWX.wav
384,192,54856,1,0,0:0:0:90:A6H_s.wav
460,192,54856,1,0,0:0:0:60:F#3ss_SVS.wav
25,192,54856,1,0,0:0:0:99:LR4_KickTBCD.wav
298,192,55070,1,0,0:0:0:75:A5H_s.wav
402,192,55284,1,0,0:0:0:75:E6H_s.wav
128,192,55284,1,0,0:0:0:60:C#4ss_SVS.wav
298,192,55499,1,0,0:0:0:75:A5H_s.wav
469,192,55713,1,0,0:0:0:90:A6H_s.wav
182,192,55713,1,0,0:0:0:60:A4ss_SVS.wav
42,192,55713,1,0,0:0:0:72:LR4_SnareBPDT.wav
384,192,55927,1,0,0:0:0:90:A6H_s.wav
469,192,56034,1,0,0:0:0:90:B6H_s.wav
384,192,56142,1,0,0:0:0:90:A6H_s.wav
128,192,56142,1,0,0:0:0:60:C#4ss_SVS.wav
298,192,56356,1,0,0:0:0:90:G#6H_Ab6H_s.wav
469,192,56570,1,0,0:0:0:90:A6H_s.wav
153,192,56570,1,0,0:0:0:60:D4ss_SVS.wav
42,192,56570,1,0,0:0:0:99:LR4_KickTBCD.wav
329,192,56784,1,0,0:0:0:75:A5H_s.wav
256,192,56999,1,0,0:0:0:75:E6H_s.wav
128,192,56999,1,0,0:0:0:60:A4ss_SVS.wav
358,192,57213,1,0,0:0:0:75:A5H_s.wav
475,192,57427,1,0,0:0:0:90:A6H_s.wav
36,192,57427,1,0,0:0:0:60:D5ss_SVS.wav
213,192,57427,1,0,0:0:0:72:LR4_SnareBPDT.wav
329,192,57642,1,0,0:0:0:90:A6H_s.wav
460,192,57749,1,0,0:0:0:90:B6H_s.wav
329,192,57856,1,0,0:0:0:90:A6H_s.wav
109,192,57856,1,0,0:0:0:60:A4ss_SVS.wav
213,192,58070,1,0,0:0:0:90:G#6H_Ab6H_s.wav
475,192,58284,1,0,0:0:0:90:A6H_s.wav
358,192,58284,1,0,0:0:0:60:A3ss_SVS.wav
36,192,58284,1,0,0:0:0:99:LR4_KickTBCD.wav
153,192,58499,1,0,0:0:0:90:B6H_s.wav
298,192,58713,1,0,0:0:0:90:C#7H_Db7H_s.wav
42,192,58713,1,0,0:0:0:60:E4ss_SVS.wav
384,192,58927,1,0,0:0:0:90:D7H_s.wav
475,192,59142,1,0,0:0:0:90:E7H_s.wav
109,192,59142,1,0,0:0:0:60:C#5ss_SVS.wav
51,192,59142,1,0,0:0:0:72:LR4_SnareBPDT.wav
384,192,59356,1,0,0:0:0:90:C#7H_Db7H_s.wav
298,192,59570,1,0,0:0:0:90:B6H_s.wav
42,192,59570,1,0,0:0:0:60:E4ss_SVS.wav
153,192,59784,1,0,0:0:0:90:A6H_s.wav
402,192,59999,1,0,0:0:0:90:G#6H_Ab6H.wav
460,192,59999,1,0,0:0:0:60:E3ss_SVS.wav
25,192,59999,1,0,0:0:0:99:LR4_KickTBCD.wav
256,192,60427,1,0,0:0:0:75:B5H_s.wav
153,192,60427,1,0,0:0:0:60:B3ss_SVS.wav
256,192,60856,1,0,0:0:0:90:A6H_s.wav
51,192,60856,1,0,0:0:0:60:E4ss_SVS.wav
460,192,60856,1,0,0:0:0:72:LR4_SnareBPDT.wav
384,192,61070,1,0,0:0:0:90:A6H_s.wav
486,192,61177,1,0,0:0:0:90:B6H_s.wav
384,192,61284,1,0,0:0:0:90:A6H_s.wav
153,192,61284,1,0,0:0:0:60:B3ss_SVS.wav
298,192,61499,1,0,0:0:0:90:G#6H_Ab6H_s.wav
486,192,61713,1,0,0:0:0:90:A6H_s.wav
182,192,61713,1,0,0:0:0:60:F#3ss_SVS.wav
51,192,61713,1,0,0:0:0:99:LR4_KickTBCD.wav
298,192,61927,1,0,0:0:0:75:A5H_s.wav
402,192,62142,1,0,0:0:0:75:E6H_s.wav
153,192,62142,1,0,0:0:0:60:C#4ss_SVS.wav
298,192,62356,1,0,0:0:0:75:A5H_s.wav
469,192,62570,1,0,0:0:0:90:A6H_s.wav
358,192,62570,1,0,0:0:0:60:A4ss_SVS.wav
51,192,62570,1,0,0:0:0:72:LR4_SnareBPDT.wav
298,192,62784,1,0,0:0:0:90:A6H_s.wav
384,192,62892,1,0,0:0:0:90:B6H_s.wav
298,192,62999,1,0,0:0:0:90:A6H_s.wav
36,192,62999,1,0,0:0:0:60:C#4ss_SVS.wav
153,192,63213,1,0,0:0:0:90:G#6H_Ab6H_s.wav
460,192,63427,1,0,0:0:0:90:A6H_s.wav
256,192,63427,1,0,0:0:0:60:D4ss_SVS.wav
51,192,63427,1,0,0:0:0:99:LR4_KickTBCD.wav
358,192,63642,1,0,0:0:0:75:A5H_s.wav
460,192,63856,1,0,0:0:0:75:E6H_s.wav
153,192,63856,1,0,0:0:0:60:A4ss_SVS.wav
358,192,64070,1,0,0:0:0:75:A5H_s.wav
460,192,64284,1,0,0:0:0:90:A6H_s.wav
51,192,64284,1,0,0:0:0:60:D5ss_SVS.wav
153,192,64284,1,0,0:0:0:72:LR4_SnareBPDT.wav
256,192,64499,1,0,0:0:0:90:B6H_s.wav
460,192,64713,1,0,0:0:0:90:A6H_s.wav
51,192,64713,1,0,0:0:0:60:A4ss_SVS.wav
329,192,64927,1,0,0:0:0:90:G#6H_Ab6H_s.wav
460,192,65142,1,0,0:0:0:90:A6H_s.wav
128,192,65142,1,0,0:0:0:60:A3ss_SVS.wav
256,192,65142,1,0,0:0:0:99:LR4_KickTBCD.wav
51,192,65356,1,0,0:0:0:90:B6H_s.wav
358,192,65570,1,0,0:0:0:90:C#7H_Db7H_s.wav
128,192,65570,1,0,0:0:0:60:E4ss_SVS.wav
256,192,65784,1,0,0:0:0:90:D7H_s.wav
475,192,65999,1,0,0:0:0:90:E7H_s.wav
358,192,65999,1,0,0:0:0:60:C#5ss_SVS.wav
42,192,65999,1,0,0:0:0:72:LR4_SnareBPDT.wav
256,192,66213,1,0,0:0:0:90:C#7H_Db7H_s.wav
460,192,66427,1,0,0:0:0:90:B6H_s.wav
128,192,66427,1,0,0:0:0:60:E4ss_SVS.wav
51,192,66642,1,0,0:0:0:90:A6H_s.wav
475,192,66856,1,0,0:0:0:90:G#6H_Ab6H.wav
358,192,66856,1,0,0:0:0:38:E3ss_SVS.wav
153,192,66856,1,0,0:0:0:66:LR4_KickTBCD.wav
358,192,67070,1,0,0:0:0:66:LR4_KickTBCD.wav
460,192,67284,1,0,0:0:0:75:B5H_s.wav
51,192,67284,1,0,0:0:0:38:B3ss_SVS.wav
256,192,67284,1,0,0:0:0:66:LR4_KickTBCD.wav
256,192,67499,1,0,0:0:0:66:LR4_KickTBCD.wav
358,192,67713,1,0,0:0:0:40:G#5H_Ab5H.wav
153,192,67713,1,0,0:0:0:38:E4ss_SVS.wav
460,192,67713,1,0,0:0:0:66:LR4_KickTBCD.wav
153,192,67927,1,0,0:0:0:66:LR4_KickTBCD.wav
460,192,68142,1,0,0:0:0:36:LR4_SnareBPDT.wav
256,192,68142,1,0,0:0:0:30:E5H.wav
36,192,68142,1,0,0:0:0:38:B3ss_SVS.wav
358,192,68142,1,0,0:0:0:36:LR4_SnareBPDT.wav
32,192,68570,1,0,0:0:0:99:LR4_KickTBCD.wav
469,192,68570,1,0,0:0:0:90:A6H_s.wav
256,192,68570,1,0,0:0:0:60:F#3ss_SVS.wav
182,192,68570,1,0,0:0:0:83:LR_CymbalG.wav
384,192,68784,1,0,0:0:0:75:A5H_s.wav
298,192,68999,1,0,0:0:0:75:E6H_s.wav
109,192,68999,1,0,0:0:0:60:C#4ss_SVS.wav
384,192,69213,1,0,0:0:0:75:A5H_s.wav
480,192,69427,1,0,0:0:0:90:A6H_s.wav
36,192,69427,1,0,0:0:0:60:A4ss_SVS.wav
182,192,69427,1,0,0:0:0:72:LR4_SnareBPDT.wav
384,192,69642,1,0,0:0:0:90:A6H_s.wav
469,192,69749,1,0,0:0:0:90:B6H_s.wav
384,192,69856,1,0,0:0:0:90:A6H_s.wav
109,192,69856,1,0,0:0:0:60:C#4ss_SVS.wav
298,192,70070,1,0,0:0:0:90:G#6H_Ab6H_s.wav
486,192,70284,1,0,0:0:0:90:A6H_s.wav
36,192,70284,1,0,0:0:0:60:D4ss_SVS.wav
182,192,70284,1,0,0:0:0:99:LR4_KickTBCD.wav
384,192,70499,1,0,0:0:0:75:A5H_s.wav
480,192,70713,1,0,0:0:0:75:E6H_s.wav
109,192,70713,1,0,0:0:0:60:A4ss_SVS.wav
402,192,70927,1,0,0:0:0:75:A5H_s.wav
213,192,71142,1,0,0:0:0:90:A6H_s.wav
42,192,71142,1,0,0:0:0:60:D5ss_SVS.wav
153,192,71142,1,0,0:0:0:72:LR4_SnareBPDT.wav
384,192,71356,1,0,0:0:0:90:A6H_s.wav
486,192,71463,1,0,0:0:0:90:B6H_s.wav
384,192,71570,1,0,0:0:0:90:A6H_s.wav
109,192,71570,1,0,0:0:0:60:A4ss_SVS.wav
298,192,71784,1,0,0:0:0:90:G#6H_Ab6H_s.wav
475,192,71999,1,0,0:0:0:90:A6H_s.wav
384,192,71999,1,0,0:0:0:60:A3ss_SVS.wav
25,192,71999,1,0,0:0:0:99:LR4_KickTBCD.wav
128,192,72213,1,0,0:0:0:90:B6H_s.wav
256,192,72427,1,0,0:0:0:90:C#7H_Db7H_s.wav
51,192,72427,1,0,0:0:0:60:E4ss_SVS.wav
358,192,72642,1,0,0:0:0:90:D7H_s.wav
469,192,72856,1,0,0:0:0:90:E7H_s.wav
153,192,72856,1,0,0:0:0:60:C#5ss_SVS.wav
51,192,72856,1,0,0:0:0:72:LR4_SnareBPDT.wav
358,192,73070,1,0,0:0:0:90:C#7H_Db7H_s.wav
256,192,73284,1,0,0:0:0:90:B6H_s.wav
51,192,73284,1,0,0:0:0:60:E4ss_SVS.wav
109,192,73499,1,0,0:0:0:90:A6H_s.wav
460,192,73713,1,0,0:0:0:90:G#6H_Ab6H.wav
384,192,73713,1,0,0:0:0:60:E3ss_SVS.wav
25,192,73713,1,0,0:0:0:99:LR4_KickTBCD.wav
460,192,74142,1,0,0:0:0:75:B5H_s.wav
109,192,74142,1,0,0:0:0:60:B3ss_SVS.wav
475,192,74570,1,0,0:0:0:90:A6H_s.wav
51,192,74570,1,0,0:0:0:60:E4ss_SVS.wav
358,192,74570,1,0,0:0:0:72:LR4_SnareBPDT.wav
298,192,74784,1,0,0:0:0:90:A6H_s.wav
384,192,74892,1,0,0:0:0:90:B6H_s.wav
298,192,74999,1,0,0:0:0:90:A6H_s.wav
51,192,74999,1,0,0:0:0:60:B3ss_SVS.wav
153,192,75213,1,0,0:0:0:90:G#6H_Ab6H_s.wav
329,192,75427,1,0,0:0:0:90:A6H_s.wav
469,192,75427,1,0,0:0:0:60:F#3ss_SVS.wav
51,192,75427,1,0,0:0:0:99:LR4_KickTBCD.wav
256,192,75642,1,0,0:0:0:75:A5H_s.wav
358,192,75856,1,0,0:0:0:75:E6H_s.wav
109,192,75856,1,0,0:0:0:60:C#4ss_SVS.wav
256,192,76070,1,0,0:0:0:75:A5H_s.wav
469,192,76284,1,0,0:0:0:90:A6H_s.wav
182,192,76284,1,0,0:0:0:60:A4ss_SVS.wav
36,192,76284,1,0,0:0:0:72:LR4_SnareBPDT.wav
358,192,76499,1,0,0:0:0:90:A6H_s.wav
460,192,76606,1,0,0:0:0:90:B6H_s.wav
358,192,76713,1,0,0:0:0:90:A6H_s.wav
109,192,76713,1,0,0:0:0:60:C#4ss_SVS.wav
213,192,76927,1,0,0:0:0:90:G#6H_Ab6H_s.wav
460,192,77142,1,0,0:0:0:90:A6H_s.wav
153,192,77142,1,0,0:0:0:60:D4ss_SVS.wav
42,192,77142,1,0,0:0:0:99:LR4_KickTBCD.wav
358,192,77356,1,0,0:0:0:75:A5H_s.wav
109,192,77570,1,0,0:0:0:75:E6H_s.wav
298,192,77570,1,0,0:0:0:60:A4ss_SVS.wav
358,192,77784,1,0,0:0:0:75:A5H_s.wav
460,192,77999,1,0,0:0:0:90:A6H_s.wav
182,192,77999,1,0,0:0:0:60:D5ss_SVS.wav
25,192,77999,1,0,0:0:0:72:LR4_SnareBPDT.wav
256,192,78213,1,0,0:0:0:90:B6H_s.wav
460,192,78427,1,0,0:0:0:90:A6H_s.wav
109,192,78427,1,0,0:0:0:60:A4ss_SVS.wav
358,192,78642,1,0,0:0:0:90:G#6H_Ab6H_s.wav
460,192,78856,1,0,0:0:0:90:A6H_s.wav
153,192,78856,1,0,0:0:0:60:A3ss_SVS.wav
36,192,78856,1,0,0:0:0:99:LR4_KickTBCD.wav
256,192,79070,1,0,0:0:0:90:B6H_s.wav
153,192,79284,1,0,0:0:0:90:C#7H_Db7H_s.wav
358,192,79284,1,0,0:0:0:60:E4ss_SVS.wav
460,192,79499,1,0,0:0:0:90:D7H_s.wav
256,192,79713,1,0,0:0:0:90:E7H_s.wav
36,192,79713,1,0,0:0:0:60:C#5ss_SVS.wav
182,192,79713,1,0,0:0:0:72:LR4_SnareBPDT.wav
460,192,79927,1,0,0:0:0:90:C#7H_Db7H_s.wav
153,192,80142,1,0,0:0:0:90:B6H_s.wav
358,192,80142,1,0,0:0:0:60:E4ss_SVS.wav
256,192,80356,1,0,0:0:0:90:A6H_s.wav
460,192,80570,1,0,0:0:0:90:G#6H_Ab6H.wav
153,192,80570,1,0,0:0:0:38:E3ss_SVS.wav
25,192,80570,1,0,0:0:0:66:LR4_KickTBCD.wav
358,192,80677,1,0,0:0:0:56:LR4_KickTBCD.wav
153,192,80784,1,0,0:0:0:72:LR4_KickTBCD.wav
256,192,80892,1,0,0:0:0:56:LR4_KickTBCD.wav
51,192,80999,1,0,0:0:0:75:B5H_s.wav
358,192,80999,1,0,0:0:0:38:B3ss_SVS.wav
460,192,80999,1,0,0:0:0:66:LR4_KickTBCD.wav
153,192,81106,1,0,0:0:0:56:LR4_KickTBCD.wav
358,192,81213,1,0,0:0:0:72:LR4_KickTBCD.wav
256,192,81320,1,0,0:0:0:56:LR4_KickTBCD.wav
51,192,81427,1,0,0:0:0:40:G#5H_Ab5H.wav
460,192,81427,1,0,0:0:0:38:E4ss_SVS.wav
153,192,81427,1,0,0:0:0:66:LR4_KickTBCD.wav
358,192,81534,1,0,0:0:0:56:LR4_KickTBCD.wav
153,192,81642,1,0,0:0:0:72:LR4_KickTBCD.wav
256,192,81749,1,0,0:0:0:56:LR4_KickTBCD.wav
358,192,81856,1,0,0:0:0:30:E5H.wav
460,192,81856,1,0,0:0:0:38:B3ss_SVS.wav
51,192,81856,1,0,0:0:0:72:LR4_SnareBPDT.wav
256,192,82284,1,0,0:0:0:41:LR4_KickTBCD.wav
288,192,85606,1,0,0:0:0:15:A5H.wav
352,192,85659,1,0,0:0:0:15:C#6H_Db6H.wav
469,192,85713,1,0,0:0:0:75:A6H.wav
51,192,85713,1,0,0:0:0:80:F#4S_Gb4S.wav
384,192,86142,1,0,0:0:0:90:G#6H_Ab6H_s.wav
153,192,86142,1,0,0:0:0:80:C#5S_Db5S.wav
469,192,86356,1,0,0:0:0:75:A6H.wav
256,192,86570,1,0,0:0:0:80:F#5S_Gb5S_s.wav
182,192,86784,128,0,87427:0:0:0:80:A5S.wav
384,192,86999,1,0,0:0:0:90:G#6H_Ab6H_s.wav
469,192,87213,1,0,0:0:0:75:A6H.wav
32,192,87427,1,0,0:0:0:66:D4S.wav
288,192,87642,1,0,0:0:0:90:A5H_s.wav
352,192,87856,1,0,0:0:0:90:E6H_s.wav
153,192,87856,1,0,0:0:0:66:A4S.wav
469,192,88070,1,0,0:0:0:75:A6H.wav
213,192,88284,1,0,0:0:0:66:D5S.wav
352,192,88499,1,0,0:0:0:90:A5H_s.wav
480,192,88713,1,0,0:0:0:90:D6H_s.wav
153,192,88713,1,0,0:0:0:66:A4S.wav
51,192,88927,1,0,0:0:0:50:A5H_s.wav
153,192,88981,1,0,0:0:0:50:E5H_s.wav
256,192,89034,1,0,0:0:0:50:A5H_s.wav
358,192,89088,1,0,0:0:0:90:C#6H_Db6H.wav
460,192,89142,1,0,0:0:0:66:A3S.wav
352,192,89570,1,0,0:0:0:75:D6H.wav
51,192,89570,1,0,0:0:0:66:E4S.wav
486,192,89999,1,0,0:0:0:75:E6H.wav
288,192,89999,1,0,0:0:0:90:A5H_s.wav
128,192,89999,128,0,90856:0:0:0:66:A4S.wav
384,192,90427,1,0,0:0:0:75:C#6H_Db6H.wav
475,192,90856,1,0,0:0:0:66:E4S.wav
51,192,90856,1,0,0:0:0:40:E5H.wav
256,192,90856,128,0,91713:0:0:0:60:B5H.wav
358,192,91284,1,0,0:0:0:66:B4S.wav
153,192,91713,128,0,92570:0:0:0:66:E5S.wav
486,192,92142,1,0,0:0:0:90:A5H_s.wav
384,192,92356,1,0,0:0:0:90:G#5H_Ab5H_s.wav
32,192,92570,1,0,0:0:0:80:F#4S_Gb4S.wav
298,192,92570,1,0,0:0:0:40:C#5H_Db5H.wav
486,192,92570,1,0,0:0:0:70:A5H.wav
153,192,92999,128,0,93642:0:0:0:66:C#5S_Db5S.wav
32,192,93642,128,0,94284:0:0:0:60:E5H_s.wav
153,192,93856,128,0,94284:0:0:0:90:A5H_s.wav
358,192,94070,128,0,94284:0:0:0:90:B5H_s.wav
469,192,94284,1,0,0:0:0:70:C#6H_Db6H.wav
32,192,94499,128,0,95142:0:0:0:66:E5S.wav
182,192,94713,128,0,95142:0:0:0:90:A5H_s.wav
358,192,94927,128,0,95142:0:0:0:90:B5H_s.wav
469,192,95142,1,0,0:0:0:70:C#6H_Db6H.wav
153,192,95356,128,0,95999:0:0:0:66:E5S.wav
358,192,95570,128,0,95999:0:0:0:90:C#6H_Db6H_s.wav
469,192,95784,128,0,95999:0:0:0:90:D6H_s.wav
42,192,95999,1,0,0:0:0:70:E6H.wav
153,192,96213,128,0,96856:0:0:0:66:E5S.wav
329,192,96427,128,0,96856:0:0:0:90:C#6H_Db6H_s.wav
469,192,96642,128,0,96856:0:0:0:90:D6H_s.wav
42,192,96856,1,0,0:0:0:70:E6H.wav
469,192,97070,128,0,97713:0:0:0:66:E5S.wav
358,192,97284,128,0,97713:0:0:0:90:D6H_s.wav
153,192,97499,128,0,97713:0:0:0:90:C#6H_Db6H_s.wav
36,192,97713,1,0,0:0:0:70:B5H.wav
475,192,97927,128,0,98999:0:0:0:66:E5S.wav
358,192,98142,128,0,98999:0:0:0:90:D6H_s.wav
153,192,98356,128,0,98999:0:0:0:90:C#6H_Db6H_s.wav
42,192,98570,128,0,98999:0:0:0:70:B5H.wav
256,192,98999,1,0,0:0:0:70:G#5H_Ab5H_s.wav
402,192,99267,1,0,0:0:0:70:C#6H_Db6H_s.wav
486,192,99427,1,0,0:0:0:75:A6H.wav
153,192,99427,1,0,0:0:0:80:F#4S_Gb4S.wav
384,192,99856,1,0,0:0:0:90:G#6H_Ab6H_s.wav
36,192,99856,1,0,0:0:0:80:C#5S_Db5S.wav
486,192,100070,128,0,100499:0:0:0:75:A6H.wav
153,192,100284,1,0,0:0:0:80:F#5S_Gb5S_s.wav
51,192,100499,1,0,0:0:0:80:A5S.wav
384,192,100713,1,0,0:0:0:90:G#6H_Ab6H_s.wav
486,192,100927,128,0,101356:0:0:0:75:A6H.wav
153,192,101142,1,0,0:0:0:66:D4S.wav
256,192,101356,1,0,0:0:0:90:A5H_s.wav
402,192,101570,1,0,0:0:0:90:E6H_s.wav
96,192,101570,1,0,0:0:0:66:A4S.wav
480,192,101784,128,0,102213:0:0:0:75:A6H.wav
153,192,101999,1,0,0:0:0:66:D5S.wav
288,192,102213,1,0,0:0:0:90:A5H_s.wav
352,192,102427,1,0,0:0:0:90:D6H_s.wav
51,192,102427,1,0,0:0:0:66:A4S.wav
153,192,102642,1,0,0:0:0:50:A5H_s.wav
51,192,102695,1,0,0:0:0:50:E5H_s.wav
256,192,102749,1,0,0:0:0:50:A5H_s.wav
358,192,102802,1,0,0:0:0:90:C#6H_Db6H.wav
460,192,102856,1,0,0:0:0:66:A3S.wav
256,192,103284,1,0,0:0:0:75:D6H.wav
51,192,103284,1,0,0:0:0:66:E4S.wav
358,192,103713,1,0,0:0:0:75:E6H.wav
153,192,103713,128,0,104570:0:0:0:66:A4S.wav
486,192,104142,1,0,0:0:0:75:C#7H_Db7H.wav
384,192,104570,1,0,0:0:0:75:B6H.wav
42,192,104570,1,0,0:0:0:66:E4S.wav
288,192,104999,1,0,0:0:0:90:E6H_s.wav
153,192,104999,1,0,0:0:0:66:B4S.wav
384,192,105267,1,0,0:0:0:90:B6H_s.wav
486,192,105427,1,0,0:0:0:90:C#7H_Db7H_s.wav
36,192,105427,128,0,106284:0:0:0:66:E5S.wav
384,192,105642,1,0,0:0:0:90:B6H_s.wav
298,192,105856,1,0,0:0:0:90:A6H_s.wav
153,192,106070,1,0,0:0:0:90:G#6H_Ab6H_s.wav
475,192,106284,5,0,0:0:0:80:F#4S_Gb4S.wav
256,192,106284,1,0,0:0:0:50:C#6H_Db6H.wav
329,192,106284,1,0,0:0:0:80:A6H.wav
153,192,106713,1,0,0:0:0:80:C#5S_Db5S.wav
256,192,107142,128,0,107570:0:0:0:80:F#5S_Gb5S.wav
36,192,107570,128,0,108213:0:0:0:90:A5H_s.wav
109,192,107784,128,0,108213:0:0:0:90:B5H_s.wav
256,192,107999,128,0,108213:0:0:0:70:C#6H_Db6H.wav
358,192,108213,1,0,0:0:0:66:E5S.wav
36,192,108427,128,0,109070:0:0:0:90:A5H_s.wav
109,192,108642,128,0,109070:0:0:0:90:B5H_s.wav
256,192,108856,128,0,109070:0:0:0:70:C#6H_Db6H.wav
358,192,109070,1,0,0:0:0:66:E5S.wav
109,192,109284,128,0,109927:0:0:0:90:C#6H_Db6H_s.wav
256,192,109499,128,0,109927:0:0:0:90:D6H_s.wav
358,192,109713,128,0,109927:0:0:0:70:E6H.wav
460,192,109927,1,0,0:0:0:66:E5S.wav
128,192,110142,128,0,110784:0:0:0:90:C#6H_Db6H_s.wav
213,192,110356,128,0,110784:0:0:0:90:D6H_s.wav
358,192,110570,128,0,110784:0:0:0:70:E6H.wav
460,192,110784,1,0,0:0:0:66:E5S.wav
475,192,110999,128,0,111642:0:0:0:90:D6H_s.wav
402,192,111213,128,0,111642:0:0:0:90:C#6H_Db6H_s.wav
256,192,111427,128,0,111642:0:0:0:70:B5H.wav
153,192,111642,1,0,0:0:0:60:E5H_s.wav
256,192,111856,1,0,0:0:0:70:G#5H_Ab5H_s.wav
51,192,111856,1,0,0:0:0:66:B4S.wav
402,192,112070,1,0,0:0:0:80:B5H_s.wav
182,192,112284,5,0,0:0:0:66:E5S.wav
475,192,112284,1,0,0:0:0:90:A6H_s.wav
329,192,112499,1,0,0:0:0:90:B6H_s.wav
475,192,112713,1,0,0:0:0:90:A6H_s.wav
256,192,112927,1,0,0:0:0:90:G#6H_Ab6H_s.wav
25,192,113142,5,0,0:0:0:99:LR4_KickTBCD.wav
486,192,113142,1,0,0:0:0:90:A6H_s.wav
358,192,113142,1,0,0:0:0:60:F#3ss_SVS.wav
182,192,113142,1,0,0:0:0:82:LR_CymbalHLWX.wav
256,192,113356,1,0,0:0:0:75:A5H_s.wav
460,192,113570,1,0,0:0:0:75:E6H_s.wav
128,192,113570,1,0,0:0:0:60:C#4ss_SVS.wav
256,192,113784,1,0,0:0:0:75:A5H_s.wav
358,192,113999,1,0,0:0:0:90:A6H_s.wav
182,192,113999,1,0,0:0:0:60:A4ss_SVS.wav
42,192,113999,1,0,0:0:0:72:LR4_SnareBPDT.wav
475,192,114213,1,0,0:0:0:90:A6H_s.wav
402,192,114320,1,0,0:0:0:90:B6H_s.wav
256,192,114427,1,0,0:0:0:90:A6H_s.wav
51,192,114427,1,0,0:0:0:60:C#4ss_SVS.wav
402,192,114642,1,0,0:0:0:90:G#6H_Ab6H_s.wav
480,192,114856,1,0,0:0:0:90:A6H_s.wav
182,192,114856,1,0,0:0:0:60:D4ss_SVS.wav
256,192,114856,1,0,0:0:0:99:LR4_KickTBCD.wav
51,192,115070,1,0,0:0:0:75:A5H_s.wav
402,192,115284,1,0,0:0:0:75:E6H_s.wav
128,192,115284,1,0,0:0:0:60:A4ss_SVS.wav
51,192,115499,1,0,0:0:0:75:A5H_s.wav
213,192,115713,1,0,0:0:0:90:A6H_s.wav
475,192,115713,1,0,0:0:0:60:D5ss_SVS.wav
153,192,115713,1,0,0:0:0:72:LR4_SnareBPDT.wav
358,192,115927,1,0,0:0:0:90:A6H_s.wav
256,192,116034,1,0,0:0:0:90:B6H_s.wav
128,192,116142,1,0,0:0:0:90:A6H_s.wav
469,192,116142,1,0,0:0:0:60:A4ss_SVS.wav
358,192,116356,1,0,0:0:0:90:G#6H_Ab6H_s.wav
475,192,116570,1,0,0:0:0:90:A6H_s.wav
153,192,116570,1,0,0:0:0:60:A3ss_SVS.wav
51,192,116570,1,0,0:0:0:99:LR4_KickTBCD.wav
256,192,116784,1,0,0:0:0:90:B6H_s.wav
358,192,116999,1,0,0:0:0:90:C#7H_Db7H_s.wav
51,192,116999,1,0,0:0:0:60:E4ss_SVS.wav
153,192,117213,1,0,0:0:0:90:D7H_s.wav
256,192,117427,1,0,0:0:0:90:E7H_s.wav
42,192,117427,1,0,0:0:0:60:C#5ss_SVS.wav
460,192,117427,1,0,0:0:0:72:LR4_SnareBPDT.wav
358,192,117642,1,0,0:0:0:90:C#7H_Db7H_s.wav
460,192,117856,1,0,0:0:0:75:B6H_s.wav
42,192,117856,1,0,0:0:0:60:E4ss_SVS.wav
358,192,117963,1,0,0:0:0:75:C#7H_Db7H_s.wav
213,192,118070,1,0,0:0:0:75:B6H_s.wav
128,192,118177,1,0,0:0:0:75:A6H_s.wav
42,192,118284,1,0,0:0:0:70:G#6H_Ab6H.wav
480,192,118284,1,0,0:0:0:60:E3ss_SVS.wav
384,192,118284,1,0,0:0:0:99:LR4_KickTBCD.wav
298,192,118499,1,0,0:0:0:75:B5H_s.wav
109,192,118713,1,0,0:0:0:75:E6H_s.wav
358,192,118713,1,0,0:0:0:60:B3ss_SVS.wav
298,192,118927,1,0,0:0:0:75:B5H_s.wav
153,192,119142,1,0,0:0:0:90:A6H_s.wav
475,192,119142,1,0,0:0:0:60:E4ss_SVS.wav
32,192,119142,1,0,0:0:0:72:LR4_SnareBPDT.wav
298,192,119356,1,0,0:0:0:90:A6H_s.wav
384,192,119463,1,0,0:0:0:90:B6H_s.wav
460,192,119570,1,0,0:0:0:90:A6H_s.wav
128,192,119570,1,0,0:0:0:60:B3ss_SVS.wav
213,192,119784,1,0,0:0:0:90:G#6H_Ab6H_s.wav
384,192,119999,1,0,0:0:0:90:A6H_s.wav
475,192,119999,1,0,0:0:0:60:F#3ss_SVS.wav
42,192,119999,1,0,0:0:0:99:LR4_KickTBCD.wav
298,192,120213,1,0,0:0:0:75:A5H_s.wav
128,192,120427,1,0,0:0:0:75:E6H_s.wav
469,192,120427,1,0,0:0:0:60:C#4ss_SVS.wav
256,192,120642,1,0,0:0:0:75:A5H_s.wav
460,192,120856,1,0,0:0:0:90:A6H_s.wav
384,192,120856,1,0,0:0:0:60:A4ss_SVS.wav
42,192,120856,1,0,0:0:0:72:LR4_SnareBPDT.wav
256,192,121070,1,0,0:0:0:90:A6H_s.wav
153,192,121177,1,0,0:0:0:90:B6H_s.wav
51,192,121284,1,0,0:0:0:90:A6H_s.wav
358,192,121284,1,0,0:0:0:60:C#4ss_SVS.wav
256,192,121499,1,0,0:0:0:90:G#6H_Ab6H_s.wav
469,192,121713,1,0,0:0:0:90:A6H_s.wav
182,192,121713,1,0,0:0:0:60:D4ss_SVS.wav
51,192,121713,1,0,0:0:0:99:LR4_KickTBCD.wav
298,192,121927,1,0,0:0:0:75:A5H_s.wav
358,192,122142,1,0,0:0:0:75:E6H_s.wav
42,192,122142,1,0,0:0:0:60:A4ss_SVS.wav
298,192,122356,1,0,0:0:0:75:A5H_s.wav
352,192,122570,1,0,0:0:0:90:A6H_s.wav
475,192,122570,1,0,0:0:0:60:D5ss_SVS.wav
153,192,122570,1,0,0:0:0:72:LR4_SnareBPDT.wav
298,192,122784,1,0,0:0:0:90:A6H_s.wav
384,192,122892,1,0,0:0:0:90:B6H_s.wav
469,192,122999,1,0,0:0:0:90:A6H_s.wav
51,192,122999,1,0,0:0:0:60:A4ss_SVS.wav
256,192,123213,1,0,0:0:0:90:G#6H_Ab6H_s.wav
480,192,123427,1,0,0:0:0:90:A6H_s.wav
358,192,123427,1,0,0:0:0:60:A3ss_SVS.wav
51,192,123427,1,0,0:0:0:99:LR4_KickTBCD.wav
153,192,123642,1,0,0:0:0:90:B6H_s.wav
42,192,123856,1,0,0:0:0:90:C#7H_Db7H_s.wav
256,192,123856,1,0,0:0:0:60:E4ss_SVS.wav
358,192,124070,1,0,0:0:0:90:D7H_s.wav
480,192,124284,1,0,0:0:0:90:E7H_s.wav
51,192,124284,1,0,0:0:0:60:C#5ss_SVS.wav
153,192,124284,1,0,0:0:0:72:LR4_SnareBPDT.wav
384,192,124499,1,0,0:0:0:90:C#7H_Db7H_s.wav
460,192,124713,1,0,0:0:0:75:B6H_s.wav
153,192,124713,1,0,0:0:0:60:E4ss_SVS.wav
358,192,124820,1,0,0:0:0:75:C#7H_Db7H_s.wav
256,192,124927,1,0,0:0:0:75:B6H_s.wav
153,192,125034,1,0,0:0:0:75:A6H_s.wav
358,192,125142,1,0,0:0:0:70:G#6H_Ab6H.wav
480,192,125142,1,0,0:0:0:38:E3ss_SVS.wav
32,192,125142,1,0,0:0:0:66:LR4_KickTBCD.wav
153,192,125356,1,0,0:0:0:75:B5H_s.wav
480,192,125570,1,0,0:0:0:75:E6H_s.wav
358,192,125570,1,0,0:0:0:38:B3ss_SVS.wav
51,192,125570,1,0,0:0:0:66:LR4_KickTBCD.wav
153,192,125784,1,0,0:0:0:75:B5H_s.wav
480,192,125999,1,0,0:0:0:90:A6H_s.wav
358,192,125999,1,0,0:0:0:38:E4ss_SVS.wav
25,192,125999,1,0,0:0:0:66:LR4_KickTBCD.wav
153,192,126213,1,0,0:0:0:90:A6H_s.wav
256,192,126320,1,0,0:0:0:90:B6H_s.wav
475,192,126427,1,0,0:0:0:36:LR4_SnareBPDT.wav
36,192,126427,1,0,0:0:0:36:LR4_SnareBPDT.wav
109,192,126427,1,0,0:0:0:90:A6H_s.wav
358,192,126427,1,0,0:0:0:38:B3ss_SVS.wav
256,192,126642,1,0,0:0:0:90:G#6H_Ab6H_s.wav
416,192,126856,1,0,0:0:0:90:A6H_s.wav
153,192,126856,1,0,0:0:0:60:F#3ss_SVS.wav
358,192,126856,1,0,0:0:0:83:LR_CymbalG.wav
51,192,126856,1,0,0:0:0:99:LR4_KickTBCD.wav
256,192,127070,1,0,0:0:0:75:A5H_s.wav
51,192,127284,1,0,0:0:0:75:E6H_s.wav
469,192,127284,1,0,0:0:0:60:C#4ss_SVS.wav
298,192,127499,1,0,0:0:0:75:A5H_s.wav
384,192,127713,1,0,0:0:0:90:A6H_s.wav
460,192,127713,1,0,0:0:0:60:A4ss_SVS.wav
153,192,127713,1,0,0:0:0:72:LR4_SnareBPDT.wav
256,192,127927,1,0,0:0:0:90:B6H_s.wav
460,192,128142,1,0,0:0:0:90:A6H_s.wav
51,192,128142,1,0,0:0:0:60:C#4ss_SVS.wav
358,192,128356,1,0,0:0:0:90:G#6H_Ab6H_s.wav
182,192,128570,1,0,0:0:0:90:A6H_s.wav
460,192,128570,1,0,0:0:0:60:D4ss_SVS.wav
25,192,128570,1,0,0:0:0:99:LR4_KickTBCD.wav
298,192,128784,1,0,0:0:0:75:A5H_s.wav
469,192,128999,1,0,0:0:0:75:E6H_s.wav
109,192,128999,1,0,0:0:0:60:A4ss_SVS.wav
298,192,129213,1,0,0:0:0:75:A5H_s.wav
42,192,129427,1,0,0:0:0:90:A6H_s.wav
402,192,129427,1,0,0:0:0:60:D5ss_SVS.wav
128,192,129427,1,0,0:0:0:72:LR4_SnareBPDT.wav
475,192,129642,1,0,0:0:0:90:A6H_s.wav
329,192,129749,1,0,0:0:0:90:B6H_s.wav
153,192,129856,1,0,0:0:0:90:A6H_s.wav
213,192,129856,1,0,0:0:0:60:A4ss_SVS.wav
384,192,130070,1,0,0:0:0:90:G#6H_Ab6H_s.wav
36,192,130284,1,0,0:0:0:90:A6H_s.wav
480,192,130284,1,0,0:0:0:60:A3ss_SVS.wav
153,192,130284,1,0,0:0:0:99:LR4_KickTBCD.wav
256,192,130499,1,0,0:0:0:90:B6H_s.wav
153,192,130713,1,0,0:0:0:90:C#7H_Db7H_s.wav
384,192,130713,1,0,0:0:0:60:E4ss_SVS.wav
460,192,130927,1,0,0:0:0:90:D7H_s.wav
51,192,131142,1,0,0:0:0:90:E7H_s.wav
384,192,131142,1,0,0:0:0:60:C#5ss_SVS.wav
128,192,131142,1,0,0:0:0:72:LR4_SnareBPDT.wav
298,192,131356,1,0,0:0:0:90:C#7H_Db7H_s.wav
469,192,131570,1,0,0:0:0:90:B6H_s.wav
153,192,131570,1,0,0:0:0:60:E4ss_SVS.wav
51,192,131784,1,0,0:0:0:90:A6H_s.wav
384,192,131999,1,0,0:0:0:90:G#6H_Ab6H.wav
298,192,131999,1,0,0:0:0:60:E3ss_SVS.wav
153,192,131999,1,0,0:0:0:99:LR4_KickTBCD.wav
51,192,132427,1,0,0:0:0:75:B5H_s.wav
475,192,132427,1,0,0:0:0:60:B3ss_SVS.wav
329,192,132856,1,0,0:0:0:90:A6H_s.wav
182,192,132856,1,0,0:0:0:60:E4ss_SVS.wav
256,192,132856,1,0,0:0:0:72:LR4_SnareBPDT.wav
475,192,133070,1,0,0:0:0:90:A6H_s.wav
402,192,133177,1,0,0:0:0:90:B6H_s.wav
256,192,133284,1,0,0:0:0:90:A6H_s.wav
51,192,133284,1,0,0:0:0:60:B3ss_SVS.wav
402,192,133499,1,0,0:0:0:90:G#6H_Ab6H_s.wav
486,192,133713,1,0,0:0:0:90:A6H_s.wav
230,192,133713,1,0,0:0:0:60:F#3ss_SVS.wav
36,192,133713,1,0,0:0:0:99:LR4_KickTBCD.wav
358,192,133927,1,0,0:0:0:75:A5H_s.wav
256,192,134142,1,0,0:0:0:75:E6H_s.wav
153,192,134142,1,0,0:0:0:60:C#4ss_SVS.wav
329,192,134356,1,0,0:0:0:75:A5H_s.wav
475,192,134570,1,0,0:0:0:90:A6H_s.wav
42,192,134570,1,0,0:0:0:60:A4ss_SVS.wav
224,192,134570,1,0,0:0:0:72:LR4_SnareBPDT.wav
153,192,134784,1,0,0:0:0:90:A6H_s.wav
256,192,134892,1,0,0:0:0:90:B6H_s.wav
51,192,134999,1,0,0:0:0:90:A6H_s.wav
329,192,134999,1,0,0:0:0:60:C#4ss_SVS.wav
153,192,135213,1,0,0:0:0:90:G#6H_Ab6H_s.wav
256,192,135427,1,0,0:0:0:90:A6H_s.wav
402,192,135427,1,0,0:0:0:60:D4ss_SVS.wav
25,192,135427,1,0,0:0:0:99:LR4_KickTBCD.wav
460,192,135642,1,0,0:0:0:75:A5H_s.wav
358,192,135856,1,0,0:0:0:75:E6H_s.wav
153,192,135856,1,0,0:0:0:60:A4ss_SVS.wav
460,192,136070,1,0,0:0:0:75:A5H_s.wav
256,192,136284,1,0,0:0:0:90:A6H_s.wav
384,192,136284,1,0,0:0:0:60:D5ss_SVS.wav
51,192,136284,1,0,0:0:0:72:LR4_SnareBPDT.wav
153,192,136499,1,0,0:0:0:90:A6H_s.wav
256,192,136606,1,0,0:0:0:90:B6H_s.wav
358,192,136713,1,0,0:0:0:90:A6H_s.wav
51,192,136713,1,0,0:0:0:60:A4ss_SVS.wav
256,192,136927,1,0,0:0:0:90:G#6H_Ab6H_s.wav
460,192,137142,1,0,0:0:0:90:A6H_s.wav
128,192,137142,1,0,0:0:0:60:A3ss_SVS.wav
36,192,137142,1,0,0:0:0:99:LR4_KickTBCD.wav
213,192,137356,1,0,0:0:0:90:B6H_s.wav
358,192,137570,1,0,0:0:0:90:C#7H_Db7H_s.wav
153,192,137570,1,0,0:0:0:60:E4ss_SVS.wav
460,192,137784,1,0,0:0:0:90:D7H_s.wav
256,192,137999,1,0,0:0:0:90:E7H_s.wav
153,192,137999,1,0,0:0:0:60:C#5ss_SVS.wav
51,192,137999,1,0,0:0:0:72:LR4_SnareBPDT.wav
460,192,138213,1,0,0:0:0:90:C#7H_Db7H_s.wav
358,192,138427,1,0,0:0:0:90:B6H_s.wav
256,192,138427,1,0,0:0:0:60:E4ss_SVS.wav
153,192,138642,1,0,0:0:0:90:A6H_s.wav
460,192,138856,1,0,0:0:0:90:G#6H_Ab6H.wav
51,192,138856,1,0,0:0:0:38:E3ss_SVS.wav
358,192,138856,1,0,0:0:0:66:LR4_KickTBCD.wav
153,192,138963,1,0,0:0:0:56:LR4_KickTBCD.wav
358,192,139070,1,0,0:0:0:72:LR4_KickTBCD.wav
256,192,139177,1,0,0:0:0:56:LR4_KickTBCD.wav
51,192,139284,1,0,0:0:0:75:B5H_s.wav
153,192,139284,1,0,0:0:0:38:B3ss_SVS.wav
460,192,139284,1,0,0:0:0:66:LR4_KickTBCD.wav
358,192,139392,1,0,0:0:0:56:LR4_KickTBCD.wav
153,192,139499,1,0,0:0:0:72:LR4_KickTBCD.wav
256,192,139606,1,0,0:0:0:56:LR4_KickTBCD.wav
51,192,139713,1,0,0:0:0:40:G#5H_Ab5H.wav
358,192,139713,1,0,0:0:0:38:E4ss_SVS.wav
460,192,139713,1,0,0:0:0:66:LR4_KickTBCD.wav
153,192,139820,1,0,0:0:0:56:LR4_KickTBCD.wav
358,192,139927,1,0,0:0:0:72:LR4_KickTBCD.wav
256,192,140034,1,0,0:0:0:56:LR4_KickTBCD.wav
109,192,140142,1,0,0:0:0:30:E5H.wav
460,192,140142,1,0,0:0:0:38:B3ss_SVS.wav
51,192,140142,1,0,0:0:0:72:LR4_SnareBPDT.wav
298,192,140463,1,0,0:0:0:15:A5H.wav
358,192,140517,1,0,0:0:0:15:C#6H_Db6H.wav
109,192,140570,1,0,0:0:0:30:C#6H_Db6H.wav
480,192,140570,1,0,0:0:0:75:A6H.wav
36,192,140570,1,0,0:0:0:66:F#4S_Gb4S.wav
358,192,140999,1,0,0:0:0:75:G#6H_Ab6H.wav
480,192,141427,1,0,0:0:0:75:A6H.wav
358,192,141856,1,0,0:0:0:75:G#6H_Ab6H.wav
486,192,142284,1,0,0:0:0:75:A6H.wav
51,192,142284,1,0,0:0:0:80:F#5S_Gb5S.wav
329,192,142713,1,0,0:0:0:75:E6H.wav
153,192,142713,1,0,0:0:0:80:C#5S_Db5S.wav
486,192,143142,1,0,0:0:0:75:A6H.wav
256,192,143142,1,0,0:0:0:80:A4S.wav
402,192,143570,1,0,0:0:0:90:D6H.wav
109,192,143570,1,0,0:0:0:80:E4S.wav
460,192,143999,1,0,0:0:0:75:C#6H_Db6H.wav
36,192,143999,1,0,0:0:0:80:A3S.wav
402,192,144427,1,0,0:0:0:90:D6H.wav
109,192,144427,1,0,0:0:0:66:E4S.wav
475,192,144856,1,0,0:0:0:75:E6H.wav
256,192,144856,128,0,145713:0:0:0:66:A4S.wav
352,192,145284,1,0,0:0:0:75:C#6H_Db6H.wav
469,192,145713,1,0,0:0:0:60:B5H.wav
32,192,145713,128,0,146999:0:0:0:80:E4S.wav
153,192,145713,1,0,0:0:0:40:G#5H_Ab5H.wav
298,192,146570,1,0,0:0:0:60:A5H.wav
384,192,146999,1,0,0:0:0:60:G#5H_Ab5H.wav
298,192,147320,1,0,0:0:0:25:C#5H_Db5H.wav
384,192,147374,1,0,0:0:0:35:F#5H_Gb5H.wav
486,192,147427,128,0,148284:0:0:0:60:A5H.wav
153,192,147427,1,0,0:0:0:66:F#3S_Gb3S.wav
51,192,147856,1,0,0:0:0:66:C#4S_Db4S.wav
153,192,148284,128,0,149142:0:0:0:66:A4S.wav
298,192,148713,1,0,0:0:0:75:A5H.wav
352,192,148927,1,0,0:0:0:75:B5H.wav
469,192,149142,128,0,149999:0:0:0:90:C#6H_Db6H.wav
42,192,149142,1,0,0:0:0:80:D4S.wav
160,192,149570,1,0,0:0:0:80:A4S.wav
358,192,149999,1,0,0:0:0:80:D5S.wav
298,192,150427,1,0,0:0:0:75:C#6H_Db6H_s.wav
384,192,150642,1,0,0:0:0:75:D6H_s.wav
486,192,150856,128,0,151713:0:0:0:90:E6H.wav
32,192,150856,1,0,0:0:0:80:A3S.wav
153,192,151284,1,0,0:0:0:80:E4S.wav
256,192,151713,128,0,152142:0:0:0:80:C#5S_Db5S.wav
469,192,152142,1,0,0:0:0:75:D6H_s.wav
352,192,152356,1,0,0:0:0:75:C#6H_Db6H_s.wav
256,192,152570,128,0,153856:0:0:0:90:B5H.wav
51,192,152570,1,0,0:0:0:80:E4S.wav
153,192,152999,1,0,0:0:0:80:B4S.wav
358,192,153427,128,0,153856:0:0:0:80:G#5S_Ab5S.wav
256,192,154177,1,0,0:0:0:15:A5H.wav
402,192,154231,1,0,0:0:0:15:C#6H_Db6H.wav
475,192,154284,1,0,0:0:0:75:A6H.wav
36,192,154284,1,0,0:0:0:80:F#4S_Gb4S.wav
402,192,154713,1,0,0:0:0:75:G#6H_Ab6H.wav
109,192,154713,1,0,0:0:0:80:C#5S_Db5S.wav
475,192,155142,1,0,0:0:0:75:A6H.wav
256,192,155142,1,0,0:0:0:80:F#5S_Gb5S.wav
402,192,155570,1,0,0:0:0:75:G#6H_Ab6H.wav
256,192,155838,1,0,0:0:0:40:D6H_s.wav
402,192,155945,1,0,0:0:0:40:F#6H_Gb6H_s.wav
32,192,155999,1,0,0:0:0:66:D4S.wav
475,192,156106,1,0,0:0:0:75:A6H.wav
358,192,156427,1,0,0:0:0:75:E6H.wav
153,192,156427,1,0,0:0:0:66:A4S.wav
416,192,156856,1,0,0:0:0:75:A6H.wav
213,192,156856,1,0,0:0:0:66:D5S.wav
358,192,157284,1,0,0:0:0:75:D6H.wav
51,192,157284,1,0,0:0:0:66:A3S.wav
256,192,157713,1,0,0:0:0:25:E5H.wav
469,192,157713,1,0,0:0:0:45:C#6H_Db6H.wav
36,192,157713,1,0,0:0:0:66:A3S.wav
358,192,158142,1,0,0:0:0:75:D6H.wav
109,192,158142,1,0,0:0:0:66:E4S.wav
416,192,158570,1,0,0:0:0:75:E6H.wav
256,192,158570,128,0,159427:0:0:0:66:A4S.wav
486,192,158999,1,0,0:0:0:75:C#7H_Db7H.wav
358,192,159427,128,0,160713:0:0:0:75:B6H.wav
42,192,159427,1,0,0:0:0:80:E4S.wav
128,192,159856,1,0,0:0:0:80:B4S.wav
256,192,160284,128,0,160713:0:0:0:80:G#5S_Ab5S.wav
460,192,160713,1,0,0:0:0:75:A5H_s.wav
358,192,160927,1,0,0:0:0:75:G#5H_Ab5H_s.wav
42,192,161142,128,0,162427:0:0:0:80:F#4S_Gb4S.wav
460,192,161142,128,0,162427:0:0:0:75:A5H.wav
128,192,161570,128,0,162427:0:0:0:66:C#5S_Db5S.wav
224,192,162427,1,0,0:0:0:75:A5H.wav
329,192,162642,1,0,0:0:0:75:B5H.wav
460,192,162856,128,0,163713:0:0:0:90:C#6H_Db6H.wav
153,192,162856,1,0,0:0:0:66:D4S.wav
96,192,163284,1,0,0:0:0:66:A4S.wav
153,192,163713,128,0,164570:0:0:0:66:D5S.wav
298,192,164142,1,0,0:0:0:75:C#6H_Db6H_s.wav
384,192,164356,1,0,0:0:0:75:D6H_s.wav
42,192,164570,1,0,0:0:0:66:A3S.wav
469,192,164570,128,0,165427:0:0:0:90:E6H.wav
128,192,164999,1,0,0:0:0:66:E4S.wav
256,192,165427,128,0,166284:0:0:0:66:A4S.wav
358,192,165856,1,0,0:0:0:75:D6H_s.wav
153,192,166070,1,0,0:0:0:75:C#6H_Db6H_s.wav
460,192,166284,1,0,0:0:0:90:B5H.wav
32,192,166284,1,0,0:0:0:66:E4S.wav
153,192,166713,1,0,0:0:0:66:B4S.wav
213,192,167142,1,0,0:0:0:66:E5S.wav
