osu file format v14

[General]
AudioFilename: audio.mp3
AudioLeadIn: 0
PreviewTime: 0
Countdown: 1
SampleSet: Normal
StackLeniency: 0.7
Mode: 0
LetterboxInBreaks: 0
WidescreenStoryboard: 0

[Editor]
DistanceSpacing: 0.8
BeatDivisor: 1
GridSize: 32
TimelineZoom: 1

[Metadata]
Title:River Flows In You (Nighcore)
TitleUnicode:River Flows In You (Nighcore)
Artist:Yiruma
ArtistUnicode:Yiruma
Creator:DrLogoInside
Version:Insane
Source:River Flows In You
Tags:River Flows In You
BeatmapID:1388231
BeatmapSetID:655019

[Difficulty]
HPDrainRate:10
CircleSize:7
OverallDifficulty:10
ApproachRate:10
SliderMultiplier:1.4
SliderTickRate:1

[Events]
//Background and Video events
//Break Periods
2,78885,79989
2,109069,109822
2,114333,115087
2,118896,119650
2,121001,122458
2,125214,125967
2,131180,131934
2,132584,135444
2,137849,138603
2,140305,142463
//Storyboard Layer 0 (Background)
//Storyboard Layer 1 (Fail)
//Storyboard Layer 2 (Pass)
//Storyboard Layer 3 (Foreground)
//Storyboard Sound Samples

[TimingPoints]
66.1228070175438,350.977192982456,4,1,0,100,1,0

[HitObjects]
213,207,66,5,0,0:0:0:0:
128,128,768,1,0,0:0:0:0:
192,128,1821,1,0,0:0:0:0:
192,192,2171,1,0,0:0:0:0:
160,192,2522,1,0,0:0:0:0:
160,160,2873,1,0,0:0:0:0:
192,160,3575,1,0,0:0:0:0:
256,64,6032,1,0,0:0:0:0:
288,64,7085,1,0,0:0:0:0:
288,96,7436,1,0,0:0:0:0:
256,128,8138,1,0,0:0:0:0:
256,128,8489,1,0,0:0:0:0:
256,160,9191,1,0,0:0:0:0:
288,160,9542,1,0,0:0:0:0:
288,96,13052,1,0,0:0:0:0:
256,96,13403,1,0,0:0:0:0:
256,128,13754,1,0,0:0:0:0:
224,128,14105,1,0,0:0:0:0:
224,96,14456,1,0,0:0:0:0:
256,96,14807,1,0,0:0:0:0:
320,128,15158,1,0,0:0:0:0:
320,160,15509,1,0,0:0:0:0:
288,192,16562,1,0,0:0:0:0:
256,192,16913,1,0,0:0:0:0:
192,192,17264,1,0,0:0:0:0:
224,256,19018,1,0,0:0:0:0:
192,256,19369,1,0,0:0:0:0:
192,224,20071,1,0,0:0:0:0:
224,224,21124,1,0,0:0:0:0:
224,192,21475,1,0,0:0:0:0:
224,192,21826,1,0,0:0:0:0:
224,160,22528,1,0,0:0:0:0:
288,160,22879,1,0,0:0:0:0:
320,160,23230,1,0,0:0:0:0:
320,192,23581,1,0,0:0:0:0:
320,224,25336,1,0,0:0:0:0:
288,224,26038,1,0,0:0:0:0:
192,224,26389,1,0,0:0:0:0:
192,192,26740,1,0,0:0:0:0:
224,160,27091,1,0,0:0:0:0:
224,160,27442,1,0,0:0:0:0:
256,192,27793,1,0,0:0:0:0:
224,192,28144,1,0,0:0:0:0:
192,224,28495,1,0,0:0:0:0:
192,224,28846,1,0,0:0:0:0:
160,224,29197,1,0,0:0:0:0:
160,192,29548,1,0,0:0:0:0:
256,128,30250,1,0,0:0:0:0:
416,128,30601,1,0,0:0:0:0:
480,256,30952,1,0,0:0:0:0:
256,288,31303,1,0,0:0:0:0:
64,224,31654,1,0,0:0:0:0:
64,224,32005,1,0,0:0:0:0:
64,128,32356,1,0,0:0:0:0:
128,128,32707,1,0,0:0:0:0:
128,224,33408,1,0,0:0:0:0:
320,192,34110,1,0,0:0:0:0:
320,192,34461,1,0,0:0:0:0:
288,192,35163,1,0,0:0:0:0:
96,192,35514,1,0,0:0:0:0:
128,96,35865,1,0,0:0:0:0:
256,96,37269,1,0,0:0:0:0:
256,128,37620,1,0,0:0:0:0:
160,224,37971,1,0,0:0:0:0:
288,96,38673,1,0,0:0:0:0:
416,256,39024,1,0,0:0:0:0:
192,256,39375,1,0,0:0:0:0:
96,128,39726,1,0,0:0:0:0:
320,128,40077,1,0,0:0:0:0:
352,192,40428,1,0,0:0:0:0:
160,352,40779,1,0,0:0:0:0:
32,224,41130,1,0,0:0:0:0:
96,96,41481,1,0,0:0:0:0:
352,96,41832,1,0,0:0:0:0:
416,192,42183,1,0,0:0:0:0:
160,288,42534,1,0,0:0:0:0:
32,128,42885,1,0,0:0:0:0:
288,32,43236,1,0,0:0:0:0:
448,160,43587,1,0,0:0:0:0:
384,256,43938,1,0,0:0:0:0:
192,256,44289,1,0,0:0:0:0:
160,160,44640,1,0,0:0:0:0:
192,128,44991,1,0,0:0:0:0:
224,224,45693,1,0,0:0:0:0:
288,128,46044,1,0,0:0:0:0:
288,192,46395,1,0,0:0:0:0:
320,160,46746,1,0,0:0:0:0:
320,160,47097,1,0,0:0:0:0:
352,224,47448,1,0,0:0:0:0:
416,224,47799,1,0,0:0:0:0:
416,160,48149,1,0,0:0:0:0:
480,224,48500,1,0,0:0:0:0:
288,64,48851,1,0,0:0:0:0:
96,160,49202,1,0,0:0:0:0:
288,192,49553,1,0,0:0:0:0:
192,288,49904,1,0,0:0:0:0:
64,256,50255,1,0,0:0:0:0:
288,160,50606,1,0,0:0:0:0:
352,224,50957,1,0,0:0:0:0:
32,224,51308,1,0,0:0:0:0:
160,96,51659,1,0,0:0:0:0:
256,96,52010,1,0,0:0:0:0:
384,128,52361,1,0,0:0:0:0:
224,224,52712,1,0,0:0:0:0:
96,224,53063,1,0,0:0:0:0:
64,160,53414,1,0,0:0:0:0:
160,128,55169,1,0,0:0:0:0:
416,224,55520,1,0,0:0:0:0:
142,129,57275,1,0,0:0:0:0:
298,149,57977,1,0,0:0:0:0:
255,196,58328,1,0,0:0:0:0:
169,171,58679,1,0,0:0:0:0:
174,109,59030,1,0,0:0:0:0:
234,106,59381,1,0,0:0:0:0:
253,311,63592,1,0,0:0:0:0:
254,271,64645,1,0,0:0:0:0:
276,295,64996,1,0,0:0:0:0:
276,295,65347,1,0,0:0:0:0:
283,272,65698,1,0,0:0:0:0:
298,298,66049,1,0,0:0:0:0:
312,275,66751,1,0,0:0:0:0:
323,302,67102,1,0,0:0:0:0:
346,276,67804,1,0,0:0:0:0:
363,296,68155,1,0,0:0:0:0:
384,277,68857,1,0,0:0:0:0:
363,258,69208,1,0,0:0:0:0:
387,242,69910,1,0,0:0:0:0:
362,226,70612,1,0,0:0:0:0:
386,200,71314,1,0,0:0:0:0:
345,166,72016,1,0,0:0:0:0:
376,140,72718,1,0,0:0:0:0:
321,106,73420,1,0,0:0:0:0:
365,65,74122,1,0,0:0:0:0:
284,40,74824,1,0,0:0:0:0:
245,71,75526,1,0,0:0:0:0:
288,105,76228,1,0,0:0:0:0:
238,119,76579,1,0,0:0:0:0:
293,167,76930,1,0,0:0:0:0:
295,211,77281,1,0,0:0:0:0:
297,264,77983,1,0,0:0:0:0:
243,258,78334,1,0,0:0:0:0:
277,288,78685,1,0,0:0:0:0:
77,124,80439,5,0,0:0:0:0:
85,177,81492,2,0,P|280:257|306:249,7,140
366,151,84651,2,0,B|170:171|97:195|128:213,4,140
165,186,87108,1,0,0:0:0:0:
345,270,87459,1,0,0:0:0:0:
385,203,87810,1,0,0:0:0:0:
300,145,88512,1,0,0:0:0:0:
192,215,88863,1,0,0:0:0:0:
228,269,89214,1,0,0:0:0:0:
356,274,89565,1,0,0:0:0:0:
346,210,89916,1,0,0:0:0:0:
305,123,90267,1,0,0:0:0:0:
471,92,90969,1,0,0:0:0:0:
19,88,92022,1,0,0:0:0:0:
135,209,92373,1,0,0:0:0:0:
300,196,92724,1,0,0:0:0:0:
506,41,93426,1,0,0:0:0:0:
339,37,93777,1,0,0:0:0:0:
214,64,94128,1,0,0:0:0:0:
123,118,94478,1,0,0:0:0:0:
106,312,94829,1,0,0:0:0:0:
354,324,95180,1,0,0:0:0:0:
401,178,95531,1,0,0:0:0:0:
182,145,96584,1,0,0:0:0:0:
177,237,96935,1,0,0:0:0:0:
450,300,97286,1,0,0:0:0:0:
358,68,97637,1,0,0:0:0:0:
91,58,97988,1,0,0:0:0:0:
139,217,98339,1,0,0:0:0:0:
397,280,98690,1,0,0:0:0:0:
387,73,99041,1,0,0:0:0:0:
166,77,99392,1,0,0:0:0:0:
125,151,99743,1,0,0:0:0:0:
168,270,100094,1,0,0:0:0:0:
278,232,100796,1,0,0:0:0:0:
367,221,101147,1,0,0:0:0:0:
368,189,101498,1,0,0:0:0:0:
366,164,101849,1,0,0:0:0:0:
327,146,102200,1,0,0:0:0:0:
261,153,102551,1,0,0:0:0:0:
245,197,102902,1,0,0:0:0:0:
300,240,103253,1,0,0:0:0:0:
341,230,103604,1,0,0:0:0:0:
374,179,103955,1,0,0:0:0:0:
327,139,104306,1,0,0:0:0:0:
238,206,104657,1,0,0:0:0:0:
257,249,105008,1,0,0:0:0:0:
339,248,105359,1,0,0:0:0:0:
375,223,105710,1,0,0:0:0:0:
369,198,106061,1,0,0:0:0:0:
335,179,106412,1,0,0:0:0:0:
283,222,106763,1,0,0:0:0:0:
97,331,107816,1,0,0:0:0:0:
173,175,108167,1,0,0:0:0:0:
305,182,108869,1,0,0:0:0:0:
419,248,110272,5,0,0:0:0:0:
183,275,110974,1,0,0:0:0:0:
206,186,111325,1,0,0:0:0:0:
303,217,111676,1,0,0:0:0:0:
301,167,112729,1,0,0:0:0:0:
292,238,113080,1,0,0:0:0:0:
271,280,113782,1,0,0:0:0:0:
218,276,114133,1,0,0:0:0:0:
199,226,115537,5,0,0:0:0:0:
230,217,116239,1,0,0:0:0:0:
213,189,116941,1,0,0:0:0:0:
216,145,117994,1,0,0:0:0:0:
254,136,118696,1,0,0:0:0:0:
48,178,120100,6,0,L|314:198,2,140
19,182,122908,5,0,0:0:0:0:
142,190,123610,1,0,0:0:0:0:
231,223,123961,1,0,0:0:0:0:
270,181,124312,1,0,0:0:0:0:
230,132,124663,1,0,0:0:0:0:
123,148,125014,1,0,0:0:0:0:
25,53,126417,5,0,0:0:0:0:
386,116,126768,1,0,0:0:0:0:
330,230,127119,1,0,0:0:0:0:
81,260,127821,1,0,0:0:0:0:
46,100,128172,1,0,0:0:0:0:
206,98,128874,1,0,0:0:0:0:
225,166,129927,1,0,0:0:0:0:
196,190,130980,1,0,0:0:0:0:
226,214,132384,5,0,0:0:0:0:
194,237,135894,5,0,0:0:0:0:
228,265,136947,1,0,0:0:0:0:
204,288,137649,1,0,0:0:0:0:
30,191,139053,6,0,L|304:182,3,140
162,214,142913,5,0,0:0:0:0:
162,214,143264,1,0,0:0:0:0:
