osu file format v14

[General]
AudioFilename: audio.mp3
AudioLeadIn: 0
PreviewTime: 54005
Countdown: 0
SampleSet: Soft
StackLeniency: 0.7
Mode: 0
LetterboxInBreaks: 0
WidescreenStoryboard: 0

[Editor]
DistanceSpacing: 1.2
BeatDivisor: 6
GridSize: 16
TimelineZoom: 1

[Metadata]
Title:River Flows In You
TitleUnicode:River Flows In You
Artist:Yiruma
ArtistUnicode:Yiruma
Creator:MILK_16
Version:A Simple Melody of Love
Source:
Tags:
BeatmapID:2123664
BeatmapSetID:1014730

[Difficulty]
HPDrainRate:5
CircleSize:3.2
OverallDifficulty:4.2
ApproachRate:8
SliderMultiplier:1.6
SliderTickRate:1

[Events]
//Background and Video events
0,0,"40789119.jpeg",0,0
//Break Periods
2,82490,84969
//Storyboard Layer 0 (Background)
//Storyboard Layer 1 (Fail)
//Storyboard Layer 2 (Pass)
//Storyboard Layer 3 (Foreground)
//Storyboard Layer 4 (Overlay)
//Storyboard Sound Samples

[TimingPoints]
5,428.571428571429,4,2,1,100,1,0
3433,-100,4,2,1,70,0,0
6862,-100,4,2,1,100,0,0
54862,-100,4,2,1,100,0,1
66862,-100,4,2,0,100,0,1
68576,-100,4,2,1,100,0,1
80576,-100,4,2,0,85,0,1
81862,-100,4,2,0,100,0,1
82290,-100,4,2,0,80,0,0
85612,-100,4,2,1,100,0,0
113147,-100,4,2,1,100,0,1
140147,-100,4,2,1,100,0,0
140576,-200,4,2,1,100,0,0

[Colours]
Combo1 : 255,255,0
Combo2 : 0,202,0
Combo3 : 18,124,255
Combo4 : 242,24,57

[HitObjects]
80,112,5,5,0,0:0:0:0:
144,240,433,1,0,0:0:0:0:
208,112,862,1,0,0:0:0:0:
272,240,1290,1,0,0:0:0:0:
336,112,1719,1,0,0:0:0:0:
288,304,2147,5,0,0:0:0:0:
160,208,2576,1,0,0:0:0:0:
320,160,3005,1,0,0:0:0:0:
128,256,3433,2,0,B|80:208|32:256|64:320|128:320|160:272|176:32|176:32|320:64|464:32|464:32|432:288|416:304|336:320|336:320|320:288|352:272|352:272|368:304|368:304,1,1120
160,256,6862,5,0,0:0:0:0:
256,96,7290,1,0,0:0:0:0:
96,192,7719,1,0,0:0:0:0:
256,288,8147,1,0,0:0:0:0:
416,192,8576,5,0,0:0:0:0:
336,112,9005,1,0,0:0:0:0:
240,176,9433,1,0,0:0:0:0:
336,256,9862,1,0,0:0:0:0:
256,192,10290,12,0,13290,0:0:0:0:
112,160,13719,6,0,P|128:208|160:224,1,80
256,240,14147,1,0,0:0:0:0:
368,192,14362,2,0,P|400:160|384:112,1,80
320,48,14790,1,0,0:0:0:0:
192,80,15005,2,0,B|144:112|160:160|160:160,1,80
368,144,15433,6,0,P|368:192|336:224,1,80
240,256,15862,1,0,0:0:0:0:
128,224,16076,1,0,0:0:0:0:
64,144,16290,2,0,P|48:80|80:64,1,80
128,224,16719,1,0,0:0:0:0:
272,192,16933,2,0,L|320:176,2,40
144,256,17576,5,0,0:0:0:0:
208,64,18005,1,0,0:0:0:0:
320,192,18433,1,0,0:0:0:0:
160,272,18862,2,0,P|96:224|96:144,2,160
304,272,20147,5,0,0:0:0:0:
352,240,20362,1,0,0:0:0:0:
400,208,20576,2,0,B|432:176|480:128|384:64,1,160
352,144,21433,5,0,0:0:0:0:
272,208,21647,2,0,P|256:256|208:272,2,80
208,128,22290,2,0,P|176:80|128:96,1,80
112,176,22719,1,0,0:0:0:0:
304,112,23147,5,0,0:0:0:0:
208,192,23576,1,0,0:0:0:0:
176,224,23790,1,0,0:0:0:0:
128,176,24005,2,0,P|96:112|96:96,2,80
208,272,24862,1,0,0:0:0:0:
352,176,25290,5,0,0:0:0:0:
288,96,25505,1,0,0:0:0:0:
240,192,25719,2,0,P|256:240|176:304,1,160
240,192,26576,1,0,0:0:0:0:
304,272,27433,6,0,P|352:240|352:208,1,80
320,128,27862,1,0,0:0:0:0:
240,64,28076,1,0,0:0:0:0:
128,80,28290,2,0,P|80:112|96:160,1,80
112,224,28719,5,0,0:0:0:0:
192,288,28933,1,0,0:0:0:0:
304,272,29147,2,0,P|352:240|352:208,1,80
256,176,29576,5,0,0:0:0:0:
176,112,29790,1,0,0:0:0:0:
128,208,30005,2,0,P|128:256|176:288,1,80
256,208,30433,5,0,0:0:0:0:
352,128,30647,2,0,L|352:80,2,40
160,112,31290,6,0,P|96:112|80:128,1,80
128,192,31719,2,0,P|176:208|208:192,1,80
320,112,32147,2,0,P|272:96|240:112,1,80
272,192,32576,2,0,P|320:208|368:176,1,80
432,144,33005,1,0,0:0:0:0:
336,224,33290,6,0,B|304:256|288:256|288:256,1,53.3333333333333
144,304,33647,1,0,0:0:0:0:
256,208,33862,1,0,0:0:0:0:
144,144,34076,1,0,0:0:0:0:
256,64,34290,2,0,B|320:48|416:128|416:128,1,160
336,240,35147,1,0,0:0:0:0:
160,256,35576,5,0,0:0:0:0:
80,192,35790,1,0,0:0:0:0:
160,128,36005,2,0,B|208:80|256:176|320:80|320:80,1,160
384,48,36862,1,0,0:0:0:0:
192,288,37290,5,0,0:0:0:0:
320,288,37505,1,0,0:0:0:0:
256,192,37719,2,0,B|176:192|224:96|128:96,1,160
112,192,38576,1,0,0:0:0:0:
240,288,39005,5,0,0:0:0:0:
336,224,39219,1,0,0:0:0:0:
304,112,39433,2,0,B|256:64|176:128|160:48,1,160
208,304,40290,5,0,0:0:0:0:
336,224,40505,1,0,0:0:0:0:
208,160,40719,1,0,0:0:0:0:
336,80,40933,1,0,0:0:0:0:
176,96,41147,2,0,P|128:80|96:96,1,80
144,176,41576,2,0,P|192:192|224:160,1,80
304,128,42005,5,0,0:0:0:0:
208,64,42219,1,0,0:0:0:0:
112,96,42433,1,0,0:0:0:0:
80,192,42647,1,0,0:0:0:0:
144,272,42862,2,0,P|192:288|224:272,1,80
304,128,43290,2,0,P|320:176|304:208,1,80
224,288,43719,5,0,0:0:0:0:
160,208,43933,1,0,0:0:0:0:
192,112,44147,1,0,0:0:0:0:
288,64,44362,1,0,0:0:0:0:
256,304,44576,5,0,0:0:0:0:
336,208,44790,1,0,0:0:0:0:
176,224,45005,1,0,0:0:0:0:
272,128,45219,1,0,0:0:0:0:
64,96,45433,5,0,0:0:0:0:
128,208,45647,1,0,0:0:0:0:
208,96,45861,1,0,0:0:0:0:
288,224,46076,1,0,0:0:0:0:
352,112,46290,2,0,B|272:160|240:64|192:128,1,160
112,256,47147,5,0,0:0:0:0:
192,320,47362,1,0,0:0:0:0:
288,304,47576,1,0,0:0:0:0:
352,224,47790,1,0,0:0:0:0:
304,128,48005,2,0,P|272:112|224:128,1,80
256,208,48433,2,0,P|320:224|336:208,1,80
384,128,48862,5,0,0:0:0:0:
320,48,49076,1,0,0:0:0:0:
256,128,49290,1,0,0:0:0:0:
208,48,49505,1,0,0:0:0:0:
112,96,49719,2,0,P|144:128|128:176,1,80
80,224,50147,2,0,P|80:256|112:288,1,80
240,288,50576,5,0,0:0:0:0:
320,240,50790,1,0,0:0:0:0:
352,160,51005,1,0,0:0:0:0:
320,80,51219,1,0,0:0:0:0:
96,96,51433,5,0,0:0:0:0:
112,192,51647,1,0,0:0:0:0:
192,256,51862,1,0,0:0:0:0:
288,256,52076,1,0,0:0:0:0:
320,96,52290,5,0,0:0:0:0:
192,96,52505,1,0,0:0:0:0:
368,192,52719,1,0,0:0:0:0:
144,192,52933,1,0,0:0:0:0:
256,272,53147,2,0,P|304:224|240:192,1,160
176,240,54005,5,0,0:0:0:0:
272,176,54219,1,0,0:0:0:0:
272,176,54326,1,0,0:0:0:0:
272,176,54433,1,0,0:0:0:0:
352,112,54647,1,0,0:0:0:0:
224,80,54862,6,0,P|176:96|160:144,1,80
160,224,55290,2,0,P|208:272|240:272,1,80
336,192,55719,5,0,0:0:0:0:
224,112,55933,1,0,0:0:0:0:
224,112,56040,1,0,0:0:0:0:
224,112,56147,1,0,0:0:0:0:
128,192,56362,1,0,0:0:0:0:
128,192,56576,6,0,P|160:240|192:240,1,80
288,240,57005,2,0,P|336:240|368:208,1,80
304,112,57433,5,0,0:0:0:0:
208,144,57647,1,0,0:0:0:0:
176,160,57755,1,0,0:0:0:0:
160,208,57862,1,0,0:0:0:0:
80,256,58076,1,0,0:0:0:0:
368,240,58290,6,0,P|352:288|320:304,1,80
224,288,58719,1,0,0:0:0:0:
128,224,58933,1,0,0:0:0:0:
368,64,59147,5,0,0:0:0:0:
224,64,59362,1,0,0:0:0:0:
304,160,59576,1,0,0:0:0:0:
176,192,59790,1,0,0:0:0:0:
304,288,60005,2,0,P|256:304|224:272,1,80
160,224,60433,1,0,0:0:0:0:
336,192,60862,5,0,0:0:0:0:
240,96,61076,1,0,0:0:0:0:
192,128,61183,1,0,0:0:0:0:
192,176,61290,1,0,0:0:0:0:
272,256,61505,2,0,P|320:272|352:240,2,80
400,192,62147,1,0,0:0:0:0:
208,176,62576,5,0,0:0:0:0:
352,112,62790,1,0,0:0:0:0:
352,112,62897,1,0,0:0:0:0:
352,112,63005,1,0,0:0:0:0:
144,128,63219,6,0,P|128:176|160:224,1,80
272,128,63648,2,0,P|288:160|272:208,1,80
208,176,64076,1,0,0:0:0:0:
288,320,64290,5,0,0:0:0:0:
368,256,64505,1,0,0:0:0:0:
368,160,64719,1,0,0:0:0:0:
288,96,64933,2,0,P|208:144|208:144,1,80
128,96,65362,2,0,L|208:48,1,80
160,192,65790,5,0,0:0:0:0:
224,272,66005,1,0,0:0:0:0:
320,224,66219,1,0,0:0:0:0:
336,128,66433,1,0,0:0:0:0:
416,80,66647,1,0,0:0:0:0:
112,224,66862,6,0,B|224:192|112:112|240:112,2,160
304,80,68147,1,0,0:0:0:0:
96,176,68576,6,0,P|155:150|193:176,1,80
256,240,69005,1,0,0:0:0:0:
352,160,69219,1,0,0:0:0:0:
192,128,69433,5,0,0:0:0:0:
368,288,69647,1,0,0:0:0:0:
368,288,69755,1,0,0:0:0:0:
368,288,69862,1,0,0:0:0:0:
176,256,70076,1,0,0:0:0:0:
256,192,70290,6,0,P|306:177|310:149,1,80
240,80,70719,2,0,P|192:115|203:145,1,80
224,256,71147,5,0,0:0:0:0:
336,160,71362,1,0,0:0:0:0:
368,128,71469,1,0,0:0:0:0:
400,96,71576,1,0,0:0:0:0:
256,80,71790,1,0,0:0:0:0:
144,128,72005,6,0,P|96:160|96:192,1,80
176,272,72434,1,0,0:0:0:0:
288,304,72648,1,0,0:0:0:0:
416,144,72862,5,0,0:0:0:0:
304,64,73077,1,0,0:0:0:0:
288,192,73291,1,0,0:0:0:0:
160,160,73505,1,0,0:0:0:0:
256,304,73720,2,0,P|208:320|176:288,1,80
96,224,74148,1,0,0:0:0:0:
320,160,74576,5,0,0:0:0:0:
160,96,74790,1,0,0:0:0:0:
160,128,74897,1,0,0:0:0:0:
160,160,75005,1,0,0:0:0:0:
160,272,75219,1,0,0:0:0:0:
304,304,75433,6,0,P|352:288|368:256,1,80
352,144,75862,2,0,P|304:112|272:144,1,80
192,208,76290,5,0,0:0:0:0:
96,112,76505,1,0,0:0:0:0:
96,112,76612,1,0,0:0:0:0:
96,112,76719,1,0,0:0:0:0:
224,48,76933,1,0,0:0:0:0:
336,128,77147,6,0,P|368:176|336:208,1,80
320,272,77576,2,0,P|288:304|224:288,1,80
128,224,78005,5,0,0:0:0:0:
160,128,78219,1,0,0:0:0:0:
256,80,78433,1,0,0:0:0:0:
352,128,78647,1,0,0:0:0:0:
368,240,78862,6,0,P|352:288|304:288,1,80
288,160,79290,1,0,0:0:0:0:
192,112,79505,1,0,0:0:0:0:
112,176,79719,5,0,0:0:0:0:
64,80,79933,1,0,0:0:0:0:
208,48,80147,2,0,B|256:32|272:48|304:64,1,80
368,160,80576,6,0,B|350:219|257:174|421:291|275:314|275:314,2,160
205,138,81862,1,0,0:0:0:0:
351,65,82290,1,4,0:0:0:0:
448,192,85719,6,0,P|387:155|354:160,1,80
256,144,86147,1,0,0:0:0:0:
160,224,86362,2,0,P|88:241|63:214,1,80
128,112,86790,1,0,0:0:0:0:
256,64,87005,2,0,P|310:52|351:83,1,80
368,208,87433,6,0,P|304:224|272:192,1,80
192,160,87862,1,0,0:0:0:0:
96,224,88076,1,0,0:0:0:0:
224,304,88290,2,0,P|272:304|304:272,1,80
368,192,88719,1,0,0:0:0:0:
224,128,88933,2,0,L|192:80,2,40
96,256,89576,6,0,B|160:192|224:320|256:240,2,160
320,208,90862,2,0,B|384:144|384:144|336:64,2,160
224,80,92147,5,0,0:0:0:0:
112,160,92362,1,0,0:0:0:0:
192,272,92576,2,0,P|256:240|320:160,1,160
384,96,93647,5,0,0:0:0:0:
272,48,93861,2,0,P|224:64|208:112,2,80
336,192,94505,6,0,P|304:144|256:160,1,80
176,192,94933,2,0,B|176:240|224:256|224:256,1,80
320,304,95362,1,0,0:0:0:0:
384,144,95576,5,0,0:0:0:0:
272,80,95790,1,0,0:0:0:0:
144,128,96005,2,0,P|80:128|48:160,2,80
96,256,96647,1,0,0:0:0:0:
192,320,96862,1,0,0:0:0:0:
288,256,97076,1,0,0:0:0:0:
384,304,97290,5,0,0:0:0:0:
448,208,97505,1,0,0:0:0:0:
352,128,97719,2,0,P|288:96|256:112,2,80
272,224,98362,2,0,P|224:208|224:176,1,80
160,288,99005,1,0,0:0:0:0:
160,288,99290,6,0,P|208:240|208:240,1,53.3333333333333
320,128,99862,1,0,0:0:0:0:
240,64,100076,1,0,0:0:0:0:
128,80,100290,2,0,P|80:112|96:160,1,80
112,224,100719,5,0,0:0:0:0:
192,304,100933,1,0,0:0:0:0:
304,288,101147,2,0,P|352:256|352:224,1,80
416,128,101576,5,0,0:0:0:0:
320,48,101790,1,0,0:0:0:0:
208,112,102005,2,0,P|208:160|256:192,1,80
320,256,102433,5,0,0:0:0:0:
176,304,102647,2,0,L|144:272,2,26.6666666666667
304,192,103290,6,0,P|313:121|313:89,1,80
304,192,103719,2,0,P|213:165|213:181,1,80
304,192,104147,2,0,P|289:225|321:241,1,80
304,192,104576,2,0,P|368:192|384:176,1,80
304,192,105005,1,0,0:0:0:0:
192,272,105290,6,0,P|160:256|144:240,1,53.3333333333333
64,160,105647,1,0,0:0:0:0:
192,80,105862,1,0,0:0:0:0:
304,192,106076,1,0,0:0:0:0:
432,128,106290,2,0,B|368:80|320:128|288:64|288:64,1,160
192,176,107147,1,0,0:0:0:0:
288,288,107576,5,0,0:0:0:0:
352,208,107790,1,0,0:0:0:0:
336,112,108005,2,0,P|288:80|256:80,1,80
144,128,108433,5,0,0:0:0:0:
80,224,108647,1,0,0:0:0:0:
160,320,108862,2,0,P|224:320|240:304,1,80
320,256,109290,5,0,0:0:0:0:
240,176,109505,1,0,0:0:0:0:
320,96,109719,2,0,P|256:64|240:64,1,80
112,112,110147,5,0,0:0:0:0:
192,240,110362,1,0,0:0:0:0:
336,272,110576,2,0,P|384:240|384:224,1,80
272,112,111005,5,0,0:0:0:0:
144,64,111219,1,0,0:0:0:0:
64,160,111433,2,0,P|80:224|176:240,1,160
368,160,112290,6,0,P|304:128|288:128,1,80
128,160,112719,2,0,P|192:128|208:128,1,80
368,256,113147,6,0,P|343:305|300:310,1,80
208,304,113576,1,0,0:0:0:0:
112,224,113790,2,0,P|90:196|95:151,1,80
192,64,114219,5,0,0:0:0:0:
255,49,114326,1,0,0:0:0:0:
316,64,114433,1,0,0:0:0:0:
391,131,114647,1,0,0:0:0:0:
384,240,114862,6,0,P|367:283|306:288,1,80
224,208,115290,2,0,P|179:195|137:220,1,80
208,304,115719,5,0,0:0:0:0:
416,96,115933,1,0,0:0:0:0:
420,101,116040,1,0,0:0:0:0:
420,101,116147,1,0,0:0:0:0:
240,64,116362,1,0,0:0:0:0:
96,144,116576,6,0,P|118:186|154:197,1,80
352,144,117005,2,0,P|294:134|265:155,1,80
192,320,117433,2,0,P|244:271|242:252,1,80
400,96,117862,5,0,0:0:0:0:
350,96,117969,1,0,0:0:0:0:
311,107,118076,1,0,0:0:0:0:
277,127,118183,1,0,0:0:0:0:
249,156,118290,1,0,0:0:0:0:
176,224,118505,1,0,0:0:0:0:
176,224,118719,2,0,P|138:253|100:240,1,80
272,304,119147,5,0,0:0:0:0:
384,192,119362,1,0,0:0:0:0:
384,192,119469,1,0,0:0:0:0:
384,192,119576,1,0,0:0:0:0:
288,64,119790,1,0,0:0:0:0:
160,128,120005,6,0,P|91:152|87:166,1,80
192,240,120433,2,0,P|236:239|267:210,1,80
352,128,120862,5,0,0:0:0:0:
224,96,121076,1,0,0:0:0:0:
176,80,121183,1,0,0:0:0:0:
128,80,121290,1,0,0:0:0:0:
64,176,121505,1,0,0:0:0:0:
144,288,121719,6,0,P|192:304|224:288,1,80
304,240,122147,2,0,P|352:224|384:240,1,80
304,96,122576,5,0,0:0:0:0:
96,224,122790,1,0,0:0:0:0:
96,224,122897,1,0,0:0:0:0:
96,224,123005,1,0,0:0:0:0:
256,192,123219,1,0,0:0:0:0:
416,80,123433,6,0,P|352:80|336:96,1,80
80,96,123862,2,0,P|128:112|176:80,1,80
352,192,124290,2,0,P|304:208|256:176,1,80
64,192,124719,5,0,0:0:0:0:
103,195,124826,1,0,0:0:0:0:
142,187,124933,1,0,0:0:0:0:
178,170,125040,1,0,0:0:0:0:
208,143,125147,1,0,0:0:0:0:
320,64,125362,1,0,0:0:0:0:
320,64,125576,6,0,P|384:64|400:80,1,80
336,192,126005,5,0,0:0:0:0:
160,96,126219,1,0,0:0:0:0:
160,96,126326,1,0,0:0:0:0:
160,96,126433,1,0,0:0:0:0:
192,240,126647,1,0,0:0:0:0:
384,96,126862,6,0,P|304:80|288:96,2,80
288,192,127505,1,0,0:0:0:0:
192,144,127719,1,0,0:0:0:0:
80,192,127933,2,0,P|128:240|160:240,2,80
272,224,128576,6,0,P|336:208|352:176,1,80
256,112,129005,1,0,0:0:0:0:
160,64,129219,1,0,0:0:0:0:
80,128,129433,6,0,P|80:176|112:192,1,80
192,256,129755,1,0,0:0:0:0:
192,256,129862,1,0,0:0:0:0:
304,208,130076,2,0,P|352:176|368:144,1,80
256,64,130505,5,0,0:0:0:0:
144,128,130719,1,0,0:0:0:0:
128,240,130933,1,0,0:0:0:0:
224,320,131147,1,0,0:0:0:0:
400,128,131362,5,0,0:0:0:0:
240,80,131576,1,0,0:0:0:0:
320,240,131790,1,0,0:0:0:0:
128,144,132005,1,0,0:0:0:0:
384,96,132433,1,0,0:0:0:0:
192,80,132862,5,0,0:0:0:0:
304,240,133076,1,0,0:0:0:0:
304,240,133183,1,0,0:0:0:0:
304,240,133290,1,0,0:0:0:0:
112,288,133505,1,0,0:0:0:0:
208,176,133719,6,0,P|256:144|256:128,1,80
432,80,134147,2,0,P|384:128|368:112,1,80
288,64,134576,5,0,0:0:0:0:
128,192,134790,1,0,0:0:0:0:
128,192,134897,1,0,0:0:0:0:
128,192,135005,1,0,0:0:0:0:
320,240,135219,1,0,0:0:0:0:
224,96,135433,6,0,P|160:80|128:112,1,80
112,176,135862,2,0,P|160:208|208:192,1,80
384,112,136290,5,0,0:0:0:0:
240,176,136505,1,0,0:0:0:0:
208,208,136612,1,0,0:0:0:0:
160,192,136719,1,0,0:0:0:0:
64,80,136933,1,0,0:0:0:0:
400,96,137147,6,0,P|368:144|336:128,1,80
272,80,137576,2,0,P|224:48|192:80,1,80
112,144,138005,2,0,P|160:176|192:160,1,80
384,80,138433,5,0,0:0:0:0:
304,240,138647,1,0,0:0:0:0:
192,128,138862,2,0,B|176:192|112:176|64:176|64:240,2,160
384,112,140147,1,0,0:0:0:0:
112,128,140576,6,0,P|125:177|150:196,1,80
240,272,141433,1,0,0:0:0:0:
368,208,141862,1,0,0:0:0:0:
192,96,142290,5,0,0:0:0:0:
96,192,142719,1,0,0:0:0:0:
176,288,143147,1,0,0:0:0:0:
320,272,143576,2,0,P|367:247|380:211,1,80
384,128,144433,5,0,0:0:0:0:
272,64,144862,1,0,0:0:0:0:
160,128,145290,1,0,0:0:0:0:
400,176,145719,6,0,P|388:219|280:267,1,160
177,165,147005,1,0,0:0:0:0:
128,320,147326,2,0,L|165:320,3,20
394,134,148719,6,0,L|355:178,2,40
288,240,149576,1,0,0:0:0:0:
208,144,150005,1,0,0:0:0:0:
80,224,150433,6,0,L|118:248,2,40
160,112,151290,1,0,0:0:0:0:
284,80,151719,1,0,0:0:0:0:
352,160,152147,6,0,L|386:203,2,40
288,272,153005,1,0,0:0:0:0:
144,224,153433,2,0,P|112:160|128:64,1,160
368,128,154719,5,0,0:0:0:0:
272,240,155147,1,0,0:0:0:0:
176,128,155576,1,0,0:0:0:0:
64,224,155790,2,0,L|96:256,2,40
192,320,156433,1,0,0:0:0:0:
304,256,156862,1,0,0:0:0:0:
224,160,157290,1,0,0:0:0:0:
400,80,157719,6,0,P|336:64|320:64,1,80
240,144,158576,1,0,0:0:0:0:
128,208,159005,1,0,0:0:0:0:
256,288,159433,2,0,P|320:288|336:272,2,80
384,128,160719,6,0,L|336:112,2,40
240,64,161576,2,0,P|208:64|176:96,1,80
96,208,162433,6,0,L|144:224,2,40
272,272,163290,1,0,0:0:0:0:
368,128,163719,1,0,0:0:0:0:
432,240,164147,6,0,L|384:256,2,40
256,128,165005,1,0,0:0:0:0:
128,240,165433,1,0,0:0:0:0:
384,288,165862,6,0,L|336:304,2,40
256,176,166719,1,0,0:0:0:0:
336,96,167147,2,0,P|240:64|192:96,1,160
