osu file format v14

[General]
AudioFilename: audio.mp3
AudioLeadIn: 0
PreviewTime: 111428
Countdown: 1
SampleSet: Normal
StackLeniency: 0.7
Mode: 0
LetterboxInBreaks: 0
SkinPreference:Retronix+2.7
WidescreenStoryboard: 1

[Editor]
Bookmarks: 22285,60000,64285,65142,66000,66857,67714,68142,76071,78000,78642,85607,113785,114857,115714,117428,120857,121500,122357,124714,128785,129428,131142,131357,132000,136285,140464
DistanceSpacing: 4.5
BeatDivisor: 4
GridSize: 4
TimelineZoom: 1.599999

[Metadata]
Title:River Flows In You (A Love Note)
TitleUnicode:River Flows In You (A Love Note)
Artist:Yiruma & Skullee
ArtistUnicode:Yiruma & Skullee
Creator:GAVlN
Version:Insane
Source:
Tags:
BeatmapID:1836270
BeatmapSetID:877964

[Difficulty]
HPDrainRate:5
CircleSize:3.8
OverallDifficulty:7
ApproachRate:9.6
SliderMultiplier:1.60000000596046
SliderTickRate:1

[Events]
//Background and Video events
0,0,"black.png",0,0
//Break Periods
2,85607,112633
//Storyboard Layer 0 (Background)
//Storyboard Layer 1 (Fail)
//Storyboard Layer 2 (Pass)
//Storyboard Layer 3 (Foreground)
//Storyboard Sound Samples

[TimingPoints]
0,428.571428571429,4,1,0,100,1,0

[HitObjects]
45,85,13714,5,8,2:1:0:0:
45,85,14142,2,0,P|115:87|126:122,1,80.0000002980232,0|0,1:1|1:1,1:1:0:0:
207,177,14571,1,0,2:1:0:0:
302,91,14785,1,0,2:1:0:0:
238,84,15000,5,0,1:1:0:0:
238,84,15214,2,0,L|143:87,1,80.000000298023,0|0,1:1|1:1,1:1:0:0:
333,169,15642,1,0,2:1:0:0:
232,89,15857,1,0,2:1:0:0:
135,173,16071,1,0,2:1:0:0:
262,161,16285,5,0,1:1:0:0:
262,161,16500,2,0,P|310:127|341:162,1,80.0000002980232,0|0,1:1|1:1,1:1:0:0:
86,66,16928,5,0,3:1:0:0:
86,66,17035,1,0,3:1:0:0:
86,66,17142,1,0,3:1:0:0:
93,193,17571,2,0,P|121:130|234:126,1,160.000000596046,0|0,1:1|1:1,1:1:0:0:
378,308,18428,2,0,P|431:246|469:313,1,160.000000596046,0|0,1:1|1:1,1:1:0:0:
224,354,19285,1,0,1:1:0:0:
92,134,19714,1,0,1:1:0:0:
207,79,20142,5,0,1:1:0:0:
207,79,20357,1,0,3:1:0:0:
207,79,20571,1,0,3:1:0:0:
290,176,21000,5,0,1:1:0:0:
290,176,21428,2,0,L|204:190,1,80.000000298023,0|0,1:1|1:1,1:1:0:0:
153,160,21857,1,0,1:1:0:0:
153,160,22071,2,0,P|163:100|204:96,1,80.000000298023,0|0,3:1|3:1,3:1:0:0:
194,261,22714,1,0,1:1:0:0:
90,186,23142,1,0,1:1:0:0:
196,257,23571,5,0,1:1:0:0:
196,257,23785,2,0,P|194:205|248:189,1,80.000000298023,0|0,3:1|3:1,3:1:0:0:
285,156,24428,2,0,P|346:138|348:31,1,160.000000596046,0|0,1:1|1:1,1:1:0:0:
263,168,25285,5,0,1:1:0:0:
263,168,25500,2,0,P|329:187|329:210,1,80.000000298023,0|0,3:1|3:1,3:1:0:0:
233,99,26142,1,0,1:1:0:0:
65,129,26571,2,0,P|206:164|393:116,1,320.000001192092,0|0,1:1|1:1,1:1:0:0:
103,66,27857,5,0,1:1:0:0:
103,66,28071,2,0,P|69:120|95:136,1,80.000000298023,0|0,3:1|3:1,3:1:0:0:
165,249,28500,1,0,1:1:0:0:
219,190,28714,2,0,L|285:130,2,80.000000298023,0|0|0,3:1|3:1|3:1,3:1:0:0:
295,167,29357,5,0,1:1:0:0:
367,309,29571,1,0,1:1:0:0:
447,171,29785,1,0,1:1:0:0:
295,167,30000,1,0,1:1:0:0:
349,60,30214,2,0,P|321:32|270:35,1,80.000000298023,0|0,1:1|1:1,1:1:0:0:
171,74,30642,2,0,L|151:86,4,20.0000000745057,0|0|0|0|0,3:1|3:1|3:1|3:1|3:1,3:1:0:0:
372,64,31285,6,0,P|323:107|342:209,1,160.000000596046,0|0,1:1|1:1,1:1:0:0:
172,14,32142,1,0,1:1:0:0:
79,235,32571,1,0,1:1:0:0:
306,158,33000,5,0,1:1:0:0:
306,158,33267,2,0,L|377:147,1,60.0000002235172,2|0,1:1|1:1,1:1:0:0:
346,267,33642,1,0,1:1:0:0:
310,284,33857,1,0,1:1:0:0:
283,313,34071,1,0,1:1:0:0:
197,59,34285,2,0,P|255:71|284:183,1,160.000000596046,0|0,1:1|1:1,1:1:0:0:
349,213,35142,1,0,1:1:0:0:
258,77,35571,5,0,1:1:0:0:
219,85,35785,1,0,3:1:0:0:
182,68,36000,1,0,3:1:0:0:
249,230,36428,2,0,B|354:277|381:270|385:303,1,160.000000596046,0|0,1:1|1:1,1:1:0:0:
71,239,37285,5,0,1:1:0:0:
101,228,37500,1,0,3:1:0:0:
123,205,37714,1,0,3:1:0:0:
113,200,38142,2,0,B|80:204|87:231|40:336,1,160.000000596046,0|0,1:1|1:1,1:1:0:0:
197,288,39000,5,0,1:1:0:0:
228,285,39214,1,0,3:1:0:0:
259,289,39428,1,0,3:1:0:0:
331,145,39857,1,0,1:1:0:0:
256,192,40285,12,0,53571,3:1:0:0:
132,158,54000,5,0,1:1:0:0:
148,147,54214,1,0,3:1:0:0:
163,134,54321,1,0,3:1:0:0:
167,114,54428,1,0,3:1:0:0:
297,269,54642,1,0,1:1:0:0:
120,74,54857,5,0,1:1:0:0:
359,70,55071,1,0,1:1:0:0:
197,247,55285,1,0,1:1:0:0:
437,251,55500,1,0,1:1:0:0:
231,127,55714,5,0,1:1:0:0:
248,116,55928,1,0,3:1:0:0:
259,99,56035,1,0,3:1:0:0:
259,79,56142,1,0,3:1:0:0:
336,99,56357,5,0,1:1:0:0:
60,48,56571,1,0,1:1:0:0:
66,327,56785,1,0,1:1:0:0:
354,47,57000,1,0,1:1:0:0:
359,326,57214,1,0,1:1:0:0:
231,257,57428,5,0,1:1:0:0:
248,268,57642,1,0,3:1:0:0:
259,285,57749,1,0,3:1:0:0:
283,306,57857,2,0,P|333:326|360:313,1,80.000000298023,0|0,3:1|1:1,1:1:0:0:
429,248,58285,5,0,1:1:0:0:
362,203,58500,1,0,1:1:0:0:
295,158,58714,1,0,1:1:0:0:
228,113,58928,1,0,1:1:0:0:
162,67,59142,1,0,1:1:0:0:
159,131,59357,5,0,1:1:0:0:
209,170,59571,1,0,1:1:0:0:
259,209,59785,1,0,1:1:0:0:
321,158,60000,2,0,L|189:55,1,160.000000596046,0|0,1:1|1:1,1:1:0:0:
215,218,60857,5,0,1:1:0:0:
254,214,61071,1,0,3:1:0:0:
284,188,61178,1,0,3:1:0:0:
295,149,61285,1,0,3:1:0:0:
448,333,61500,1,0,1:1:0:0:
451,53,61714,1,0,1:1:0:0:
164,331,61928,1,0,1:1:0:0:
166,51,62142,1,0,1:1:0:0:
322,199,62357,1,0,1:1:0:0:
215,166,62571,5,0,1:1:0:0:
254,170,62785,1,0,3:1:0:0:
284,196,62892,1,0,3:1:0:0:
295,235,62999,1,0,3:1:0:0:
448,51,63214,1,0,1:1:0:0:
451,331,63428,1,0,1:1:0:0:
164,53,63642,1,0,1:1:0:0:
166,333,63857,1,0,1:1:0:0:
308,183,64071,1,0,1:1:0:0:
377,66,64285,5,0,1:1:0:0:
325,127,64500,1,0,1:1:0:0:
271,67,64714,1,0,1:1:0:0:
228,134,64928,1,0,1:1:0:0:
405,299,65142,1,0,1:1:0:0:
327,242,65357,1,0,1:1:0:0:
249,185,65571,1,0,1:1:0:0:
171,128,65785,1,0,1:1:0:0:
74,126,66000,5,0,1:1:0:0:
122,208,66214,1,0,1:1:0:0:
197,267,66428,1,0,1:1:0:0:
272,326,66642,1,0,1:1:0:0:
258,118,66857,5,0,1:1:0:0:
44,44,67285,1,0,1:1:0:0:
469,46,67714,2,0,P|338:53|284:78,1,160.000000596046,0|0,1:1|1:1,1:1:0:0:
142,194,68571,6,0,L|208:129,1,80.000000298023,0|0,1:1|1:1,1:1:0:0:
265,207,69000,1,0,1:1:0:0:
331,137,69214,1,0,1:1:0:0:
90,132,69428,5,0,1:1:0:0:
107,121,69642,1,0,3:1:0:0:
118,104,69749,1,0,3:1:0:0:
118,84,69856,1,0,3:1:0:0:
402,41,70071,5,0,1:1:0:0:
122,38,70285,1,0,1:1:0:0:
400,325,70499,1,0,1:1:0:0:
120,323,70713,1,0,1:1:0:0:
268,167,70928,1,0,1:1:0:0:
196,358,71142,5,0,1:1:0:0:
185,341,71356,1,0,3:1:0:0:
168,330,71463,1,0,3:1:0:0:
148,330,71570,1,0,3:1:0:0:
172,236,71785,1,0,1:1:0:0:
302,76,72000,6,0,P|342:134|341:163,1,80.000000298023,0|0,1:1|1:1,1:1:0:0:
291,222,72428,2,0,P|235:209|202:166,1,80.000000298023,0|0,1:1|1:1,1:1:0:0:
157,121,72857,2,0,P|154:57|172:29,1,80.000000298023,0|0,1:1|1:1,1:1:0:0:
255,33,73285,2,0,P|309:54|350:90,1,80.000000298023,0|0,1:1|1:1,1:1:0:0:
351,159,73714,1,0,1:1:0:0:
351,159,74142,1,0,1:1:0:0:
196,358,74571,5,0,1:1:0:0:
185,341,74785,1,0,3:1:0:0:
168,330,74892,1,0,3:1:0:0:
148,330,74999,1,0,3:1:0:0:
60,339,75214,5,0,1:1:0:0:
256,77,75428,1,0,1:1:0:0:
455,336,75642,1,0,1:1:0:0:
153,204,75857,1,0,1:1:0:0:
449,65,76071,1,0,1:1:0:0:
90,132,76285,5,0,1:1:0:0:
107,121,76499,1,0,3:1:0:0:
118,104,76606,1,0,3:1:0:0:
118,84,76713,1,0,3:1:0:0:
109,0,76928,5,0,1:1:0:0:
371,192,77142,1,0,1:1:0:0:
112,391,77356,1,0,1:1:0:0:
244,89,77571,1,0,1:1:0:0:
383,385,77785,1,0,1:1:0:0:
388,55,78000,5,0,1:1:0:0:
336,116,78214,1,0,1:1:0:0:
286,53,78428,1,0,1:1:0:0:
233,113,78642,2,0,P|178:133|147:119,2,80.000000298023,0|0|0,1:1|1:1|1:1,1:1:0:0:
286,53,79285,5,0,1:1:0:0:
336,116,79499,1,0,1:1:0:0:
388,55,79714,1,0,1:1:0:0:
336,116,79928,2,0,P|289:168|281:200,1,80.000000298023,0|0,1:1|1:1,1:1:0:0:
256,250,80357,1,0,1:1:0:0:
256,192,80571,2,0,P|360:200|400:240,2,160.000000596046,0|0|0,1:1|1:1|1:1,1:1:0:0:
112,120,81857,1,0,1:1:0:0:
112,120,82285,1,0,1:1:0:0:
248,184,113142,5,0,1:1:0:0:
308,132,113357,2,0,L|384:60,2,80.000000298023,0|0|0,1:1|1:1|1:1,1:1:0:0:
248,184,114000,1,0,1:1:0:0:
136,68,114214,1,0,3:3:0:0:
108,116,114321,1,0,3:3:0:0:
96,172,114428,1,0,3:3:0:0:
92,284,114642,1,0,1:1:0:0:
308,353,114857,5,0,1:1:0:0:
118,91,115071,1,0,1:1:0:0:
118,292,115285,1,0,1:1:0:0:
426,192,115500,1,0,1:1:0:0:
308,30,115714,1,0,1:1:0:0:
280,80,115928,1,0,3:1:0:0:
232,108,116035,1,0,3:1:0:0:
176,116,116142,1,0,3:1:0:0:
448,324,116357,5,0,1:1:0:0:
445,44,116571,1,0,1:1:0:0:
159,323,116785,1,0,1:1:0:0:
158,42,117000,1,0,1:1:0:0:
297,185,117214,1,0,1:1:0:0:
451,58,117428,2,0,P|435:94|438:148,1,80.000000298023,0|0,1:1|1:1,1:1:0:0:
420,213,117857,5,0,3:3:0:0:
411,251,117964,1,0,3:3:0:0:
393,287,118071,1,0,3:3:0:0:
361,311,118178,1,0,3:3:0:0:
324,328,118285,2,0,P|252:310|220:291,1,80.000000298023,0|0,3:1|1:1,1:1:0:0:
207,238,118714,1,0,1:1:0:0:
145,289,118928,1,0,1:1:0:0:
159,165,119142,5,0,1:1:0:0:
197,153,119357,1,0,3:3:0:0:
236,151,119464,1,0,3:3:0:0:
273,164,119571,1,0,3:3:0:0:
123,347,119785,5,0,1:1:0:0:
415,350,119999,1,0,1:1:0:0:
125,95,120213,1,0,1:1:0:0:
406,94,120428,1,0,1:1:0:0:
263,233,120642,1,0,1:1:0:0:
386,67,120857,5,0,1:1:0:0:
398,105,121072,1,0,3:1:0:0:
400,144,121179,1,0,3:1:0:0:
387,181,121286,1,0,3:1:0:0:
364,332,121500,5,0,1:1:0:0:
208,208,121714,1,0,1:1:0:0:
372,92,121928,1,0,1:1:0:0:
284,272,122142,1,0,1:1:0:0:
220,80,122357,1,0,1:1:0:0:
416,44,122571,5,0,1:1:0:0:
400,56,122785,1,0,3:1:0:0:
380,60,122892,1,0,3:1:0:0:
360,60,122999,1,0,3:1:0:0:
53,344,123214,6,0,P|111:316|109:302,1,80.000000298023
305,267,123642,1,0,1:1:0:0:
115,200,123857,1,0,1:1:0:0:
309,153,124071,1,0,1:1:0:0:
121,84,124285,1,0,1:1:0:0:
389,325,124500,1,0,1:1:0:0:
440,240,124714,5,0,3:1:0:0:
412,200,124821,1,0,3:1:0:0:
376,168,124928,1,0,3:1:0:0:
332,152,125035,1,0,3:1:0:0:
284,144,125142,2,0,L|200:172,2,80.000000298023,0|0|0,1:1|1:1|1:1,1:1:0:0:
376,112,125785,1,0,1:1:0:0:
416,44,126000,5,0,1:1:0:0:
400,56,126214,1,0,3:1:0:0:
380,60,126321,1,0,3:1:0:0:
360,60,126428,1,0,3:1:0:0:
278,110,126642,6,0,L|194:113,2,80.000000298023,0|0|0,1:1|1:1|1:1,1:1:0:0:
379,234,127285,1,0,1:1:0:0:
224,277,127500,1,0,1:1:0:0:
309,141,127714,1,0,1:1:0:0:
169,63,127928,1,0,1:1:0:0:
15,106,128142,2,0,P|54:153|85:157,2,80.000000298023,0|0|0,1:1|1:1|1:1,1:1:0:0:
208,362,128785,5,0,1:1:0:0:
372,86,129000,1,0,1:1:0:0:
93,242,129214,1,0,1:1:0:0:
409,289,129428,1,0,1:1:0:0:
421,213,129642,2,0,L|376:207,2,40.0000001490115,0|0|0,3:1|3:1|3:1,3:1:0:0:
246,312,130071,2,0,P|189:269|162:280,1,80.000000298023,0|0,1:1|1:1,1:1:0:0:
67,275,130500,5,0,1:1:0:0:
125,170,130714,1,0,1:1:0:0:
161,259,130928,1,0,1:1:0:0:
218,182,131142,2,0,P|260:170|300:171,1,80.000000298023,0|0,1:1|1:1,1:1:0:0:
373,228,131571,2,0,P|423:280|428:317,1,80.000000298023,0|0,1:1|1:1,1:1:0:0:
400,378,132000,1,0,1:1:0:0:
400,378,132428,1,0,1:1:0:0:
422,187,132857,5,0,1:1:0:0:
394,170,133071,1,0,3:1:0:0:
364,158,133178,1,0,3:1:0:0:
332,154,133285,1,0,3:1:0:0:
223,149,133500,2,0,P|152:148|136:154,2,80.000000298023,0|0|0,1:1|1:1|1:1,1:1:0:0:
333,264,134142,1,0,1:1:0:0:
445,149,134357,1,0,1:1:0:0:
285,148,134571,5,0,1:1:0:0:
262,125,134785,1,0,3:1:0:0:
234,109,134892,1,0,3:1:0:0:
203,99,134999,1,0,3:1:0:0:
43,89,135214,5,0,1:1:0:0:
435,318,135428,1,0,1:1:0:0:
114,79,135642,1,0,1:1:0:0:
304,337,135857,1,0,1:1:0:0:
110,286,136071,1,0,1:1:0:0:
244,164,136285,5,0,1:1:0:0:
91,213,136500,2,0,L|136:207,2,40.0000001490115,0|0|0,3:1|3:1|3:1,3:1:0:0:
266,312,136929,2,0,P|323:269|350:280,1,80.000000298023,0|0,1:1|1:1,1:1:0:0:
445,275,137358,5,0,1:1:0:0:
387,170,137572,1,0,1:1:0:0:
351,259,137786,1,0,1:1:0:0:
294,182,138000,2,0,P|252:170|212:171,1,80.000000298023,0|0,1:1|1:1,1:1:0:0:
139,228,138429,2,0,P|89:280|84:317,1,80.000000298023,0|0,1:1|1:1,1:1:0:0:
112,378,138858,5,0,1:1:0:0:
112,378,139286,1,0,1:1:0:0:
174,285,139714,1,0,1:1:0:0:
241,373,140142,1,0,1:1:0:0:
256,192,140571,1,8,2:1:0:0:
