osu file format v14

[General]
AudioFilename: audio.mp3
AudioLeadIn: 0
PreviewTime: 2638
Countdown: 0
SampleSet: Soft
StackLeniency: 0.7
Mode: 0
LetterboxInBreaks: 0
WidescreenStoryboard: 0

[Editor]
DistanceSpacing: 1
BeatDivisor: 4
GridSize: 32
TimelineZoom: 1.800001

[Metadata]
Title:Tang Li Jian Xue
TitleUnicode:棠梨煎雪
Artist:Yin Lin
ArtistUnicode:银临
Creator:AIR
Version:Normal
Source:
Tags:腐草为萤 灰原穷 商连 临江仙 nostalgic
BeatmapID:1678338
BeatmapSetID:799357

[Difficulty]
HPDrainRate:2
CircleSize:3
OverallDifficulty:4
ApproachRate:5
SliderMultiplier:2.2
SliderTickRate:1

[Events]
//Background and Video events
0,0,"67298792_p0.jpg",0,0
//Break Periods
2,116244,125275
2,205914,209670
//Storyboard Layer 0 (Background)
//Storyboard Layer 1 (Fail)
//Storyboard Layer 2 (Pass)
//Storyboard Layer 3 (Foreground)
//Storyboard Sound Samples

[TimingPoints]
2638,659.340659340659,4,2,1,50,1,0
12528,-100,4,2,1,5,0,0
13187,-100,4,2,1,50,0,0
73846,-100,4,2,1,80,0,1
115385,-100,4,2,1,50,0,0
163517,-100,4,2,1,80,0,1
205055,-100,4,2,1,50,0,0
205714,-100,4,2,2,50,0,0
210883,759.493670886076,4,2,2,40,1,0
211642,705.882352941176,4,2,2,40,1,0
212700,736.196319018405,4,2,2,40,1,0
213068,697.674418604651,4,2,2,40,1,0
213416,727.272727272727,4,2,2,40,1,0
213779,718.562874251497,4,2,2,40,1,0
214856,784.313725490196,4,2,2,40,1,0
215248,789.473684210526,4,2,2,40,1,0
216037,-100,4,2,2,5,0,0
216826,677.966101694915,4,2,2,40,1,0
217164,740.740740740741,4,2,2,40,1,0
217534,731.707317073171,4,2,2,40,1,0
217899,693.64161849711,4,2,2,40,1,0
218245,722.89156626506,4,2,2,40,1,0
218606,710.059171597633,4,2,2,40,1,0
219316,727.272727272727,4,2,2,40,1,0
220043,736.196319018405,4,2,2,40,1,0
220411,693.64161849711,4,2,2,40,1,0
220757,888.888888888889,4,2,2,40,1,0
222089,1363.63636363636,4,2,2,5,1,0
222770,810.810810810811,4,2,2,35,1,0
223175,789.473684210526,4,2,2,35,1,0
223569,769.230769230769,4,2,2,35,1,0
223953,784.313725490196,4,2,2,35,1,0
224345,754.716981132075,4,2,2,35,1,0
224722,714.285714285714,4,2,2,35,1,0
225079,845.070422535211,4,2,2,35,1,0
225501,810.810810810811,4,2,2,35,1,0
226311,681.818181818182,4,2,2,5,1,0
226651,693.64161849711,4,2,2,35,1,0
227518,827.586206896552,4,2,2,35,1,0
228759,839.160839160839,4,2,2,35,1,0
229178,769.230769230769,4,2,2,35,1,0
229562,727.272727272727,4,2,2,35,1,0
229925,774.193548387097,4,2,2,35,1,0
230699,845.070422535211,4,2,2,35,1,0
231121,857.142857142857,4,2,2,35,1,0
231549,827.586206896552,4,2,2,35,1,0
232376,923.076923076923,4,2,2,30,1,0
232837,827.586206896552,4,2,2,30,1,0
233250,1008.40336134454,4,2,2,30,1,0
233754,930.232558139535,4,2,2,30,1,0
234219,1111.11111111111,4,2,2,25,1,0
234774,1363.63636363636,4,2,2,25,1,0
235455,1764.70588235294,4,2,2,20,1,0
236337,2222.22222222222,4,2,2,15,1,0
237448,-100,4,2,2,5,0,0

[Colours]
Combo1 : 255,255,96
Combo2 : 111,111,111
Combo3 : 255,68,68
Combo4 : 0,217,108
Combo5 : 83,83,255

[HitObjects]
360,101,2638,6,0,P|411:92|434:152,1,110,4|0,0:0|0:0,0:0:0:0:
436,246,3297,2,0,P|409:290|358:281,1,110
256,239,3956,2,0,L|148:255,2,110
256,128,4945,1,0,0:0:0:0:
256,128,5275,6,0,B|150:162|161:57|37:97,1,220,4|0,0:0|0:0,0:0:0:0:
85,197,6264,1,0,0:0:0:0:
85,197,6594,1,0,0:0:0:0:
181,278,7912,6,0,P|167:320|203:374,1,110,4|0,0:0|0:0,0:0:0:0:
310,372,8572,2,0,P|341:329|328:277,1,110
260,191,9231,2,0,P|242:143|243:69,2,110
369,178,10220,1,0,0:0:0:0:
369,178,10550,6,0,B|322:98|381:24|381:24|455:47,1,220,4|0,0:0|0:0,0:0:0:0:
490,133,11539,1,0,0:0:0:0:
490,133,11868,2,0,B|537:213|478:287|478:287|404:264,1,220
252,135,13187,6,0,P|183:93|146:109,1,110,4|0,0:0|0:0,0:0:0:0:
78,172,13846,2,0,P|115:209|169:207,1,110
265,261,14506,2,0,L|255:378,2,110
173,322,15495,1,0,0:0:0:0:
173,322,15824,6,0,B|294:264|270:398|397:335,1,220,4|0,0:0|0:0,0:0:0:0:
487,358,16813,1,0,0:0:0:0:
487,358,17143,1,0,0:0:0:0:
47,371,18462,6,0,L|68:249,1,110,4|0,0:0|0:0,0:0:0:0:
64,152,19121,2,0,L|45:43,1,110
153,63,19780,1,0,0:0:0:0:
260,39,20110,2,0,L|256:108,2,55
365,70,20769,1,0,0:0:0:0:
463,20,21099,6,0,B|534:103|399:154|489:238,1,220,4|0,0:0|0:0,0:0:0:0:
485,334,22088,1,0,0:0:0:0:
485,334,22418,1,0,0:0:0:0:
156,367,23407,2,0,L|88:363,1,55
46,357,23736,6,0,B|-25:274|110:223|20:139,1,220,4|0,0:0|0:0,0:0:0:0:
24,43,24725,1,0,0:0:0:0:
24,43,25055,1,0,0:0:0:0:
437,192,26374,5,0,3:0:0:0:
342,247,26703,1,0,0:0:0:0:
231,245,27033,2,0,L|247:127,1,110
182,45,27692,2,0,P|130:36|7:147,1,220
124,322,29011,6,0,P|159:306|225:341,1,110,4|0,0:0|0:0,0:0:0:0:
330,345,29670,2,0,P|365:361|431:326,1,110
493,245,30330,2,0,B|543:144|417:135|485:29,1,220
260,20,31648,5,0,3:0:0:0:
205,115,31978,1,0,0:0:0:0:
310,147,32308,2,0,P|345:199|333:251,1,110
260,320,32967,2,0,B|182:339|151:272|151:272|83:278|71:346,1,220
12,107,34286,6,0,P|55:138|121:104,1,110,4|0,0:0|0:0,0:0:0:0:
205,75,34945,2,0,L|207:203,1,110
269,276,35605,2,0,L|379:270,1,110
488,277,36264,2,0,P|493:218|449:194,1,110
365,133,36923,1,0,3:0:0:0:
388,25,37253,5,0,0:0:0:0:
278,29,37583,2,0,L|156:32,1,110
58,38,38242,2,0,B|-63:127|68:227,1,220
164,197,39231,1,0,0:0:0:0:
263,149,39561,2,0,B|292:201|260:254|260:254|335:272|339:339,2,220,4|4|4,0:0|0:0|0:2,0:0:0:0:
250,359,42198,6,0,P|200:325|214:281,1,110,0|0,3:0|0:0,0:0:0:0:
301,221,42857,2,0,L|420:233,1,110
485,150,43517,2,0,L|375:138,1,110,4|0,0:0|0:0,0:0:0:0:
266,121,44176,2,0,L|238:1,1,110
131,21,44835,2,0,B|106:70|157:102|157:102|86:125|75:188,2,220,4|4|4,0:0|0:0|0:0,0:0:0:0:
512,147,47473,6,0,L|393:162,1,110,2|0,0:0|0:0,0:0:0:0:
362,197,47967,2,0,B|281:221|297:144|199:175,1,165,2|2,0:0|0:0,0:0:0:0:
136,258,48791,2,0,L|141:381,1,110,0|2,0:0|0:0,0:0:0:0:
35,333,49451,2,0,B|-22:200|108:140,1,220,8|6,0:0|0:0,0:0:0:0:
191,94,50440,6,0,L|197:24,2,55,0|2|0,0:0|0:0|0:0,0:0:0:0:
299,73,51099,1,2,0:0:0:0:
396,21,51429,2,0,L|410:138,1,110,0|2,0:0|0:0,0:0:0:0:
493,200,52088,1,8,0:0:0:0:
441,220,52253,2,0,L|455:337,1,110,2|0,0:0|0:0,0:0:0:0:
410,363,52747,6,0,P|343:313|261:331,1,165,6|2,0:0|0:0,0:0:0:0:
221,358,53407,2,0,P|173:370|125:335,1,110,0|2,0:0|0:0,0:0:0:0:
20,366,54066,2,0,L|46:251,1,110,0|2,0:0|0:0,0:0:0:0:
42,148,54725,2,0,B|-7:-5|156:30,1,220,8|6,0:0|0:0,0:0:0:0:
252,68,55714,6,0,P|257:102|246:129,2,55,0|2|0,0:0|0:0|0:0,0:0:0:0:
153,118,56374,1,2,0:0:0:0:
202,215,56703,2,0,L|215:332,1,110,0|2,0:0|0:0,0:0:0:0:
104,337,57363,1,8,0:0:0:0:
51,353,57528,2,0,L|46:238,1,110,2|0,0:0|0:0,0:0:0:0:
40,187,58022,6,0,P|124:192|213:220,1,165,6|2,0:0|0:0,0:0:0:0:
256,215,58681,2,0,P|315:200|378:191,1,110,0|2,0:0|0:0,0:0:0:0:
470,220,59341,2,0,P|508:269|484:333,2,110,0|2|8,0:0|0:0|0:0,0:0:0:0:
469,165,60165,2,0,P|485:84|430:29,1,165,2|6,0:0|0:0,0:0:0:0:
337,86,60989,6,0,P|322:66|319:35,2,55,0|2|0,0:0|0:0|0:0,0:0:0:0:
246,149,61648,1,2,0:0:0:0:
186,56,61978,2,0,L|60:65,1,110,0|2,0:0|0:0,0:0:0:0:
19,158,62638,1,8,0:0:0:0:
42,207,62802,2,0,L|167:198,1,110,2|0,0:0|0:0,0:0:0:0:
201,222,63297,6,0,B|273:293|180:307|241:374,1,165,6|2,0:0|0:0,0:0:0:0:
293,372,63956,2,0,L|415:368,1,110,0|2,0:0|0:0,0:0:0:0:
498,312,64616,2,0,P|503:259|452:217,1,110,0|2,0:0|0:0,0:0:0:0:
362,183,65275,2,0,P|323:131|406:17,1,220,8|6,0:0|0:0,0:0:0:0:
472,97,66264,6,0,L|413:109,2,55,0|2|0,0:0|0:0|0:0,0:0:0:0:
463,206,66923,1,2,0:0:0:0:
493,311,67253,2,0,L|366:339,1,110,0|2,0:0|0:0,0:0:0:0:
330,337,67747,2,0,L|162:329,1,165
54,326,68572,5,6,0:0:0:0:
59,216,68901,2,0,L|35:148,2,55,0|2|0,0:0|0:0|0:0,0:0:0:0:
169,220,69561,1,2,0:0:0:0:
275,191,69890,2,0,L|235:69,1,110,0|2,0:0|0:0,0:0:0:0:
153,19,70550,1,8,0:0:0:0:
98,21,70714,2,0,B|-2:62|64:166,1,165,2|6,0:0|0:0,0:0:0:0:
121,243,71539,6,0,P|92:264|74:296,2,55,0|2|0,0:0|0:0|3:0,0:0:0:0:
172,340,72198,1,2,0:0:0:0:
273,296,72528,2,0,L|389:318,1,110,0|2,0:0|0:0,0:0:0:0:
488,338,73187,2,0,B|510:253|424:266|448:172,1,165,0|0,1:1|0:0,0:0:0:0:
472,138,73846,6,0,B|522:82|452:23,1,110,4|2,3:2|0:0,0:0:0:0:
364,5,74506,2,0,B|314:61|384:120,1,110,8|2,0:0|0:0,0:0:0:0:
256,103,75165,2,0,B|153:41|148:157|34:81,2,220,0|8|4,0:0|0:0|0:0,0:0:0:0:
304,201,76813,5,2,0:0:0:0:
194,188,77143,1,8,0:0:0:0:
239,288,77473,1,2,0:0:0:0:
347,303,77802,2,0,L|477:305,2,110,0|2|8,0:0|0:0|0:0,0:0:0:0:
127,313,79121,6,0,B|95:370|24:348,1,110,4|2,3:2|0:0,0:0:0:0:
3,244,79780,2,0,B|35:187|106:209,1,110,8|2,0:0|0:0,0:0:0:0:
180,134,80440,2,0,L|161:10,1,110,0|2,0:0|0:0,0:0:0:0:
273,29,81099,2,0,L|289:137,1,110,8|2,0:0|0:0,0:0:0:0:
387,187,81758,6,0,B|457:228|506:175|506:175|525:120|458:97,1,220,4|8,0:0|0:0,0:0:0:0:
365,79,82747,1,2,0:0:0:0:
387,187,83077,2,0,L|403:295,1,110,0|2,0:0|0:0,0:0:0:0:
322,370,83736,2,0,B|298:284|219:273|192:335,1,165,8|8,0:0|0:0,0:0:0:0:
164,358,84396,5,4,3:2:0:0:
54,370,84725,2,0,L|62:259,1,110,2|8,0:0|0:0,0:0:0:0:
59,149,85385,1,2,0:0:0:0:
168,146,85714,2,0,B|220:83|181:18|181:18|116:-4|96:47,1,220,0|8,0:0|0:0,0:0:0:0:
216,219,87033,5,4,0:0:0:0:
274,127,87363,2,0,L|395:153,1,110,2|8,0:0|0:0,0:0:0:0:
484,111,88022,1,2,0:0:0:0:
471,220,88352,2,0,L|485:335,1,110,0|2,0:0|0:0,0:0:0:0:
376,349,89011,2,0,B|274:395|274:283|166:339,1,220,8|4,0:0|3:2,0:0:0:0:
62,369,90000,5,2,0:0:0:0:
55,259,90330,2,0,B|-2:218|38:156,1,110,8|2,0:0|0:0,0:0:0:0:
136,203,90989,2,0,B|171:148|114:107,1,110,0|2,0:0|0:0,0:0:0:0:
54,16,91648,2,0,L|184:25,1,110,8|2,0:0|0:0,0:0:0:0:
261,74,92308,6,0,B|279:11|360:2|392:59,1,165,4|0,0:0|0:0,0:0:0:0:
412,104,92967,2,0,B|459:144|514:103,1,110,8|2,0:0|0:0,0:0:0:0:
494,213,93627,2,0,L|501:326,1,110,0|2,0:0|0:0,0:0:0:0:
400,369,94286,1,8,0:0:0:0:
345,364,94451,2,0,L|338:255,1,110,2|8,0:0|0:0,0:0:0:0:
286,235,94945,6,0,B|232:198|170:239,1,110,4|2,3:2|0:0,0:0:0:0:
121,324,95605,2,0,B|65:359|3:318,2,110,8|2|0,0:0|0:0|0:0,0:0:0:0:
67,227,96594,1,2,0:0:0:0:
17,129,96923,2,0,L|44:8,1,110,8|2,0:0|0:0,0:0:0:0:
151,20,97583,6,0,P|213:75|226:168,1,165,4|2,0:0|0:0,0:0:0:0:
218,206,98242,2,0,P|223:255|282:256,1,110,8|2,0:0|0:0,0:0:0:0:
362,194,98901,2,0,L|480:191,2,110,0|2|8,0:0|0:0|0:0,0:0:0:0:
481,379,100220,6,0,B|406:356|442:271,1,110,4|2,3:2|0:0,0:0:0:0:
471,191,100879,2,0,B|500:129|435:96,1,110,8|2,0:0|0:0,0:0:0:0:
343,45,101539,2,0,L|350:161,1,110,0|2,0:0|0:0,0:0:0:0:
237,162,102198,2,0,L|231:38,1,110,8|2,0:0|0:0,0:0:0:0:
149,125,102857,6,0,B|92:186|23:135|23:135|3:86|44:50,1,220,4|8,0:0|0:0,0:0:0:0:
131,13,103846,1,2,0:0:0:0:
149,125,104176,2,0,L|154:234,1,110,0|2,0:0|0:0,0:0:0:0:
122,340,104835,1,8,0:0:0:0:
231,354,105165,2,0,L|299:345,1,55,8|8,0:0|0:0,0:0:0:0:
340,345,105495,6,0,L|462:331,1,110,4|2,3:2|0:0,0:0:0:0:
389,240,106154,2,0,L|511:226,1,110,8|2,0:0|0:0,0:0:0:0:
500,117,106813,2,0,B|457:64|388:106,1,110,0|2,0:0|0:0,0:0:0:0:
294,126,107473,2,0,B|211:187|134:100,1,165,8|0,0:0|0:0,0:0:0:0:
130,59,108132,5,4,0:0:0:0:
20,72,108462,2,0,L|25:186,1,110,2|8,0:0|0:0,0:0:0:0:
30,291,109121,1,2,0:0:0:0:
139,284,109451,2,0,L|249:291,2,110,0|2|8,0:0|0:0|0:0,0:0:0:0:
358,299,110769,6,0,B|387:361|463:334,1,110,4|2,3:2|0:0,0:0:0:0:
487,234,111429,2,0,B|458:172|382:199,1,110,8|2,0:0|0:0,0:0:0:0:
285,192,112088,2,0,B|215:215|177:142,1,110,0|2,0:0|0:0,0:0:0:0:
176,51,112747,2,0,B|246:28|284:101,1,110,8|2,0:0|0:0,0:0:0:0:
188,160,113407,6,0,L|70:181,1,110,4|2,0:0|0:0,0:0:0:0:
111,284,114066,2,0,L|-7:305,2,110,8|2|0,0:0|0:0|0:0,0:0:0:0:
220,290,115055,2,0,P|245:301|276:301,1,55,2|0,0:0|0:0,0:0:0:0:
327,301,115385,6,0,B|410:297|456:353|456:353|510:332|497:279,1,220,8|4,0:0|0:0,0:0:0:0:
256,74,126594,6,0,P|308:129|274:224,1,165,6|2,0:0|0:0,0:0:0:0:
242,236,127253,2,0,P|208:276|228:349,1,110,0|2,0:0|0:0,0:0:0:0:
321,310,127912,2,0,L|437:317,1,110,0|2,0:0|0:0,0:0:0:0:
498,228,128572,1,8,0:0:0:0:
479,176,128736,2,0,L|297:163,2,165,2|2|2,0:0|0:0|0:0,0:0:0:0:
504,12,130220,1,2,0:0:0:0:
395,29,130550,2,0,L|276:41,2,110,0|2|8,0:0|0:0|0:0,0:0:0:0:
175,23,131868,6,0,P|160:86|70:117,1,165,2|2,0:0|0:0,0:0:0:0:
29,82,132528,2,0,P|32:38|96:37,2,110,0|2|0,0:0|0:0|0:0,0:0:0:0:
30,192,133517,1,2,0:0:0:0:
14,300,133846,1,8,0:0:0:0:
67,289,134011,2,0,L|241:298,2,165,2|2|2,0:0|0:0|0:0,0:0:0:0:
203,195,135495,2,0,L|337:201,1,110,2|0,0:0|0:0,0:0:0:0:
422,205,136154,1,2,0:0:0:0:
495,122,136484,1,8,0:0:0:0:
455,84,136648,2,0,B|382:13|310:94,1,165,2|6,0:0|0:0,0:0:0:0:
207,125,137473,6,0,L|204:57,1,55,0|2,0:0|0:0,0:0:0:0:
155,44,137802,2,0,L|27:42,1,110,0|2,0:0|0:0,0:0:0:0:
31,151,138462,2,0,P|7:200|33:257,1,110,0|2,0:0|0:0,0:0:0:0:
80,344,139121,2,0,P|130:284|108:195,1,165,8|0,0:0|0:0,0:0:0:0:
170,200,139780,6,0,L|361:198,1,165,6|2,0:0|0:0,0:0:0:0:
365,244,140440,2,0,L|354:366,1,110,0|2,0:0|0:0,0:0:0:0:
464,363,141099,2,0,L|473:253,1,110,0|2,0:0|0:0,0:0:0:0:
447,146,141758,1,8,0:0:0:0:
498,165,141923,2,0,L|507:55,1,110,2|0,0:0|0:0,0:0:0:0:
456,33,142418,6,0,L|269:56,1,165,2|2,0:0|0:0,0:0:0:0:
237,54,143077,2,0,L|121:35,1,110,0|2,0:0|0:0,0:0:0:0:
20,13,143736,2,0,L|22:137,1,110,0|2,0:0|0:0,0:0:0:0:
81,215,144396,2,0,P|32:320|120:345,1,220,8|6,0:0|0:0,0:0:0:0:
203,301,145385,6,0,L|255:324,2,55,0|2|0,0:0|0:0|0:0,0:0:0:0:
211,191,146044,1,2,0:0:0:0:
307,243,146374,2,0,L|425:297,1,110,0|2,0:0|0:0,0:0:0:0:
494,222,147033,1,8,0:0:0:0:
486,167,147198,2,0,P|510:125|459:77,1,110,2|0,0:0|0:0,0:0:0:0:
426,58,147692,6,0,P|364:60|354:155,1,165,2|2,0:0|0:0,0:0:0:0:
302,179,148352,2,0,L|190:202,1,110,0|2,0:0|0:0,0:0:0:0:
114,277,149011,2,0,L|2:300,2,110,0|2|8,0:0|0:0|0:0,0:0:0:0:
97,224,149835,2,0,P|53:198|25:80,1,165,2|6,0:0|0:0,0:0:0:0:
93,11,150659,6,0,P|122:42|122:74,2,55,0|2|0,0:0|0:0|0:0,0:0:0:0:
21,94,151319,1,2,0:0:0:0:
107,161,151648,2,0,P|165:135|230:140,1,110,0|2,0:0|0:0,0:0:0:0:
264,231,152308,1,8,0:0:0:0:
305,194,152473,2,0,P|354:218|416:217,1,110,2|0,0:0|0:0,0:0:0:0:
463,210,152967,6,0,B|516:176|506:113|506:113|487:85|446:95,1,165,2|2,0:0|0:0,0:0:0:0:
414,122,153627,2,0,L|305:95,1,110,0|2,0:0|0:0,0:0:0:0:
218,160,154286,2,0,L|109:133,2,110,0|2|8,0:0|0:0|0:0,0:0:0:0:
139,365,155605,5,6,0:0:0:0:
247,349,155934,2,0,L|257:289,2,55,0|2|0,0:0|0:0|0:0,0:0:0:0:
355,372,156594,1,2,0:0:0:0:
461,346,156923,2,0,L|481:218,1,110,0|2,0:0|0:0,0:0:0:0:
482,182,157418,2,0,L|299:211,1,165
212,179,158242,5,2,0:0:0:0:
220,69,158572,2,0,L|232:11,2,55,0|2|0,0:0|0:0|0:0,0:0:0:0:
117,29,159231,1,2,0:0:0:0:
7,14,159561,2,0,L|19:129,1,110,0|2,0:0|0:0,0:0:0:0:
93,203,160220,1,8,0:0:0:0:
45,231,160385,2,0,P|0:308|48:383,1,165,2|6,0:0|0:0,0:0:0:0:
135,340,161209,6,0,L|81:299,2,55,0|2|0,0:0|0:0|3:0,0:0:0:0:
232,288,161868,1,2,0:0:0:0:
274,186,162198,2,0,L|187:116,1,110,0|2,0:0|0:0,0:0:0:0:
275,50,162857,2,0,B|369:23|353:105|448:67,1,165,4|0,1:0|0:0,0:0:0:0:
486,62,163517,6,0,L|477:173,1,110,4|2,3:2|0:0,0:0:0:0:
407,256,164176,2,0,L|398:367,1,110,8|2,0:0|0:0,0:0:0:0:
302,311,164835,2,0,B|205:238|111:299|144:376,2,220,0|8|4,0:0|0:0|0:0,0:0:0:0:
284,201,166484,5,2,0:0:0:0:
179,166,166814,1,8,0:0:0:0:
258,89,167144,1,2,0:0:0:0:
154,52,167473,2,0,P|89:61|30:55,2,110,0|2|8,0:0|0:0|0:0,0:0:0:0:
16,223,168791,6,0,P|79:231|97:280,1,110,4|2,3:2|0:0,0:0:0:0:
204,295,169451,2,0,L|220:178,1,110,8|2,0:0|0:0,0:0:0:0:
307,250,170110,2,0,P|335:294|388:295,1,110,0|2,0:0|0:0,0:0:0:0:
495,267,170769,2,0,L|509:158,1,110,8|2,0:0|0:0,0:0:0:0:
495,48,171429,6,0,B|426:-1|346:47|346:47|384:82|372:122,1,220,4|8,0:0|0:0,0:0:0:0:
269,130,172418,1,2,0:0:0:0:
160,145,172747,2,0,P|163:89|203:45,1,110,0|2,0:0|0:0,0:0:0:0:
269,130,173407,2,0,B|279:222|279:222|258:257|261:293,1,165,8|8,0:0|0:0,0:0:0:0:
304,324,174066,5,4,3:2:0:0:
395,262,174396,2,0,P|454:272|505:300,1,110,2|8,0:0|0:0,0:0:0:0:
479,186,175056,1,2,0:0:0:0:
496,77,175385,2,0,P|403:110|262:109,1,220,0|8,0:0|0:0,0:0:0:0:
79,26,176703,5,4,0:0:0:0:
137,118,177033,2,0,L|117:240,1,110,2|8,0:0|0:0,0:0:0:0:
19,274,177693,1,2,0:0:0:0:
101,346,178022,2,0,L|221:336,1,110
298,270,178681,2,0,B|366:300|395:364|395:364|428:326|476:329,1,220,8|4,0:0|3:2,0:0:0:0:
490,221,179671,5,2,0:0:0:0:
462,114,180000,2,0,B|505:58|444:5,1,110,8|2,0:0|0:0,0:0:0:0:
358,69,180659,2,0,B|315:125|376:178,1,110,0|2,0:0|0:0,0:0:0:0:
259,199,181319,2,0,L|135:214,1,110,8|2,0:0|0:0,0:0:0:0:
40,224,181978,6,0,B|-34:128|48:72,1,165,4|2,0:0|0:0,0:0:0:0:
92,64,182638,2,0,P|137:75|125:140,1,110,8|2,0:0|0:0,0:0:0:0:
133,240,183297,2,0,L|128:359,1,110,0|2,0:0|0:0,0:0:0:0:
238,345,183957,1,8,0:0:0:0:
283,314,184121,2,0,L|410:331,1,110,2|8,0:0|0:0,0:0:0:0:
447,334,184616,6,0,L|430:203,1,110,4|2,3:2|0:0,0:0:0:0:
421,115,185275,2,0,P|467:38|504:17,2,110,8|2|0,0:0|0:0|0:0,0:0:0:0:
315,147,186265,1,2,0:0:0:0:
283,41,186594,2,0,L|161:53,1,110,8|2,0:0|0:0,0:0:0:0:
71,11,187253,6,0,B|-25:33|-3:149|77:118,1,165,4|2,0:0|0:0,0:0:0:0:
98,105,187912,2,0,P|146:144|137:215,1,110,8|2,0:0|0:0,0:0:0:0:
100,287,188572,2,0,L|5:377,2,110,0|2|8,0:0|0:0|0:0,0:0:0:0:
316,247,189890,6,0,P|367:287|422:282,1,110,4|2,3:2|0:0,0:0:0:0:
479,200,190550,2,0,P|428:160|373:165,1,110,8|2,0:0|0:0,0:0:0:0:
276,147,191209,2,0,L|283:21,1,110,0|2,0:0|0:0,0:0:0:0:
172,41,191868,2,0,L|165:150,1,110,8|2,0:0|0:0,0:0:0:0:
99,239,192528,6,0,B|14:263|19:360|19:360|57:381|102:359,1,220,4|8,0:0|0:0,0:0:0:0:
179,325,193517,1,2,0:0:0:0:
267,259,193846,2,0,P|310:295|317:351,1,110,0|2,0:0|0:0,0:0:0:0:
425,371,194506,1,8,0:0:0:0:
498,289,194835,2,0,L|456:226,1,55,8|8,0:0|0:0,0:0:0:0:
434,198,195165,6,0,L|452:81,1,110,4|2,3:2|0:0,0:0:0:0:
344,119,195824,2,0,L|362:2,1,110,8|2,0:0|0:0,0:0:0:0:
258,51,196484,2,0,P|217:69|152:49,1,110,0|2,0:0|0:0,0:0:0:0:
53,12,197143,2,0,B|7:95|107:107|35:188,1,165,8|0,0:0|0:0,0:0:0:0:
6,203,197803,5,4,0:0:0:0:
62,297,198132,2,0,L|185:262,1,110,2|8,0:0|0:0,0:0:0:0:
273,234,198792,1,2,0:0:0:0:
362,297,199121,2,0,P|414:324|408:378,2,110,0|2|8,0:0|0:0|0:0,0:0:0:0:
209,138,200440,6,0,P|160:116|173:46,1,110,4|2,3:2|0:0,0:0:0:0:
254,14,201099,2,0,L|381:21,1,110,8|2,0:0|0:0,0:0:0:0:
473,28,201758,2,0,L|451:150,1,110,0|2,0:0|0:0,0:0:0:0:
374,213,202418,2,0,L|352:335,1,110,8|2,0:0|0:0,0:0:0:0:
452,371,203077,6,0,P|481:336|452:283,1,110,4|2,0:0|0:0,0:0:0:0:
354,321,203736,2,0,L|232:328,1,110,8|2,0:0|0:0,0:0:0:0:
134,336,204396,1,0,0:0:0:0:
29,302,204725,2,0,P|34:260|64:255,1,55,2|0,0:0|0:0,0:0:0:0:
82,219,205055,6,0,B|162:139|101:31|35:73,1,220,8|4,0:0|0:0,0:0:0:0:
505,142,210883,6,0,L|385:147,1,110,4|0,0:0|0:0,0:0:0:0:
407,264,211642,2,0,L|295:269,1,110
231,180,212347,2,0,L|119:185,1,110
32,109,213068,2,0,P|73:71|130:80,1,110
121,184,213779,6,0,B|139:233|109:276|109:276|176:307|207:373,1,220,4|0,0:0|0:0,0:0:0:0:
298,340,214856,1,0,0:0:0:0:
403,367,215248,2,0,B|519:286|425:169,1,220
225,27,216826,6,0,P|223:89|238:143,1,110,4|0,0:0|0:0,0:0:0:0:
154,211,217534,2,0,P|136:162|125:98,1,110
25,136,218245,2,0,P|38:186|62:242,1,110
139,316,218961,2,0,P|185:315|252:326,1,110
357,324,219679,6,0,P|431:303|472:302,1,110,4|0,0:0|0:0,0:0:0:0:
495,188,220411,2,0,P|446:179|379:153,1,110
386,48,221201,2,0,B|287:102|285:4|168:57,1,220
60,199,222770,5,4,0:0:0:0:
169,170,223175,2,0,P|141:222|157:284,1,110
242,322,223953,1,0,0:0:0:0:
346,275,224345,2,0,P|353:225|319:160,1,110
298,84,225079,2,0,L|414:77,1,110
471,166,225906,6,0,P|497:208|506:271,1,110,4|0,0:0|0:0,0:0:0:0:
428,341,226651,2,0,B|333:351|285:266|285:266|249:322|183:297,1,275
14,351,228759,5,0,0:0:0:0:
94,262,229178,2,0,L|115:148,1,110,4|0,0:0|0:0,0:0:0:0:
47,75,229925,2,0,B|108:29|182:70|182:70|199:122|244:134,1,220
335,119,231121,2,0,P|343:87|283:42,1,110
259,235,232376,6,0,P|296:271|360:273,1,110,4|0,0:0|0:0,0:0:0:0:
335,187,233250,2,0,P|382:166|408:105,1,110
316,99,234219,2,0,P|306:54|252:15,1,110
232,97,235455,2,0,P|192:96|145:152,1,110
256,192,237448,12,4,240781,0:0:0:0:
