osu file format v14

[General]
AudioFilename: audio.mp3
AudioLeadIn: 0
PreviewTime: 2638
Countdown: 0
SampleSet: Soft
StackLeniency: 0.7
Mode: 0
LetterboxInBreaks: 0
WidescreenStoryboard: 0

[Editor]
DistanceSpacing: 1
BeatDivisor: 4
GridSize: 32
TimelineZoom: 2.100001

[Metadata]
Title:Tang Li Jian Xue
TitleUnicode:棠梨煎雪
Artist:Yin Lin
ArtistUnicode:银临
Creator:AIR
Version:Hard
Source:
Tags:腐草为萤 灰原穷 商连 临江仙 nostalgic
BeatmapID:1678640
BeatmapSetID:799357

[Difficulty]
HPDrainRate:4
CircleSize:4.5
OverallDifficulty:6
ApproachRate:8
SliderMultiplier:2.8
SliderTickRate:1

[Events]
//Background and Video events
0,0,"67298792_p0.jpg",0,0
//Break Periods
2,116244,125275
2,205914,209670
//Storyboard Layer 0 (Background)
//Storyboard Layer 1 (Fail)
//Storyboard Layer 2 (Pass)
//Storyboard Layer 3 (Foreground)
//Storyboard Sound Samples

[TimingPoints]
2638,659.340659340659,4,2,1,50,1,0
2638,-125,4,2,1,50,0,0
7253,-125,4,2,1,5,0,0
7912,-125,4,2,1,50,0,0
12528,-125,4,2,1,5,0,0
13187,-125,4,2,1,50,0,0
17802,-125,4,2,1,5,0,0
18462,-125,4,2,1,50,0,0
25714,-125,4,2,1,5,0,0
26374,-125,4,2,1,50,0,0
40055,-125,4,2,1,5,0,0
40220,-125,4,2,1,50,0,0
40714,-125,4,2,1,5,0,0
40879,-125,4,2,1,50,0,0
50110,-100,4,2,1,50,0,0
73846,-83.3333333333333,4,2,1,80,0,1
115385,-125,4,2,1,50,0,0
139780,-100,4,2,1,50,0,0
163517,-83.3333333333333,4,2,1,80,0,1
205055,-125,4,2,1,50,0,0
205714,-125,4,2,2,50,0,0
210883,759.493670886076,4,2,2,40,1,0
211642,705.882352941176,4,2,2,40,1,0
212700,736.196319018405,4,2,2,40,1,0
213068,697.674418604651,4,2,2,40,1,0
213416,727.272727272727,4,2,2,40,1,0
213779,718.562874251497,4,2,2,40,1,0
214317,-100,4,2,2,5,0,0
214497,-100,4,2,2,40,0,0
214856,784.313725490196,4,2,2,40,1,0
215248,789.473684210526,4,2,2,40,1,0
216037,-100,4,2,2,5,0,0
216826,677.966101694915,4,2,2,40,1,0
217164,740.740740740741,4,2,2,40,1,0
217534,731.707317073171,4,2,2,40,1,0
217899,693.64161849711,4,2,2,40,1,0
218245,722.89156626506,4,2,2,40,1,0
218606,710.059171597633,4,2,2,40,1,0
219316,727.272727272727,4,2,2,40,1,0
220043,736.196319018405,4,2,2,40,1,0
220411,693.64161849711,4,2,2,40,1,0
220757,888.888888888889,4,2,2,40,1,0
222089,1363.63636363636,4,2,2,5,1,0
222770,810.810810810811,4,2,2,35,1,0
223175,789.473684210526,4,2,2,35,1,0
223569,769.230769230769,4,2,2,35,1,0
223953,784.313725490196,4,2,2,35,1,0
224345,754.716981132075,4,2,2,35,1,0
224722,714.285714285714,4,2,2,35,1,0
225079,845.070422535211,4,2,2,35,1,0
225501,810.810810810811,4,2,2,35,1,0
226311,681.818181818182,4,2,2,5,1,0
226651,693.64161849711,4,2,2,35,1,0
227344,-100,4,2,2,5,0,0
227518,827.586206896552,4,2,2,35,1,0
228759,839.160839160839,4,2,2,35,1,0
229178,769.230769230769,4,2,2,35,1,0
229562,727.272727272727,4,2,2,35,1,0
229925,774.193548387097,4,2,2,35,1,0
230699,845.070422535211,4,2,2,35,1,0
231121,857.142857142857,4,2,2,35,1,0
231549,827.586206896552,4,2,2,35,1,0
232376,923.076923076923,4,2,2,30,1,0
232837,827.586206896552,4,2,2,30,1,0
233250,1008.40336134454,4,2,2,30,1,0
233754,930.232558139535,4,2,2,30,1,0
234219,1111.11111111111,4,2,2,25,1,0
234774,1363.63636363636,4,2,2,25,1,0
235455,1764.70588235294,4,2,2,20,1,0
236337,2222.22222222222,4,2,2,15,1,0
237448,-100,4,2,2,5,0,0

[Colours]
Combo1 : 255,255,96
Combo2 : 111,111,111
Combo3 : 255,68,68
Combo4 : 0,217,108
Combo5 : 83,83,255

[HitObjects]
423,192,2638,6,0,B|468:154|405:133|465:93,1,112,4|0,0:0|0:0,0:0:0:0:
357,153,3297,2,0,B|309:131|295:192|233:156,1,112,0|0,0:0|0:0,0:0:0:0:
348,233,3956,2,0,B|361:289|417:257|420:322,1,112,0|0,0:0|0:0,0:0:0:0:
286,309,4616,2,0,P|263:344|261:300,1,112,0|0,0:0|0:0,0:0:0:0:
127,267,5275,2,0,L|2:283,2,112,4|0|0,0:0|0:0|0:0,0:0:0:0:
38,173,6264,1,0,0:0:0:0:
5,276,6594,2,0,B|162:226|62:75|34:189,1,224
163,27,7912,6,0,B|225:44|177:100|245:117,1,112,4|0,0:0|0:0,0:0:0:0:
388,72,8572,2,0,B|340:90|331:30|261:60,1,112,0|0,0:0|0:0,0:0:0:0:
235,222,9231,2,0,B|241:174|311:182|297:115,1,112,0|0,0:0|0:0,0:0:0:0:
443,146,9890,2,0,P|478:161|452:117,1,112,0|0,0:0|0:0,0:0:0:0:
438,254,10550,2,0,L|486:377,2,112,4|0|0,0:0|0:0|0:0,0:0:0:0:
360,352,11539,1,0,0:0:0:0:
469,360,11868,2,0,B|401:200|275:341|379:358,1,224
152,257,13187,6,0,P|102:260|63:318,1,112,4|0,0:0|0:0,0:0:0:0:
147,179,13846,2,0,P|94:164|24:197,1,112,0|0,0:0|0:0,0:0:0:0:
175,113,14506,2,0,P|129:75|64:72,1,112,0|0,0:0|0:0,0:0:0:0:
228,183,15165,2,0,P|252:224|263:170,1,112,0|0,0:0|0:0,0:0:0:0:
465,115,15824,1,4,0:0:0:0:
390,43,16154,1,0,0:0:0:0:
368,149,16484,2,0,B|329:208|382:257|413:200,1,112,0|0,0:0|0:0,0:0:0:0:
509,254,17143,2,0,B|441:294|439:368|439:368|446:311|490:286,1,224
222,317,18462,6,0,L|100:330,1,112,4|0,0:0|0:0,0:0:0:0:
0,260,19121,2,0,L|120:247,1,112,0|0,0:0|0:0,0:0:0:0:
235,202,19780,1,0,0:0:0:0:
177,93,20110,2,0,P|151:103|136:143,1,56,0|0,0:0|0:0,0:0:0:0:
136,126,20440,2,0,B|169:74|83:26,1,112,0|0,0:0|0:0,0:0:0:0:
34,141,21099,5,4,0:0:0:0:
161,191,21429,1,0,0:0:0:0:
256,109,21758,1,0,0:0:0:0:
351,191,22088,1,0,0:0:0:0:
478,141,22418,1,0,0:0:0:0:
256,210,23462,6,0,P|246:218|247:231,3,18.6666666666667
320,261,23736,6,0,P|353:300|358:361,1,112,4|0,0:0|0:0,0:0:0:0:
246,224,24396,2,0,P|192:233|134:199,1,112,0|0,0:0|0:0,0:0:0:0:
322,179,25055,2,0,B|331:87|414:50|414:50|409:91|374:110,1,224,0|0,0:0|0:0,0:0:0:0:
55,142,26374,6,0,L|40:24,1,112,0|0,3:0|0:0,0:0:0:0:
175,54,27033,2,0,P|202:72|155:135,1,112,0|0,0:0|0:0,0:0:0:0:
91,219,27692,2,0,B|3:266|65:390|107:310,1,168,0|0,0:0|0:0,0:0:0:0:
141,297,28352,2,0,L|268:323,1,112,0|0,0:0|0:0,0:0:0:0:
399,344,29011,5,4,0:0:0:0:
489,239,29341,1,0,0:0:0:0:
354,208,29670,2,0,B|369:254|418:266|418:266|409:243,1,112,0|0,0:0|0:0,0:0:0:0:
281,156,30330,2,0,B|260:230|166:237|166:237|147:193|86:191,1,224,0|0,0:0|0:0,0:0:0:0:
110,193,31319,1,0,0:0:0:0:
1,240,31648,6,0,B|37:308|116:258,1,112,0|0,3:0|0:0,0:0:0:0:
96,122,32308,2,0,B|37:89|1:151,1,112,0|0,0:0|0:0,0:0:0:0:
178,116,32967,2,0,B|211:88|204:40|204:40|236:77|301:69,1,168,0|0,0:0|0:0,0:0:0:0:
335,64,33627,2,0,B|372:71|388:93|388:93|396:63|425:42,1,112,0|0,0:0|0:0,0:0:0:0:
499,133,34286,5,4,0:0:0:0:
406,204,34616,1,0,0:0:0:0:
485,290,34945,2,0,B|551:323|508:385|484:362,1,112,0|0,0:0|0:0,0:0:0:0:
379,312,35605,2,0,B|349:311|330:286|330:286|313:312|280:316,1,112,0|0,0:0|0:0,0:0:0:0:
168,305,36264,2,0,B|140:308|123:334|123:334|104:309|74:308,1,112,0|0,0:0|0:0,0:0:0:0:
14,193,36923,6,0,L|131:207,1,112,0|0,3:0|0:0,0:0:0:0:
203,115,37583,2,0,B|226:48|123:80|181:126,1,112,0|0,0:0|0:0,0:0:0:0:
272,181,38242,2,0,B|352:135|334:44|334:44|352:83|385:88,1,224,0|0,0:0|0:0,0:0:0:0:
502,91,39231,1,0,0:0:0:0:
444,189,39561,6,0,B|514:238|472:308|472:308|447:292,1,168,4|0,0:0|0:0,0:0:0:0:
399,275,40220,2,0,B|358:281|339:309|339:309|313:258|253:263,1,168,4|0,0:0|0:0,0:0:0:0:
205,268,40879,1,4,0:2:0:0:
205,268,40962,2,0,L|201:297,2,28,0|0|0,0:2|0:0|0:0,0:0:0:0:
13,301,42198,6,0,L|31:173,1,112,0|0,3:0|0:0,0:0:0:0:
11,74,42857,1,0,0:0:0:0:
137,101,43187,1,0,0:0:0:0:
137,101,43269,2,0,L|177:108,2,28
138,44,43517,2,0,L|267:29,1,112,4|0,0:0|0:0,0:0:0:0:
403,98,44176,2,0,L|291:110,1,112,0|0,0:0|0:0,0:0:0:0:
204,206,44835,6,0,B|203:288|139:328|139:328|144:302,1,168,4|0,0:0|0:0,0:0:0:0:
210,301,45495,2,0,B|281:311|297:380,1,112,4|0,0:0|0:0,0:0:0:0:
443,314,46154,2,0,B|384:260|393:167|525:164|511:253,1,224,4|0,0:0|0:0,0:0:0:0:
510,231,47143,1,0,0:0:0:0:
337,274,47473,6,0,L|309:155,1,112,2|0,0:0|1:0,0:0:0:0:
285,80,47967,1,2,0:0:0:0:
285,80,48132,2,0,L|409:93,1,112,0|2,0:0|1:2,0:0:0:0:
497,98,48627,2,0,L|490:61,2,28
438,172,48956,1,0,1:0:0:0:
438,172,49121,2,0,L|453:237,1,56,2|0,0:2|0:0,0:0:0:0:
476,318,49451,2,0,L|403:310,1,56,8|0,1:2|0:0,0:0:0:0:
330,301,49780,1,2,0:2:0:0:
72,241,50110,6,0,B|14:266|12:337|12:337|32:300,1,140,6|0,0:0|0:0,0:0:0:0:
105,313,50605,2,0,P|128:315|138:269,1,70,2|0,0:0|0:0,0:0:0:0:
32,111,51099,2,0,L|10:35,1,70,2|0,0:0|0:0,0:0:0:0:
92,0,51429,2,0,L|137:153,1,140,0|2,0:0|0:0,0:0:0:0:
358,111,52088,1,8,0:0:0:0:
343,23,52253,2,0,P|404:35|446:109,1,140,2|0,0:0|0:0,0:0:0:0:
358,111,52747,6,0,B|350:195|350:195|377:230|388:262,1,140,6|0,0:0|0:0,0:0:0:0:
420,311,53242,2,0,P|452:307|440:263,1,70,2|0,0:0|0:0,0:0:0:0:
225,302,53736,2,0,L|76:326,2,140,2|0|2,0:0|0:0|0:0,0:0:0:0:
225,82,54725,2,0,L|86:59,1,140,8|0,0:0|0:0,0:0:0:0:
269,192,55385,1,6,0:0:0:0:
61,210,55714,2,0,P|37:186|73:178,1,70,0|2,0:0|0:0,0:0:0:0:
141,191,56044,2,0,B|205:219|205:219|277:189,1,140,0|2,0:0|0:0,0:0:0:0:
474,133,56703,2,0,B|544:196|467:259,2,140,0|2|8,0:0|0:0|0:0,0:0:0:0:
408,192,57528,2,0,B|343:128|412:72,1,140,2|0,0:0|0:0,0:0:0:0:
474,133,58022,6,0,L|320:141,1,140,6|0,0:0|0:0,0:0:0:0:
253,146,58517,2,0,L|264:69,1,70,2|0,0:0|0:0,0:0:0:0:
42,63,59011,2,0,P|12:78|34:90,1,70,2|0,0:0|0:0,0:0:0:0:
115,117,59341,2,0,L|124:187,1,70,0|0,0:0|0:0,0:0:0:0:
48,229,59670,2,0,L|68:374,1,140,2|8,0:0|0:0,0:0:0:0:
165,367,60165,2,0,P|191:336|131:272,1,140,2|0,0:0|0:0,0:0:0:0:
138,270,60659,6,0,B|206:260|206:260|235:224|274:215,1,140,6|0,0:0|0:0,0:0:0:0:
329,294,61154,2,0,P|296:316|279:291,1,70,2|0,0:0|0:0,0:0:0:0:
486,205,61648,2,0,B|537:253|462:291|515:337,2,140,2|0|2,0:0|0:0|0:0,0:0:0:0:
281,124,62638,1,8,0:0:0:0:
203,146,62802,2,0,L|216:2,1,140,2|0,0:0|0:0,0:0:0:0:
288,42,63297,6,0,L|378:33,1,70,6|0,0:0|0:0,0:0:0:0:
390,112,63627,2,0,L|480:103,1,70,0|2,0:0|0:0,0:0:0:0:
390,193,63956,2,0,L|377:332,1,140,0|2,0:0|0:0,0:0:0:0:
105,286,64616,2,0,B|13:233|-14:345|40:332,2,140,0|2|8,0:0|0:0|0:0,0:0:0:0:
105,98,65934,6,0,B|13:151|-14:39|40:52,1,140,6|0,0:0|0:0,0:0:0:0:
128,20,66429,1,2,0:0:0:0:
188,83,66594,2,0,L|177:166,1,70,0|0,0:0|0:0,0:0:0:0:
268,144,66923,2,0,L|277:74,1,70,2|0,0:0|0:0,0:0:0:0:
362,41,67253,2,0,L|518:70,1,140,0|0,0:0|0:0,0:0:0:0:
434,137,67747,2,0,L|519:153,2,70,0|8|0,0:0|0:0|0:0,0:0:0:0:
467,225,68242,2,0,L|502:374,1,140,0|6,0:0|0:0,0:0:0:0:
248,273,68901,6,0,P|223:291|251:301,1,70,0|2,0:0|0:0,0:0:0:0:
324,289,69231,2,0,B|265:292|265:292|255:286|255:286|173:291,1,140,0|2,0:0|0:0,0:0:0:0:
18,114,69890,1,0,0:0:0:0:
267,109,70220,2,0,L|251:183,2,70,2|0|8,0:0|0:0|0:0,0:0:0:0:
180,146,70714,2,0,L|212:-7,1,140,2|0,0:0|0:0,0:0:0:0:
105,61,71209,6,0,B|18:21|-19:108|38:128,1,140,6|0,0:0|0:0,0:0:0:0:
78,173,71703,2,0,P|74:204|41:188,1,70,2|0,0:0|3:0,0:0:0:0:
267,109,72198,2,0,P|334:150|403:153,2,140,2|0|2,0:0|0:0|0:0,0:0:0:0:
344,68,73022,2,0,B|388:82|406:48|375:55,1,70,0|0,0:0|1:1,0:0:0:0:
186,246,73517,2,0,L|178:326,1,70,0|0,0:0|0:0,0:0:0:0:
272,251,73846,6,0,B|258:383|258:383|282:357,1,167.999994873047,4|2,3:2|0:0,0:0:0:0:
357,318,74341,2,0,L|449:343,1,83.9999974365235,0|8,0:0|0:0,0:0:0:0:
357,66,74835,2,0,L|449:41,1,83.9999974365235,2|0,0:0|0:0,0:0:0:0:
506,120,75165,2,0,P|463:160|355:146,1,167.999994873047,0|0,0:0|0:0,0:0:0:0:
273,115,75659,2,0,P|260:136|275:139,2,41.9999987182618,0|0|8,0:0|0:0|0:0,0:0:0:0:
178,171,75989,2,0,L|176:77,1,83.9999974365235,0|0,0:0|0:0,0:0:0:0:
37,340,76484,6,0,B|9:367|9:367|22:222,1,167.999994873047,4|2,0:0|0:0,0:0:0:0:
12,156,76978,2,0,P|52:140|93:166,1,83.9999974365235,0|8,0:0|0:0,0:0:0:0:
337,253,77473,2,0,P|296:268|241:238,1,83.9999974365235,2|0,0:0|0:0,0:0:0:0:
292,183,77802,2,0,B|348:256|256:276|312:352,1,167.999994873047,0|2,0:0|0:0,0:0:0:0:
393,349,78297,2,0,P|406:313|390:303,2,41.9999987182618,0|0|8,0:0|0:0|0:0,0:0:0:0:
119,349,78791,2,0,P|99:315|136:263,1,83.9999974365235,0|0,0:0|0:0,0:0:0:0:
169,197,79121,6,0,B|209:163|209:163|94:178,1,167.999994873047,4|2,3:2|0:0,0:0:0:0:
4,178,79616,2,0,L|20:66,1,83.9999974365235,0|8,0:0|0:0,0:0:0:0:
293,94,80110,2,0,L|304:177,1,83.9999974365235,2|0,0:0|0:0,0:0:0:0:
395,201,80440,2,0,B|446:160|512:169|512:169|479:184|461:210,1,167.999994873047,0|2,0:0|0:0,0:0:0:0:
461,273,80934,2,0,P|490:282|493:264,2,41.9999987182618,0|0|8,0:0|0:0|0:0,0:0:0:0:
375,284,81264,2,0,L|383:385,1,83.9999974365235,0|2,0:0|0:0,0:0:0:0:
187,317,81758,6,0,B|144:364|29:352|72:266|115:325,1,167.999994873047,4|0,0:0|0:0,0:0:0:0:
27,369,82253,2,0,P|8:335|21:268,1,83.9999974365235,0|8,0:0|0:0,0:0:0:0:
46,65,82747,2,0,P|34:106|55:154,1,83.9999974365235,2|0,0:0|0:0,0:0:0:0:
120,102,83077,2,0,B|156:54|220:52|220:52|241:85|292:90,1,167.999994873047,0|2,0:0|0:0,0:0:0:0:
346,90,83572,2,0,P|333:61|326:70,2,41.9999987182618,0|0|8,0:0|0:0|0:0,0:0:0:0:
512,273,84066,2,0,L|414:272,1,83.9999974365235,0|8,0:0|0:0,0:0:0:0:
345,210,84396,6,0,L|177:209,1,167.999994873047,4|2,3:2|0:0,0:0:0:0:
88,204,84890,2,0,B|58:236|58:236|93:284,1,83.9999974365235,0|8,0:0|0:0,0:0:0:0:
345,210,85385,2,0,B|375:242|375:242|340:290,1,83.9999974365235,2|0,0:0|0:0,0:0:0:0:
261,278,85714,2,0,B|263:189|263:189|297:140|299:93,1,167.999994873047,0|0,0:0|0:0,0:0:0:0:
233,65,86209,2,0,P|211:78|233:94,2,41.9999987182618,0|0|8,0:0|0:0|0:0,0:0:0:0:
512,75,86703,2,0,L|512:168,1,83.9999974365235,0|0,0:0|0:0,0:0:0:0:
512,251,87033,6,0,B|437:213|435:310|350:260,1,167.999994873047,4|2,0:0|0:0,0:0:0:0:
322,184,87528,2,0,P|368:167|397:204,1,83.9999974365235,0|8,0:0|0:0,0:0:0:0:
169,320,88022,2,0,P|123:337|94:300,1,83.9999974365235,2|0,0:0|0:0,0:0:0:0:
29,263,88352,2,0,B|42:197|42:197|0:151|17:96,1,167.999994873047,0|2,0:0|0:0,0:0:0:0:
101,92,88846,2,0,P|113:107|93:123,2,41.9999987182618,0|0|8,0:0|0:0|0:0,0:0:0:0:
382,246,89670,6,0,B|459:299|544:248|492:178,1,167.999994873047,4|2,3:2|0:0,0:0:0:0:
397,167,90165,1,0,0:0:0:0:
318,192,90330,2,0,B|224:184|176:271|256:305,1,167.999994873047,8|2,0:0|0:0,0:0:0:0:
350,54,90989,2,0,B|408:26|445:112|387:178,1,167.999994873047,0|2,0:0|0:0,0:0:0:0:
318,192,91484,2,0,P|309:168|323:146,2,41.9999987182618,0|0|8,0:0|0:0|0:0,0:0:0:0:
229,151,91813,2,0,L|124:149,1,83.9999974365235,0|2,0:0|0:0,0:0:0:0:
13,358,92308,6,0,B|96:385|90:289|188:333,1,167.999994873047,4|0,0:0|0:0,0:0:0:0:
250,353,92802,2,0,P|274:372|278:323,1,83.9999974365235,0|8,0:0|0:0,0:0:0:0:
145,149,93297,2,0,L|162:231,1,83.9999974365235,2|0,0:0|0:0,0:0:0:0:
246,229,93627,2,0,L|150:231,1,83.9999974365235,0|0,0:0|0:0,0:0:0:0:
70,236,93956,2,0,L|52:153,1,83.9999974365235,2|0,0:0|0:0,0:0:0:0:
31,61,94286,2,0,L|114:59,1,83.9999974365235,8|2,0:0|0:0,0:0:0:0:
157,59,94533,1,0,0:0:0:0:
157,59,94616,2,0,L|174:141,1,83.9999974365235,0|8,0:0|0:0,0:0:0:0:
268,108,94945,6,0,B|322:108|322:108|338:96|338:96|437:96,1,167.999994873047,4|2,3:2|0:0,0:0:0:0:
471,21,95440,2,0,P|434:0|398:22,1,83.9999974365235,0|8,0:0|0:0,0:0:0:0:
408,280,95934,2,0,P|444:297|478:276,1,83.9999974365235,2|0,0:0|0:0,0:0:0:0:
374,198,96264,2,0,B|310:232|323:312|323:312|306:296|307:266,1,167.999994873047,0|2,0:0|0:0,0:0:0:0:
225,282,96758,2,0,L|217:341,2,41.9999987182618,0|0|8,0:0|0:0|0:0,0:0:0:0:
137,284,97088,2,0,L|42:291,1,83.9999974365235,0|2,0:0|0:0,0:0:0:0:
11,53,97583,6,0,B|99:32|146:100|119:137|94:124,1,167.999994873047,4|0,0:0|0:0,0:0:0:0:
100,126,98077,1,2,0:0:0:0:
181,65,98242,2,0,P|186:140|99:197,1,167.999994873047,8|2,0:0|0:0,0:0:0:0:
371,12,98901,2,0,B|432:58|427:137|427:137|438:119|442:99,1,167.999994873047,0|2,0:0|0:0,0:0:0:0:
346,112,99396,2,0,P|321:125|330:138,2,41.9999987182618,0|0|8,0:0|0:0|0:0,0:0:0:0:
365,342,99890,2,0,L|456:356,1,83.9999974365235,0|0,0:0|0:0,0:0:0:0:
328,268,100220,6,0,B|262:284|227:349|227:349|232:316|253:293,1,167.999994873047,4|2,3:2|0:0,0:0:0:0:
148,319,100714,2,0,L|64:306,1,83.9999974365235,0|8,0:0|0:0,0:0:0:0:
148,65,101209,2,0,L|64:77,1,83.9999974365235,2|0,0:0|0:0,0:0:0:0:
15,171,101539,2,0,P|67:198|161:135,1,167.999994873047,0|2,0:0|0:0,0:0:0:0:
236,113,102033,2,0,P|252:135|233:149,2,41.9999987182618,0|0|8,0:0|0:0|0:0,0:0:0:0:
217,222,102363,2,0,L|310:238,1,83.9999974365235,0|2,0:0|0:0,0:0:0:0:
492,23,102857,6,0,B|456:89|382:73|382:73|373:48|393:39,1,167.999994873047,4|0,0:0|0:0,0:0:0:0:
468,99,103352,2,0,L|479:195,1,83.9999974365235,0|8,0:0|0:0,0:0:0:0:
217,222,103846,2,0,L|228:318,1,83.9999974365235,2|0,0:0|0:0,0:0:0:0:
155,376,104176,2,0,P|114:354|-1:311,1,167.999994873047,0|2,0:0|0:0,0:0:0:0:
43,236,104670,2,0,P|71:238|68:260,2,41.9999987182618,0|0|8,0:0|0:0|0:0,0:0:0:0:
337,258,105165,2,0,P|377:237|427:222,1,83.9999974365235,8|8,0:0|0:0,0:0:0:0:
346,160,105495,6,0,P|432:131|512:124,1,167.999994873047,4|2,3:2|0:0,0:0:0:0:
452,30,105989,2,0,P|400:40|395:77,1,83.9999974365235,0|8,0:0|0:0,0:0:0:0:
121,71,106484,2,0,P|106:36|61:36,1,83.9999974365235,2|0,0:0|0:0,0:0:0:0:
1,115,106813,2,0,P|78:133|162:166,1,167.999994873047,0|2,0:0|0:0,0:0:0:0:
244,182,107308,2,0,L|238:128,2,41.9999987182618,0|0|8,0:0|0:0|0:0,0:0:0:0:
0,292,107802,2,0,L|12:381,1,83.9999974365235,0|0,0:0|0:0,0:0:0:0:
90,322,108132,6,0,B|154:298|195:344|195:344|232:334|261:355,1,167.999994873047,4|2,0:0|0:0,0:0:0:0:
329,362,108627,2,0,P|349:347|306:316,1,83.9999974365235,0|8,0:0|0:0,0:0:0:0:
320,52,109121,2,0,L|411:38,1,83.9999974365235,2|0,0:0|0:0,0:0:0:0:
495,20,109451,2,0,B|538:85|491:170|430:123,1,167.999994873047,0|2,0:0|0:0,0:0:0:0:
500,206,109945,2,0,P|508:230|498:252,2,41.9999987182618,0|0|8,0:0|0:0|0:0,0:0:0:0:
101,176,110769,6,0,B|77:123|2:138|2:138|47:149|56:191,1,167.999994873047,4|2,3:2|0:0,0:0:0:0:
142,243,111264,1,0,0:0:0:0:
183,172,111429,2,0,B|241:154|256:97|256:97|221:133|167:132,1,167.999994873047,8|2,0:0|0:0,0:0:0:0:
181,295,112088,2,0,B|164:321|167:347|167:347|121:304|147:220,1,167.999994873047,0|2,0:0|0:0,0:0:0:0:
247,257,112583,2,0,P|258:283|249:311,2,41.9999987182618,0|0|8,0:0|0:0|0:0,0:0:0:0:
342,288,112912,2,0,L|438:297,1,83.9999974365235,0|2,0:0|0:0,0:0:0:0:
511,60,113407,6,0,P|466:60|371:150,1,167.999994873047,4|2,0:0|0:0,0:0:0:0:
445,193,113901,2,0,P|486:171|457:141,2,83.9999974365235,0|8|0,0:0|0:0|0:0,0:0:0:0:
375,135,114396,2,0,L|278:143,1,83.9999974365235,2|0,0:0|0:0,0:0:0:0:
202,120,114725,2,0,L|34:133,1,167.999994873047,0|2,0:0|0:0,0:0:0:0:
16,229,115220,2,0,P|53:252|97:235,1,83.9999974365235,0|8,0:0|0:0,0:0:0:0:
186,240,115550,6,0,P|253:204|335:248,1,168,0|4,0:0|0:0,0:0:0:0:
103,188,126594,6,0,P|170:213|191:259,1,112,6|0,0:0|0:0,0:0:0:0:
124,310,127088,2,0,P|99:309|118:284,1,56,2|0,0:0|0:0,0:0:0:0:
363,286,127583,2,0,L|492:309,1,112,2|0,0:0|0:0,0:0:0:0:
473,92,128242,2,0,L|363:112,1,112,2|8,0:0|0:0,0:0:0:0:
283,122,128736,2,0,B|282:23|167:16|177:87,1,168,2|2,0:0|0:0,0:0:0:0:
13,287,129561,6,0,P|37:265|55:273,1,56,0|2,0:0|0:0,0:0:0:0:
130,316,129890,2,0,L|149:194,1,112,0|2,0:0|0:0,0:0:0:0:
364,205,130550,2,0,L|382:316,2,112,0|2|8,0:0|0:0|0:0,0:0:0:0:
139,12,131868,6,0,L|157:129,1,112,2|0,0:0|0:0,0:0:0:0:
69,128,132363,2,0,P|54:108|83:101,1,56,2|0,0:0|0:0,0:0:0:0:
275,123,132857,2,0,L|397:105,1,112,2|0,0:0|0:0,0:0:0:0:
510,282,133517,2,0,L|468:237,1,56,2|0,0:0|0:0,0:0:0:0:
397,233,133846,1,8,0:0:0:0:
397,233,134011,2,0,L|212:260,1,168,2|2,0:0|0:0,0:0:0:0:
128,14,134835,6,0,L|190:27,1,56,0|2,0:0|0:0,0:0:0:0:
272,41,135165,2,0,L|250:169,1,112,0|2,0:0|0:0,0:0:0:0:
40,266,135824,2,0,L|18:394,2,112,0|2|8,0:0|0:0|0:0,0:0:0:0:
108,321,136648,2,0,B|139:332|163:309|163:309|184:329|229:319,1,112,2|0,0:0|0:0,0:0:0:0:
304,310,137143,6,0,B|335:299|359:322|359:322|380:302|425:312,1,112,6|0,0:0|1:0,0:0:0:0:
492,364,137638,1,2,0:0:0:0:
492,364,137802,2,0,L|480:231,1,112,0|2,0:0|1:2,0:0:0:0:
472,162,138297,2,0,L|500:146,2,28,0|0|0,0:0|0:0|0:0,0:0:0:0:
398,205,138627,1,0,1:0:0:0:
398,205,138791,2,0,L|337:197,1,56,2|0,0:2|0:0,0:0:0:0:
323,123,139121,2,0,L|262:115,1,56,8|0,1:2|0:0,0:0:0:0:
180,107,139451,1,2,0:0:0:0:
35,344,139780,6,0,P|9:305|55:218,1,140,6|0,0:0|0:0,0:0:0:0:
119,242,140275,2,0,P|142:269|115:298,1,70,2|0,0:0|0:0,0:0:0:0:
72,85,140769,2,0,L|159:93,1,70,2|0,0:0|0:0,0:0:0:0:
178,166,141099,2,0,L|323:180,1,140,0|2,0:0|0:0,0:0:0:0:
512,84,141758,1,8,0:0:0:0:
447,34,141923,2,0,P|428:92|477:161,1,140,2|0,0:0|0:0,0:0:0:0:
512,84,142418,6,0,L|357:98,1,140,2|0,0:0|0:0,0:0:0:0:
293,70,142912,2,0,L|266:-1,1,70,2|0,0:0|0:0,0:0:0:0:
9,13,143407,2,0,L|67:154,2,140,2|0|2,0:0|0:0|0:0,0:0:0:0:
62,241,144396,2,0,L|9:371,1,140,8|0,0:0|0:0,0:0:0:0:
62,142,145055,1,6,0:0:0:0:
242,194,145385,6,0,L|317:194,1,70,0|2,0:0|0:0,0:0:0:0:
391,233,145714,2,0,B|501:233|501:233|463:216,1,140,0|2,0:0|0:0,0:0:0:0:
284,116,146374,2,0,B|245:13|245:13|245:56,2,140,0|2|8,0:0|0:0|0:0,0:0:0:0:
245,42,147198,2,0,L|92:42,1,140,2|0,0:0|0:0,0:0:0:0:
53,124,147692,6,0,L|199:124,1,140,2|0,0:0|0:0,0:0:0:0:
236,198,148187,2,0,L|236:282,1,70,2|0,0:0|0:0,0:0:0:0:
32,366,148681,2,0,P|11:343|42:329,1,70,2|0,0:0|0:0,0:0:0:0:
132,344,149011,2,0,L|224:353,1,70,0|0,0:0|0:0,0:0:0:0:
283,332,149341,2,0,L|431:346,1,140,2|8,0:0|0:0,0:0:0:0:
508,380,149835,2,0,P|515:339|455:260,1,140,2|0,0:0|0:0,0:0:0:0:
383,218,150330,6,0,B|313:177|335:103|394:123,1,140,6|0,0:0|0:0,0:0:0:0:
459,113,150824,2,0,P|465:155|433:164,1,70,2|0,0:0|0:0,0:0:0:0:
253,27,151319,2,0,B|301:11|342:34|342:34|365:1|391:2,2,140,2|0|2,0:0|0:0|0:0,0:0:0:0:
84,195,152308,1,8,0:0:0:0:
156,148,152473,2,0,L|170:294,1,140,2|0,0:0|0:0,0:0:0:0:
91,361,152967,6,0,P|124:379|162:359,1,70,2|0,0:0|0:0,0:0:0:0:
247,334,153297,2,0,P|266:309|303:323,1,70,0|2,0:0|0:0,0:0:0:0:
398,320,153627,2,0,B|460:321|489:377|489:377|494:358|479:342,1,140,0|2,0:0|0:0,0:0:0:0:
484,150,154286,2,0,B|488:87|488:87|496:73|496:73|502:-15,2,140,0|2|8,0:0|0:0|0:0,0:0:0:0:
108,170,155605,6,0,B|47:154|4:203|4:203|-9:196|4:179,1,140,6|0,0:0|0:0,0:0:0:0:
76,252,156099,1,2,0:0:0:0:
166,238,156264,2,0,L|246:232,1,70,0|0,0:0|0:0,0:0:0:0:
255,150,156594,2,0,L|335:144,1,70,2|0,0:0|0:0,0:0:0:0:
414,139,156923,2,0,L|398:290,1,140,0|0,0:0|0:0,0:0:0:0:
488,215,157418,2,0,L|481:285,2,70,0|8|0,0:0|0:0|0:0,0:0:0:0:
430,353,157912,2,0,P|378:357|322:291,1,140,0|2,0:0|0:0,0:0:0:0:
243,71,158572,6,0,L|252:151,1,70,0|2,0:0|0:0,0:0:0:0:
180,118,158901,2,0,B|236:89|264:138|330:100,1,140,0|2,0:0|0:0,0:0:0:0:
401,24,159560,1,0,0:0:0:0:
385,246,159890,2,0,P|344:264|361:285,2,70,2|0|8,0:0|0:0|0:0,0:0:0:0:
423,318,160385,2,0,P|457:289|449:196,1,140,2|0,0:0|0:0,0:0:0:0:
401,133,160879,6,0,B|359:72|390:14|449:34,1,140,6|0,0:0|0:0,0:0:0:0:
508,62,161374,2,0,L|489:139,1,70,2|0,0:0|3:0,0:0:0:0:
231,217,161868,2,0,L|194:366,2,140,2|0|2,0:0|0:0|0:0,0:0:0:0:
154,238,162692,2,0,L|136:310,1,70,0|4,0:0|1:0,0:0:0:0:
137,78,163187,2,0,L|154:146,1,70,0|0,0:0|0:0,0:0:0:0:
224,78,163517,6,0,L|50:120,1,167.999994873047,4|2,3:2|0:0,0:0:0:0:
7,36,164011,2,0,P|47:19|43:53,1,83.9999974365235,0|8,0:0|0:0,0:0:0:0:
18,284,164506,2,0,L|6:373,1,83.9999974365235,2|0,0:0|0:0,0:0:0:0:
104,338,164835,2,0,B|181:297|207:382|274:335,1,167.999994873047,0|0,0:0|0:0,0:0:0:0:
329,293,165330,2,0,P|346:323|327:331,2,41.9999987182618,0|0|8,0:0|0:0|0:0,0:0:0:0:
424,323,165659,2,0,P|478:330|512:365,1,83.9999974365235,0|0,0:0|0:0,0:0:0:0:
508,89,166154,6,0,P|448:124|346:89,1,167.999994873047,4|2,0:0|0:0,0:0:0:0:
390,14,166648,2,0,P|408:49|457:38,1,83.9999974365235,0|8,0:0|0:0,0:0:0:0:
179,19,167143,2,0,L|176:118,1,83.9999974365235,2|0,0:0|0:0,0:0:0:0:
170,193,167473,2,0,B|86:190|30:232|30:232|42:202|69:202,1,167.999994873047,0|2,0:0|0:0,0:0:0:0:
170,193,167967,2,0,P|195:221|185:240,2,41.9999987182618,0|0|8,0:0|0:0|0:0,0:0:0:0:
423,231,168462,2,0,P|475:242|530:237,1,83.9999974365235,0|0,0:0|0:0,0:0:0:0:
360,178,168791,6,0,B|280:206|288:297|354:307|366:256,1,167.999994873047,4|2,3:2|0:0,0:0:0:0:
440,157,169286,2,0,P|426:118|389:89,1,83.9999974365235,0|8,0:0|0:0,0:0:0:0:
129,60,169780,2,0,P|160:85|176:54,1,83.9999974365235,2|0,0:0|0:0,0:0:0:0:
51,20,170110,2,0,B|48:108|48:108|12:147|5:182,1,167.999994873047,0|2,0:0|0:0,0:0:0:0:
99,209,170605,2,0,P|106:182|87:184,2,41.9999987182618,0|0|8,0:0|0:0|0:0,0:0:0:0:
29,261,170934,2,0,P|45:308|25:362,1,83.9999974365235,0|2,0:0|0:0,0:0:0:0:
232,321,171429,6,0,B|276:286|332:311|332:311|354:280|395:279,1,167.999994873047,4|0,0:0|0:0,0:0:0:0:
475,348,171923,2,0,P|423:363|387:347,1,83.9999974365235,0|8,0:0|0:0,0:0:0:0:
403,68,172418,2,0,P|443:58|481:73,1,83.9999974365235,2|0,0:0|0:0,0:0:0:0:
405,152,172747,2,0,B|330:149|317:66|317:66|317:93|296:122,1,167.999994873047,0|2,0:0|0:0,0:0:0:0:
227,98,173242,2,0,P|217:71|234:53,2,41.9999987182618,0|0|8,0:0|0:0|0:0,0:0:0:0:
7,229,173736,2,0,L|108:226,1,83.9999974365235,0|8,0:0|0:0,0:0:0:0:
181,201,174066,6,0,B|257:165|259:266|347:218,1,167.999994873047,4|2,3:2|0:0,0:0:0:0:
427,189,174561,2,0,L|436:273,1,83.9999974365235,0|8,0:0|0:0,0:0:0:0:
172,284,175055,2,0,L|181:200,1,83.9999974365235,2|0,0:0|0:0,0:0:0:0:
305,158,175385,2,0,B|312:248|312:248|352:290|339:348,1,167.999994873047,0|0,0:0|0:0,0:0:0:0:
275,360,175879,2,0,P|261:328|274:322,2,41.9999987182618,0|0|8,0:0|0:0|0:0,0:0:0:0:
206,78,176374,2,0,L|115:85,1,83.9999974365235,0|0,0:0|0:0,0:0:0:0:
56,35,176703,6,0,B|8:84|19:159|19:159|25:133|37:117,1,167.999994873047,4|2,0:0|0:0,0:0:0:0:
108,176,177198,2,0,L|192:200,1,83.9999974365235,0|8,0:0|0:0,0:0:0:0:
487,112,177692,2,0,L|388:120,1,83.9999974365235,2|0,0:0|0:0,0:0:0:0:
464,208,178022,2,0,L|282:224,1,167.999994873047,0|0,0:0|0:0,0:0:0:0:
313,302,178517,2,0,P|341:307|352:281,2,41.9999987182618,0|0|8,0:0|0:0|0:0,0:0:0:0:
163,157,179341,6,0,B|204:261|204:261|226:210,1,167.999994873047,4|2,3:2|0:0,0:0:0:0:
191,84,179835,1,0,0:0:0:0:
115,95,180000,2,0,B|-1:86|-1:86|46:124,1,167.999994873047,8|2,0:0|0:0,0:0:0:0:
236,11,180659,2,0,B|284:9|284:9|174:97,1,167.999994873047,0|2,0:0|0:0,0:0:0:0:
163,157,181154,2,0,L|121:151,2,41.9999987182618,0|0|8,0:0|0:0|0:0,0:0:0:0:
120,227,181484,2,0,L|29:216,1,83.9999974365235,0|2,0:0|0:0,0:0:0:0:
366,170,181978,6,0,B|447:181|466:249|440:302|409:263,1,167.999994873047,4|0,0:0|0:0,0:0:0:0:
312,226,182473,2,0,P|286:188|297:140,1,83.9999974365235,2|8,0:0|0:0,0:0:0:0:
152,366,182967,2,0,L|240:351,1,83.9999974365235,2|0,0:0|0:0,0:0:0:0:
181,278,183297,2,0,L|98:292,1,83.9999974365235,0|0,0:0|0:0,0:0:0:0:
12,303,183627,2,0,L|26:200,1,83.9999974365235,2|0,0:0|0:0,0:0:0:0:
111,203,183956,2,0,L|125:100,1,83.9999974365235,8|2,0:0|0:0,0:0:0:0:
129,78,184203,1,0,0:0:0:0:
129,78,184286,2,0,L|211:63,1,83.9999974365235,0|8,0:0|0:0,0:0:0:0:
282,111,184616,6,0,B|354:95|354:95|361:85|361:85|455:65,1,167.999994873047,4|2,3:2|0:0,0:0:0:0:
500,130,185110,2,0,P|482:163|440:146,1,83.9999974365235,0|8,0:0|0:0,0:0:0:0:
276,324,185605,2,0,P|306:357|319:326,1,83.9999974365235,2|0,0:0|0:0,0:0:0:0:
318,241,185934,2,0,B|385:249|415:314|415:314|425:285|401:267,1,167.999994873047,0|2,0:0|0:0,0:0:0:0:
471,225,186429,2,0,L|521:219,2,41.9999987182618,0|0|8,0:0|0:0|0:0,0:0:0:0:
402,169,186758,2,0,L|390:77,1,83.9999974365235,0|2,0:0|0:0,0:0:0:0:
148,17,187253,6,0,B|81:111|142:173|186:122,1,167.999994873047,4|0,0:0|0:0,0:0:0:0:
171,134,187747,1,2,0:0:0:0:
103,203,187912,2,0,P|181:214|252:136,1,167.999994873047,8|2,0:0|0:0,0:0:0:0:
423,346,188572,2,0,P|360:359|276:285,1,167.999994873047,0|2,0:0|0:0,0:0:0:0:
208,305,189066,2,0,P|200:326|175:325,2,41.9999987182618,0|0|8,0:0|0:0|0:0,0:0:0:0:
315,51,189561,2,0,L|422:50,1,83.9999974365235,0|0,0:0|0:0,0:0:0:0:
501,37,189890,6,0,B|500:113|434:148|434:148|463:151|473:133,1,167.999994873047,4|2,3:2|0:0,0:0:0:0:
509,208,190385,2,0,P|463:225|402:222,1,83.9999974365235,0|8,0:0|0:0,0:0:0:0:
236,165,190879,2,0,P|192:169|156:185,1,83.9999974365235,2|0,0:0|0:0,0:0:0:0:
138,268,191209,2,0,P|80:239|40:134,1,167.999994873047,0|2,0:0|0:0,0:0:0:0:
36,73,191703,2,0,P|32:60|8:70,2,41.9999987182618,0|0|8,0:0|0:0|0:0,0:0:0:0:
116,103,192033,2,0,P|124:63|100:11,1,83.9999974365235,0|2,0:0|0:0,0:0:0:0:
19,338,192528,6,0,L|196:322,1,167.999994873047,4|0,0:0|0:0,0:0:0:0:
275,310,193022,2,0,B|313:343|292:385|269:355,1,83.9999974365235,0|8,0:0|0:0,0:0:0:0:
429,146,193517,2,0,L|527:137,1,83.9999974365235,2|0,0:0|0:0,0:0:0:0:
432,226,193846,2,0,P|368:195|334:74,1,167.999994873047,0|2,0:0|0:0,0:0:0:0:
383,44,194341,2,0,P|403:30|388:10,2,41.9999987182618,0|0|8,0:0|0:0|0:0,0:0:0:0:
86,98,194835,2,0,L|-8:85,1,83.9999974365235,8|8,0:0|0:0,0:0:0:0:
4,177,195165,6,0,B|102:190|102:190|136:161|191:159,1,167.999994873047,4|2,3:2|0:0,0:0:0:0:
224,231,195659,2,0,P|182:261|167:236,1,83.9999974365235,0|8,0:0|0:0,0:0:0:0:
276,1,196154,2,0,L|291:89,1,83.9999974365235,2|0,0:0|0:0,0:0:0:0:
356,153,196484,2,0,B|409:223|312:254|370:317,1,167.999994873047,0|2,0:0|0:0,0:0:0:0:
450,332,196978,2,0,P|459:304|429:287,2,41.9999987182618,0|0|8,0:0|0:0|0:0,0:0:0:0:
152,273,197473,2,0,P|129:309|177:356,1,83.9999974365235,0|0,0:0|0:0,0:0:0:0:
218,313,197802,6,0,B|152:313|152:313|141:304|141:304|45:304,1,167.999994873047,4|2,0:0|0:0,0:0:0:0:
4,227,198297,2,0,L|16:127,1,83.9999974365235,0|8,0:0|0:0,0:0:0:0:
255,8,198791,2,0,L|244:91,1,83.9999974365235,2|0,0:0|0:0,0:0:0:0:
240,187,199121,2,0,B|314:204|369:159|369:159|371:186|344:191,1,167.999994873047,0|2,0:0|0:0,0:0:0:0:
446,206,199616,2,0,P|472:212|499:209,2,41.9999987182618,0|0|8,0:0|0:0|0:0,0:0:0:0:
165,246,200440,6,0,B|154:301|101:339|101:339|141:326|164:287,1,167.999994873047,4|2,3:2|0:0,0:0:0:0:
194,170,200934,1,0,0:0:0:0:
115,180,201099,2,0,B|72:142|66:78|66:78|57:119|79:158,1,167.999994873047,8|2,0:0|0:0,0:0:0:0:
261,154,201758,2,0,B|287:155|306:178|306:178|247:151|194:169,1,167.999994873047,0|2,0:0|0:0,0:0:0:0:
210,77,202253,2,0,L|219:32,2,41.9999987182618,0|0|8,0:0|0:0|0:0,0:0:0:0:
296,74,202583,2,0,L|382:70,1,83.9999974365235,0|2,0:0|0:0,0:0:0:0:
509,288,203077,6,0,P|435:303|348:238,1,167.999994873047,4|2,0:0|0:0,0:0:0:0:
397,173,203572,2,0,P|445:190|419:226,2,83.9999974365235,0|8|0,0:0|0:0|0:0,0:0:0:0:
309,185,204066,2,0,L|315:84,1,83.9999974365235,2|0,0:0|0:0,0:0:0:0:
232,71,204396,2,0,L|220:249,1,167.999994873047,0|2,0:0|0:0,0:0:0:0:
128,248,204890,2,0,P|79:229|21:245,1,83.9999974365235,0|8,0:0|0:0,0:0:0:0:
12,148,205220,6,0,P|66:142|143:48,1,168,0|4,0:0|0:0,0:0:0:0:
171,174,210883,6,0,B|239:129|248:203|314:148,1,140,4|0,0:0|0:0,0:0:0:0:
103,212,211642,2,0,B|35:178|112:126|33:79,1,140
174,249,212347,2,0,B|179:318|117:314|107:376,1,140
310,343,213068,2,0,P|350:320|439:343,1,140
512,221,213779,6,0,B|431:243|376:175|376:175|426:150|426:108,1,210,4|0,0:0|0:0,0:0:0:0:
347,94,214497,2,0,P|280:85|217:153,1,140
72,78,215248,2,0,P|136:58|303:170,1,280
33,335,216826,6,0,P|63:267|126:249,1,140,4|0,0:0|0:0,0:0:0:0:
289,314,217534,2,0,P|244:342|163:298,1,140
166,110,218245,2,0,P|198:151|196:244,1,140
330,120,218961,2,0,L|483:131,1,140
501,251,219679,6,0,B|451:252|419:297|419:297|399:269|366:268,1,140,4|0,0:0|0:0,0:0:0:0:
239,270,220411,2,0,B|167:305|194:390|266:359,1,140
233,190,221201,2,0,B|150:211|122:280|122:280|35:256|48:161,1,280
77,38,222770,5,4,0:0:0:0:
205,80,223175,2,0,L|359:95,1,140
487,57,223953,1,0,0:0:0:0:
437,135,224345,2,0,B|433:197|433:197|488:232|494:271,1,140
346,336,225079,2,0,B|289:342|289:342|275:334|275:334|191:343,1,140
19,358,225906,6,0,L|55:204,1,140,4|0,0:0|0:0,0:0:0:0:
257,143,226651,2,0,B|324:158|359:198|332:242|332:242|297:205|323:127|461:107,1,350
257,143,228759,5,0,0:0:0:0:
176,89,229178,2,0,P|124:98|32:73,1,140,4|0,0:0|0:0,0:0:0:0:
185,193,229925,2,0,P|134:219|36:217,1,140
228,295,230699,2,0,P|172:339|97:358,1,140
313,275,231549,2,0,B|413:258|420:339|359:314,1,140
392,207,232376,6,0,P|432:174|527:136,1,140,4|0,0:0|0:0,0:0:0:0:
336,118,233250,2,0,P|284:112|198:62,1,140
318,200,234219,2,0,P|321:247|291:341,1,140
120,298,235455,2,0,B|56:231|141:167|163:226,1,140
256,192,237448,12,4,240781,0:0:0:0:
