osu file format v14

[General]
AudioFilename: audio.mp3
AudioLeadIn: 0
PreviewTime: 1329
Countdown: 0
SampleSet: Soft
StackLeniency: 0.7
Mode: 0
LetterboxInBreaks: 0
WidescreenStoryboard: 0

[Editor]
DistanceSpacing: 1.8
BeatDivisor: 8
GridSize: 32
TimelineZoom: 2.220002

[Metadata]
Title:Lu Gu Xun Meng
TitleUnicode:泸沽寻梦
Artist:Yin Lin
ArtistUnicode:银临
Creator:AIR
Version:May
Source:
Tags:腐草为萤 chinese 临江仙 灰原穷 nostalgic
BeatmapID:1937663
BeatmapSetID:927682

[Difficulty]
HPDrainRate:6
CircleSize:4.5
OverallDifficulty:8
ApproachRate:9
SliderMultiplier:3.59999990463257
SliderTickRate:1

[Events]
//Background and Video events
0,0,"71899208_p0.jpg",0,0
//Break Periods
2,89529,91396
//Storyboard Layer 0 (Background)
//Storyboard Layer 1 (Fail)
//Storyboard Layer 2 (Pass)
//Storyboard Layer 3 (Foreground)
//Storyboard Sound Samples

[TimingPoints]
2663,666.666666666667,4,2,1,60,1,0
3996,-125,4,2,1,60,0,0
9246,-125,4,2,1,5,0,0
9329,-125,4,2,1,60,0,0
14579,-125,4,2,1,5,0,0
14662,-125,4,2,1,60,0,0
19912,-125,4,2,1,5,0,0
19996,-125,4,2,1,60,0,0
24996,-125,4,2,1,5,0,0
25329,-166.666666666667,4,2,1,60,0,0
45996,-83.3333333333334,4,2,1,60,0,0
46246,-83.3333333333334,4,2,1,5,0,0
46329,-125,4,2,1,60,0,0
46579,-125,4,2,1,5,0,0
46662,-100,4,2,1,60,0,0
67996,-83.3333333333333,4,1,1,80,0,1
68662,-71.4285714285714,4,1,1,80,0,1
69329,-83.3333333333333,4,1,1,80,0,1
69996,-100,4,1,1,80,0,1
70662,-83.3333333333333,4,1,1,80,0,1
70996,-100,4,1,1,80,0,1
71996,-125,4,1,1,80,0,1
72662,-100,4,1,1,80,0,1
73329,-83.3333333333333,4,1,1,80,0,1
73996,-71.4285714285714,4,1,1,80,0,1
74662,-83.3333333333333,4,1,1,80,0,1
75662,-100,4,1,1,80,0,1
75996,-125,4,1,1,80,0,1
76329,-100,4,1,1,80,0,1
77662,-83.3333333333333,4,1,1,80,0,1
78662,-125,4,1,1,80,0,1
78996,-100,4,1,1,80,0,1
80329,-83.3333333333333,4,1,1,80,0,1
81329,-71.4285714285714,4,1,1,80,0,1
81662,-100,4,1,1,80,0,1
82996,-125,4,1,1,80,0,1
83329,-100,4,1,1,80,0,1
83662,-83.3333333333333,4,1,1,80,0,1
83996,-125,4,1,1,80,0,1
84329,-100,4,1,1,80,0,1
85329,-125,4,1,1,80,0,1
85662,-100,4,1,1,80,0,1
86662,-83.3333333333333,4,1,1,80,0,1
88662,-71.4285714285714,4,2,1,80,0,1
88996,-166.666666666667,4,2,1,80,0,1
89329,-125,4,2,1,60,0,0
94579,-125,4,2,1,5,0,0
94662,-125,4,2,1,60,0,0
99912,-125,4,2,1,5,0,0
99996,-125,4,2,1,60,0,0
105246,-125,4,2,1,5,0,0
105329,-125,4,2,1,60,0,0
110329,-125,4,2,1,5,0,0
110662,-166.666666666667,4,2,1,60,0,0
131329,-83.3333333333333,4,2,1,60,0,0
131579,-83.3333333333333,4,2,1,5,0,0
131662,-125,4,2,1,60,0,0
131912,-125,4,2,1,5,0,0
131996,-100,4,2,1,60,0,0
153329,-83.3333333333333,4,1,1,80,0,1
153996,-71.4285714285714,4,1,1,80,0,1
154662,-83.3333333333333,4,1,1,80,0,1
155329,-100,4,1,1,80,0,1
155996,-83.3333333333333,4,1,1,80,0,1
156329,-100,4,1,1,80,0,1
157329,-125,4,1,1,80,0,1
157996,-100,4,1,1,80,0,1
158662,-83.3333333333333,4,1,1,80,0,1
159329,-71.4285714285714,4,1,1,80,0,1
159996,-83.3333333333333,4,1,1,80,0,1
160996,-100,4,1,1,80,0,1
161329,-125,4,1,1,80,0,1
161662,-100,4,1,1,80,0,1
162996,-83.3333333333333,4,1,1,80,0,1
163996,-125,4,1,1,80,0,1
164329,-100,4,1,1,80,0,1
165662,-83.3333333333333,4,1,1,80,0,1
166662,-71.4285714285714,4,1,1,80,0,1
166996,-100,4,1,1,80,0,1
168329,-125,4,1,1,80,0,1
168662,-100,4,1,1,80,0,1
168996,-83.3333333333333,4,1,1,80,0,1
169329,-125,4,1,1,80,0,1
169662,-100,4,1,1,80,0,1
170662,-125,4,1,1,80,0,1
170996,-100,4,1,1,80,0,1
171996,-83.3333333333333,4,1,1,80,0,1
173329,-100,4,2,1,80,0,0
174663,-83.3333333333333,4,1,1,80,0,1
175996,-71.4285714285714,4,1,1,80,0,1
177329,-62.5,4,1,1,80,0,1
177996,-71.4285714285714,4,1,1,80,0,1
178662,-83.3333333333333,4,1,1,80,0,1
179329,-100,4,1,1,80,0,1
179996,-125,4,1,1,80,0,1
181329,-83.3333333333333,4,1,1,80,0,1
181996,-71.4285714285714,4,1,1,80,0,1
182662,-83.3333333333333,4,1,1,80,0,1
183996,-71.4285714285714,4,1,1,80,0,1
184329,-83.3333333333333,4,1,1,80,0,1
185329,-125,4,1,1,80,0,1
185662,-100,4,1,1,80,0,1
186996,-83.3333333333333,4,1,1,80,0,1
187996,-71.4285714285714,4,1,1,80,0,1
189662,-125,4,1,1,80,0,1
189996,-100,4,1,1,80,0,1
190329,-83.3333333333333,4,1,1,80,0,1
190662,-125,4,1,1,80,0,1
190996,-100,4,1,1,80,0,1
191996,-125,4,1,1,80,0,1
192329,-100,4,1,1,80,0,1
193329,-83.3333333333333,4,1,1,80,0,1
194663,-100,4,2,1,80,0,0
195662,-83.3333333333333,4,2,1,80,0,0
195996,-83.3333333333333,4,1,1,80,0,1
196662,-71.4285714285714,4,1,1,80,0,1
197329,-83.3333333333333,4,1,1,80,0,1
197996,-100,4,1,1,80,0,1
198662,-83.3333333333333,4,1,1,80,0,1
198996,-100,4,1,1,80,0,1
199996,-125,4,1,1,80,0,1
200662,-100,4,1,1,80,0,1
201329,-83.3333333333333,4,1,1,80,0,1
201996,-71.4285714285714,4,1,1,80,0,1
202662,-83.3333333333333,4,1,1,80,0,1
203662,-100,4,1,1,80,0,1
203996,-125,4,1,1,80,0,1
204329,-100,4,1,1,80,0,1
205662,-83.3333333333333,4,1,1,80,0,1
206662,-125,4,1,1,80,0,1
206996,-100,4,1,1,80,0,1
208329,-83.3333333333333,4,1,1,80,0,1
209329,-71.4285714285714,4,1,1,80,0,1
210996,-125,4,1,1,80,0,1
211329,-100,4,1,1,80,0,1
211662,-83.3333333333333,4,1,1,80,0,1
211996,-125,4,1,1,80,0,1
212329,-100,4,1,1,80,0,1
213329,-125,4,1,1,80,0,1
213662,-100,4,1,1,80,0,1
214662,-83.3333333333333,4,1,1,80,0,1
214996,-100,4,1,1,80,0,1
216329,-83.3333333333333,4,2,1,80,0,1
216996,-166.666666666667,4,2,1,80,0,1
217329,-100,4,2,1,80,0,0

[Colours]
Combo1 : 255,255,96
Combo2 : 110,110,110
Combo3 : 255,68,68
Combo4 : 0,217,108
Combo5 : 83,83,255

[HitObjects]
266,315,3996,6,0,B|255:327|239:323|239:323|286:272|251:209,1,144,4|0,0:0|0:0,0:0:0:0:
177,260,4496,2,0,L|92:265,1,72
345,274,4829,2,0,B|385:282|416:293|416:293|455:278|502:270,1,144
483,273,5329,1,2,0:0:0:0:
28,110,5662,1,0,0:0:0:0:
183,36,5829,2,0,L|275:70,1,72
256,161,6162,2,0,L|100:103,1,144
121,110,6662,5,4,0:0:0:0:
330,356,6996,1,0,0:0:0:0:
192,341,7162,2,0,P|193:369|153:358,1,72
26,340,7496,2,0,B|10:311|10:311|125:296,1,144
282,307,7996,2,0,P|332:279|366:183,1,144,2|0,0:0|0:0,0:0:0:0:
484,190,8496,1,0,0:0:0:0:
512,77,8662,1,0,0:0:0:0:
412,15,8829,1,0,0:0:0:0:
320,88,8996,2,0,B|281:91|281:91|273:95|273:95|263:91|263:91|199:94,1,108,2|0,0:0|0:0,0:0:0:0:
149,96,9329,6,0,B|113:80|113:80|82:109|82:109|88:178,1,144,4|0,0:0|0:0,0:0:0:0:
215,208,9829,2,0,P|249:215|292:247,1,72
135,246,10162,2,0,B|125:289|76:301|76:301|42:268|-3:276,1,144
24,275,10662,1,2,0:0:0:0:
488,109,10996,1,0,0:0:0:0:
359,193,11162,2,0,P|342:197|342:151,1,72
436,184,11496,2,0,B|441:247|441:247|476:289|484:319,1,144
482,315,11996,5,4,0:0:0:0:
103,35,12329,1,0,0:0:0:0:
227,84,12496,2,0,P|238:76|208:69,1,72
85,138,12829,2,0,B|55:88|-9:91|-9:91|15:84|34:91,1,144
134,230,13329,2,0,B|134:274|134:274|129:285|129:285|137:291|137:291|133:301|133:301|133:397,1,144,2|0,0:0|0:0,0:0:0:0:
10,313,13829,1,0,0:0:0:0:
24,181,13996,1,0,0:0:0:0:
151,143,14162,1,0,0:0:0:0:
228,253,14329,2,0,P|279:226|333:267,1,108,2|0,0:0|0:0,0:0:0:0:
364,295,14662,6,0,B|410:333|459:295|459:295|453:249,1,144,4|0,0:0|0:0,0:0:0:0:
355,130,15162,2,0,P|334:152|300:126,1,72
361,42,15496,2,0,B|431:35|431:35|469:50|511:58,1,144
501,56,15996,1,2,0:0:0:0:
61,251,16329,1,0,0:0:0:0:
184,229,16496,2,0,L|140:292,1,72
200,370,16829,2,0,L|299:231,1,144
283,252,17329,5,4,0:0:0:0:
205,13,17662,1,0,0:0:0:0:
195,132,17829,2,0,P|179:155|178:122,1,72
301,109,18162,2,0,B|358:106|358:106|368:109|368:109|378:100|378:100|469:95,1,144
405,243,18662,2,0,B|444:338|337:289|395:402,1,144,2|0,0:0|0:0,0:0:0:0:
498,331,19162,1,0,0:0:0:0:
496,208,19329,1,0,0:0:0:0:
377,175,19496,1,0,0:0:0:0:
308,276,19662,2,0,B|278:278|256:293|256:293|230:277|192:275,1,108,2|0,0:0|0:0,0:0:0:0:
141,267,19996,6,0,B|67:228|11:280|57:321|68:276,1,144,4|0,0:0|0:0,0:0:0:0:
151,171,20496,2,0,P|174:136|175:89,1,72
329,48,20829,2,0,P|342:112|405:197,1,144
383,177,21329,1,2,0:0:0:0:
162,365,21662,1,0,0:0:0:0:
256,208,21829,2,0,L|256:136,1,72
342,297,22162,2,0,B|394:295|437:340|437:340|436:308|405:298,1,144
422,307,22662,5,4,0:0:0:0:
90,77,22996,1,0,0:0:0:0:
130,159,23162,2,0,P|155:185|189:197,1,72
59,217,23496,1,0,0:0:0:0:
0,100,23662,1,0,0:0:0:0:
91,1,23829,1,0,0:0:0:0:
213,66,23996,2,0,B|301:104|366:42|366:42|238:59|320:283,1,432,0|0,3:0|0:0,0:0:0:0:
512,191,25329,5,4,0:1:0:0:
179,292,25996,2,0,B|187:283|171:275|171:275|137:319|84:305,1,107.999996704102
24,277,26662,2,0,P|-6:189|79:104,1,215.999993408203,8|0,0:0|0:0,0:0:0:0:
163,135,27662,1,0,0:0:0:0:
96,198,27996,5,0,0:0:0:0:
414,306,28996,1,0,0:0:0:0:
437,231,29329,2,0,B|412:193|459:121|581:212|477:301,1,215.999993408203,8|0,0:0|0:0,0:0:0:0:
414,306,30329,1,0,0:0:0:0:
336,323,30662,5,0,0:0:0:0:
257,341,30996,2,0,L|142:316,1,107.999996704102
295,205,31662,1,0,0:0:0:0:
217,226,31996,2,0,P|148:213|87:123,1,161.999995056153,8|0,0:0|0:0,0:0:0:0:
41,110,32662,2,0,P|-7:135|27:164,1,107.999996704102
203,100,33329,5,0,0:0:0:0:
489,370,33996,2,0,P|517:317|502:275,1,107.999996704102
413,301,34662,2,0,B|406:206|495:169|495:169|467:169|446:189,1,215.999993408203,8|0,0:0|0:0,0:0:0:0:
91,267,35996,5,4,0:0:0:0:
374,73,36662,2,0,P|371:31|351:70,1,107.999996704102
272,96,37329,2,0,B|236:129|191:119|191:119|168:64|119:58,1,161.999995056153,8|0,0:0|0:0,0:0:0:0:
78,72,37996,1,0,0:0:0:0:
91,267,38329,1,0,0:0:0:0:
290,222,38662,6,0,P|334:274|304:359,1,161.999995056153
198,339,39329,2,0,P|180:290|211:235,1,107.999996704102
202,241,39996,1,8,0:0:0:0:
479,236,40662,2,0,L|485:120,1,107.999996704102
489,37,41329,5,0,0:0:0:0:
398,55,41662,1,0,0:0:0:0:
307,69,41996,2,0,L|190:55,1,107.999996704102
207,244,42662,2,0,B|291:312|280:182|368:265,1,161.999995056153,8|0,0:0|0:0,0:0:0:0:
410,286,43329,2,0,P|443:251|399:204,1,107.999996704102
142,186,43996,6,0,P|110:205|178:318,1,215.999993408203
178,317,44996,1,0,0:0:0:0:
316,314,45329,2,0,B|314:273|314:273|321:262|321:262|307:253|307:253|315:240|315:240|311:143,1,161.999995056153,8|0,0:0|0:0,0:0:0:0:
307,95,45996,6,0,P|254:47|157:40,1,161.999995056153,8|0,0:3|0:0,0:0:0:0:
148,45,46329,6,0,B|103:126|166:140|153:96,1,108,4|0,0:3|0:0,0:0:0:0:
93,89,46662,6,0,P|49:97|2:71,1,90,4|0,0:1|0:0,0:0:0:0:
66,289,46996,2,0,P|81:267|153:249,1,90
256,253,47329,2,0,B|328:278|330:359|330:359|348:340|331:304,1,180,8|0,0:0|0:0,0:0:0:0:
228,352,47829,1,0,0:0:0:0:
437,133,48162,2,0,B|448:73|504:56|504:56|442:68|433:117,1,180
332,121,48662,2,0,P|334:172|359:200,1,90,8|0,0:0|0:0,0:0:0:0:
241,55,48996,2,0,P|216:76|218:140,1,90
61,21,49329,5,0,0:0:0:0:
455,258,49662,1,0,0:0:0:0:
92,295,49996,2,0,P|94:263|119:294,1,90,8|0,0:0|0:0,0:0:0:0:
201,368,50329,1,0,0:0:0:0:
256,275,50496,2,0,P|251:227|282:186,1,90
211,133,50829,1,8,0:0:0:0:
412,78,50996,2,0,L|318:73,1,90,8|8,0:0|0:0,0:0:0:0:
211,133,51329,2,0,B|168:132|168:132|157:136|157:136|145:129|145:129|60:126,1,135,8|0,0:0|0:0,0:0:0:0:
21,124,51662,2,0,P|12:97|46:46,1,90,8|0,0:0|0:0,0:0:0:0:
50,199,51996,5,4,0:0:0:0:
504,197,52329,2,0,P|513:170|479:119,1,90
375,236,52662,2,0,P|336:182|407:109,1,180,8|0,0:0|0:0,0:0:0:0:
504,197,53162,2,0,P|454:204|419:153,1,90
264,136,53496,2,0,B|206:135|173:184|173:184|125:177|94:128,1,180
170,69,53996,1,8,0:0:0:0:
256,233,54162,1,0,0:0:0:0:
151,306,54329,2,0,P|105:306|98:249,1,90
272,342,54662,6,0,P|337:363|369:266,1,180
429,193,55162,2,0,P|476:197|504:150,1,90,0|8,0:0|0:0,0:0:0:0:
82,193,55662,2,0,P|36:197|8:150,1,90
126,111,55996,5,0,0:0:0:0:
214,121,56162,1,0,0:0:0:0:
232,209,56329,1,0,0:0:0:0:
152,251,56496,1,0,0:0:0:0:
166,340,56662,1,8,0:0:0:0:
254,356,56829,1,0,0:0:0:0:
294,275,56996,1,8,0:0:0:0:
232,209,57162,1,8,0:0:0:0:
428,127,57329,6,0,P|461:163|515:168,1,90,4|0,0:0|0:0,0:0:0:0:
397,205,57662,2,0,P|425:170|417:102,1,90
337,47,57996,2,0,B|271:60|254:122|254:122|245:84|275:54,1,180,8|0,0:0|0:0,0:0:0:0:
345,138,58496,1,0,0:0:0:0:
61,290,58829,2,0,P|51:235|146:163,1,180
285,268,59329,2,0,B|278:261|241:242|201:275|201:275|210:248|235:240,1,134.999996423721,8|0,0:0|0:0,0:0:0:0:
285,268,59662,2,0,P|292:324|244:360,1,90
466,295,59996,5,0,0:0:0:0:
130,41,60329,2,0,P|175:63|178:113,1,90
128,294,60662,2,0,B|100:351|28:336|28:336|44:296,1,135,8|0,0:0|0:0,0:0:0:0:
58,262,60996,1,0,0:0:0:0:
256,193,61162,2,0,B|352:117|326:276|440:170,1,180,0|8,0:0|0:0,0:0:0:0:
512,215,61662,1,8,0:0:0:0:
380,115,61829,1,8,0:0:0:0:
297,259,61996,2,0,P|277:302|285:358,1,90,8|0,0:0|0:0,0:0:0:0:
215,125,62329,2,0,P|235:82|227:26,1,90,8|0,0:0|0:0,0:0:0:0:
65,161,62662,5,4,0:0:0:0:
455,276,62996,1,0,0:0:0:0:
381,345,63162,1,0,0:0:0:0:
279,343,63329,1,8,0:0:0:0:
194,287,63496,2,0,B|124:259|74:313|74:313|78:289|105:277,1,180
258,232,63996,2,0,P|290:201|292:135,1,90
215,160,64329,1,0,0:0:0:0:
305,307,64496,2,0,P|346:342|390:342,1,90,0|8,0:0|0:0,0:0:0:0:
500,237,64829,2,0,B|417:204|374:262|374:262|398:260|414:244,1,180
382,117,65329,6,0,P|359:66|381:11,1,90
298,157,65662,2,0,P|252:124|244:65,1,90
258,232,65996,2,0,P|202:226|165:179,1,90,8|0,0:0|0:0,0:0:0:0:
259,319,66329,2,0,P|208:342|152:320,1,90
6,151,66662,5,2,0:3:0:0:
251,195,66829,1,4,0:3:0:0:
27,306,66996,1,2,0:3:0:0:
147,88,67162,1,4,0:3:0:0:
176,336,67329,1,2,3:3:0:0:
90,191,67496,1,4,0:3:0:0:
103,192,67579,1,4,0:3:0:0:
116,193,67662,2,0,P|136:208|151:233,1,45,2|0,0:3|0:0,0:0:0:0:
251,195,67829,2,0,P|270:213|285:239,1,45,2|0,0:3|0:0,0:0:0:0:
406,198,67996,6,0,B|352:248|375:340|375:340|350:313|357:267,1,215.999993408203
296,109,68496,1,2,0:0:0:0:
474,78,68662,6,0,B|498:98|501:131|501:131|513:66|453:0|354:25,1,251.999992309571,2|8,0:3|0:0,0:0:0:0:
296,109,69162,1,2,0:0:0:0:
41,172,69329,6,0,B|18:105|84:67|84:67|54:69|39:101,1,161.999995056153
110,141,69662,2,0,B|155:144|155:144|163:149|163:149|172:147|172:147|237:152,1,107.999996704102,8|0,0:0|0:0,0:0:0:0:
126,337,69996,5,2,0:3:0:0:
270,331,70162,2,0,B|308:329|308:329|314:332|314:332|319:328|319:328|379:325,1,90,2|2,0:0|0:0,0:0:0:0:
476,187,70496,1,8,0:0:0:0:
483,190,70579,1,8,0:0:0:0:
490,193,70662,6,0,P|439:222|471:322,1,161.999995056153
497,260,70996,5,8,0:0:0:0:
319,262,71162,2,0,P|320:305|367:325,1,90,2|2,0:0|0:3,0:0:0:0:
204,93,71662,2,0,B|206:163|136:178|136:178|142:166|159:157,1,135,8|0,0:0|0:0,0:0:0:0:
221,169,71996,6,0,L|315:194,1,72,0|2,0:0|0:0,0:0:0:0:
131,279,72329,2,0,L|44:258,1,72,8|0,0:0|0:0,0:0:0:0:
123,96,72662,5,2,0:3:0:0:
270,329,72829,1,2,0:0:0:0:
123,271,72996,2,0,L|17:245,1,90,8|8,3:1|0:0,0:0:0:0:
26,252,73246,1,8,0:0:0:0:
17,255,73329,6,0,B|152:349|114:178|248:278,1,215.999993408203,4|8,0:2|0:0,0:0:0:0:
434,351,73829,1,0,0:0:0:0:
400,116,73996,6,0,B|396:42|479:25|479:25|477:77|503:108,1,188.999994232178,2|0,0:3|0:0,0:0:0:0:
503,136,74329,2,0,P|448:96|392:124,1,125.999996154785,8|2,0:0|0:0,0:0:0:0:
203,115,74662,6,0,B|168:159|114:143|114:143|102:89|36:88,1,161.999995056153
12,99,74996,2,0,P|-21:137|7:183,1,107.999996704102,8|0,0:0|0:0,0:0:0:0:
256,194,75329,1,2,0:3:0:0:
142,29,75496,1,2,0:0:0:0:
141,233,75662,6,0,P|159:271|165:333,1,90,8|2,0:0|0:2,0:0:0:0:
381,223,75996,6,0,P|350:280|357:370,1,144,0|8,0:0|0:0,0:0:0:0:
464,299,76496,5,2,0:0:0:0:
371,134,76662,1,2,0:3:0:0:
260,307,76829,1,8,0:0:0:0:
260,307,76912,1,8,0:0:0:0:
260,307,76996,1,0,0:0:0:0:
141,134,77162,1,8,0:0:0:0:
48,299,77329,2,0,P|18:261|29:217,1,90,0|2,0:0|0:0,0:0:0:0:
256,53,77663,6,0,B|306:95|314:214|197:179|280:121,1,161.999995056153,8|0,0:0|0:0,0:0:0:0:
335,122,77996,2,0,B|376:118|376:118|387:118|387:118|395:114|395:114|454:109,1,107.999996704102,10|8,0:3|0:3,0:0:0:0:
464,299,78329,1,4,0:3:0:0:
260,307,78496,2,0,P|230:314|200:285,1,53.9999983520508,8|0,0:3|0:0,0:0:0:0:
111,302,78662,6,0,B|49:302|22:363|22:363|20:344|33:330,1,144,4|8,0:0|0:0,0:0:0:0:
162,375,79162,5,2,0:0:0:0:
41,156,79329,2,0,B|-20:111|23:37|23:37|59:68|105:57,1,180,2|8,0:3|0:0,0:0:0:0:
196,145,79829,2,0,P|139:114|104:129,2,90,0|0|2,0:0|0:0|0:0,0:0:0:0:
310,84,80329,6,0,B|354:133|414:109|414:109|431:55|482:44,1,161.999995056153,8|0,0:0|0:0,0:0:0:0:
499,48,80662,2,0,P|527:110|473:166,1,107.999996704102,2|0,0:2|0:0,0:0:0:0:
229,50,80996,1,8,0:0:0:0:
235,227,81162,1,10,0:0:0:0:
249,232,81246,1,8,0:0:0:0:
264,238,81329,6,0,B|363:300|275:448|178:350|222:294,1,251.999992309571,0|8,0:0|0:0,0:0:0:0:
362,221,81829,5,2,0:0:0:0:
153,258,81996,2,0,B|117:257|117:257|105:261|105:261|95:252|95:252|81:257|81:257|10:255,1,135,2|0,0:3|0:0,0:0:0:0:
0,253,82329,2,0,L|14:140,1,90,8|2,0:0|0:0,0:0:0:0:
257,136,82662,1,0,0:0:0:0:
108,23,82829,1,8,0:0:0:0:
107,33,82912,1,8,0:0:0:0:
106,43,82996,6,0,L|93:146,1,72,0|8,0:0|0:0,0:0:0:0:
300,201,83329,6,0,P|337:138|313:83,1,135,2|0,0:3|0:0,0:0:0:0:
385,61,83662,6,0,L|509:29,1,107.999996704102,8|2,3:1|0:2,0:0:0:0:
512,262,83996,6,0,L|349:304,1,144,4|8,0:2|0:0,0:0:0:0:
206,197,84496,5,2,0:0:0:0:
11,163,84662,2,0,P|51:202|61:243,1,90,2|0,0:3|0:0,0:0:0:0:
80,333,84996,2,0,P|92:254|159:223,1,135,8|0,0:0|0:0,0:0:0:0:
206,197,85329,6,0,P|243:178|254:68,1,144,0|8,0:0|0:0,0:0:0:0:
376,45,85829,5,2,0:0:0:0:
162,50,85996,2,0,P|162:109|209:102,1,90,2|0,0:3|0:0,0:0:0:0:
383,221,86329,2,0,P|383:162|336:169,1,90,8|2,0:0|0:0,0:0:0:0:
173,305,86662,6,0,B|144:351|72:356|72:356|43:283|-43:271,1,215.999993408203,4|0,0:2|0:0,0:0:0:0:
256,254,87162,1,0,0:0:0:0:
348,316,87329,1,2,0:3:0:0:
457,298,87496,1,4,0:3:0:0:
454,284,87579,1,4,0:3:0:0:
452,270,87662,1,2,0:3:0:0:
489,144,87829,1,2,0:3:0:0:
397,82,87996,1,4,0:3:0:0:
288,100,88163,1,2,0:3:0:0:
301,205,88329,2,0,P|353:217|400:192,1,107.999996704102,4|0,0:3|0:0,0:0:0:0:
195,155,88662,6,0,P|224:170|219:198,1,62.9999980773926,2|0,0:3|0:0,0:0:0:0:
45,227,88829,2,0,P|26:193|52:180,1,62.9999980773926,2|0,0:3|0:0,0:0:0:0:
209,212,88996,6,0,P|159:184|90:199,1,107.999996704102,4|4,0:3|0:0,0:0:0:0:
259,300,91996,6,0,P|283:249|227:175,1,144,4|0,0:0|0:0,0:0:0:0:
373,186,92496,2,0,L|385:256,1,72
202,248,92829,2,0,B|130:262|130:262|147:166,1,144
216,36,93329,2,0,B|273:48|273:48|277:62|277:62|290:68|290:68|304:147,1,144,2|0,0:0|0:0,0:0:0:0:
375,18,93829,1,0,0:0:0:0:
501,46,93996,1,0,0:0:0:0:
512,174,94162,1,0,0:0:0:0:
392,224,94329,2,0,P|359:199|283:231,1,108,2|0,0:0|0:0,0:0:0:0:
250,260,94662,6,0,B|227:293|186:301|186:301|158:262|103:260,1,144,4|0,0:0|0:0,0:0:0:0:
50,361,95162,2,0,P|96:371|114:329,1,72
152,179,95496,2,0,P|110:145|12:154,1,144
23,147,95996,1,2,0:0:0:0:
487,180,96329,1,0,0:0:0:0:
444,314,96496,2,0,B|474:334|474:334|490:295,1,72
487,180,96829,2,0,B|442:152|442:152|406:250,1,144
410,237,97329,5,4,0:0:0:0:
129,31,97662,1,0,0:0:0:0:
238,64,97829,2,0,P|274:49|243:42,1,72
257,192,98162,2,0,B|244:234|244:234|244:249|244:249|239:261|239:261|212:351,1,144
159,232,98662,2,0,B|88:190|99:283|8:218,1,144,2|0,0:0|0:0,0:0:0:0:
0,100,99162,1,0,0:0:0:0:
109,29,99329,1,0,0:0:0:0:
210,109,99496,1,0,0:0:0:0:
159,232,99663,2,0,P|181:275|224:251,1,108,2|0,0:0|0:0,0:0:0:0:
255,191,99996,6,0,B|268:140|240:96|240:96|268:115|270:149,1,144,4|0,0:0|0:0,0:0:0:0:
166,160,100496,2,0,P|127:162|91:148,1,72
351,154,100829,2,0,B|398:150|431:180|431:180|477:168|496:128,1,144
480,151,101329,1,2,0:0:0:0:
256,368,101662,1,0,0:0:0:0:
196,279,101829,2,0,P|175:318|206:348,1,72
330,341,102162,2,0,P|344:306|252:265,1,144
271,253,102662,5,4,0:0:0:0:
15,96,102996,1,0,0:0:0:0:
102,26,103162,2,0,P|120:60|126:109,1,72
184,170,103496,2,0,B|220:160|256:178|256:178|286:161|336:172,1,144
410,26,103996,2,0,P|385:92|404:161,1,144,2|0,0:0|0:0,0:0:0:0:
512,230,104496,1,0,0:0:0:0:
483,354,104662,1,0,0:0:0:0:
355,363,104829,1,0,0:0:0:0:
310,244,104996,2,0,B|267:244|267:244|255:240|255:240|243:244|243:244|188:244,1,108,2|0,0:0|0:0,0:0:0:0:
143,243,105329,6,0,B|115:189|47:195|47:195|63:184|91:187,1,144,4|0,0:0|0:0,0:0:0:0:
62,289,105829,2,0,P|34:311|19:360,1,72
143,243,106162,2,0,P|162:191|115:109,1,144
124,115,106662,1,2,0:0:0:0:
503,93,106996,1,0,0:0:0:0:
414,15,107162,2,0,B|412:45|412:45|414:53|414:53|410:58|410:58|406:100,1,72
313,11,107496,2,0,B|309:66|309:66|317:81|317:81|307:96|307:96|303:169,1,144
304,149,107996,5,4,0:0:0:0:
132,322,108329,1,0,0:0:0:0:
160,241,108496,2,0,P|195:245|225:226,1,72
106,175,108829,1,0,0:0:0:0:
17,270,108996,1,0,0:0:0:0:
83,381,109163,1,0,0:0:0:0:
209,354,109329,2,0,B|355:284|298:524|617:365|366:150|302:356,1,432,0|0,3:0|0:0,0:0:0:0:
160,241,110662,5,4,0:1:0:0:
483,34,111329,2,0,P|510:79|490:139,1,107.999996704102
441,171,111996,2,0,B|305:189|352:13|436:102,1,215.999993408203,8|0,0:0|0:0,0:0:0:0:
507,201,112996,1,0,0:0:0:0:
443,247,113329,5,0,0:0:0:0:
0,166,114329,1,0,0:0:0:0:
72,206,114662,2,0,B|60:229|44:241|44:241|75:299|63:365|63:365|86:347|95:319,1,215.999993408203,8|0,0:0|0:0,0:0:0:0:
161,274,115662,1,0,0:0:0:0:
258,283,115996,5,0,0:0:0:0:
355,291,116329,2,0,L|470:279,1,107.999996704102
307,139,116996,1,0,0:0:0:0:
489,168,117329,2,0,P|475:118|366:100,1,161.999995056153,8|0,0:0|0:0,0:0:0:0:
307,139,117996,2,0,P|253:147|223:89,1,107.999996704102
405,169,118662,5,0,0:0:0:0:
63,269,119329,2,0,P|93:226|63:173,1,107.999996704102
27,93,119996,2,0,B|0:108|18:122|18:122|43:98|80:97|80:97|90:34|151:25,1,215.999993408203,8|0,0:0|0:0,0:0:0:0:
395,329,121329,5,4,0:0:0:0:
494,56,121996,2,0,P|477:70|377:65,1,107.999996704102
288,87,122662,2,0,B|257:36|187:46|187:46|197:110,1,161.999995056153,8|0,0:0|0:0,0:0:0:0:
204,159,123329,1,0,0:0:0:0:
372,163,123662,1,0,0:0:0:0:
257,260,123996,6,0,B|264:305|264:305|194:315|163:264,1,161.999995056153
106,228,124662,2,0,P|58:217|1:257,1,107.999996704102
71,331,125329,1,8,0:0:0:0:
406,228,125996,2,0,P|454:217|511:257,1,107.999996704102
356,301,126662,5,0,0:0:0:0:
317,224,126996,1,0,0:0:0:0:
275,149,127329,2,0,L|166:144,1,107.999996704102
20,98,127996,2,0,B|11:111|9:129|9:129|-14:48|67:16,1,161.999995056153,8|0,0:0|0:0,0:0:0:0:
119,26,128662,2,0,L|226:30,1,107.999996704102
463,47,129329,6,0,P|521:150|471:246,1,215.999993408203
387,318,130329,1,0,0:0:0:0:
256,310,130662,2,0,B|218:381|122:306|208:249,1,161.999995056153,8|0,0:0|0:0,0:0:0:0:
215,190,131329,6,0,B|219:137|180:107|180:107|225:130|221:175,1,161.999995056153,8|0,0:3|0:0,0:0:0:0:
282,155,131662,6,0,B|324:152|324:152|335:154|335:154|342:148|342:148|388:145,1,108,4|0,0:3|0:0,0:0:0:0:
452,137,131996,6,0,P|463:79|499:56,1,90,4|0,0:0|0:0,0:0:0:0:
289,234,132329,2,0,P|278:292|242:315,1,90
71,238,132662,2,0,B|85:289|148:293|148:293|172:240|240:236,1,180,8|0,0:0|0:0,0:0:0:0:
361,288,133162,2,0,P|380:324|368:384,1,90
289,234,133496,2,0,B|270:169|312:116|312:116|308:158|291:187,1,180
204,242,133996,2,0,P|163:221|145:182,1,90,8|0,0:0|0:0,0:0:0:0:
330,41,134329,2,0,P|371:62|389:101,1,90
241,310,134662,6,0,B|210:327|175:316|175:316|146:364|88:355,1,135
77,328,134996,2,0,P|70:285|113:290,1,90
384,276,135329,2,0,B|462:283|489:354|489:354|490:332|472:310,1,180,8|0,0:0|0:0,0:0:0:0:
442,160,135829,2,0,P|469:111|474:59,1,90
319,39,136162,2,0,B|345:52|353:78|353:78|361:57|348:42,1,90,8|8,0:0|0:0,0:0:0:0:
258,116,136496,1,8,0:0:0:0:
122,32,136662,2,0,P|83:65|116:149,1,135,8|0,0:0|0:0,0:0:0:0:
155,173,136996,2,0,B|161:136|196:135|196:135|174:145|166:161,1,90,8|0,0:0|0:0,0:0:0:0:
0,149,137329,5,4,0:0:0:0:
299,361,137662,2,0,P|293:331|338:344,1,90
498,283,137996,2,0,B|485:349|410:348|410:348|417:295|368:265,1,180,8|0,0:0|0:0,0:0:0:0:
449,120,138496,2,0,P|487:150|501:199,1,90
337,241,138829,2,0,B|274:140|405:168|319:49,1,180
258,116,139329,1,8,0:0:0:0:
414,196,139496,1,0,0:0:0:0:
237,276,139662,2,0,P|206:282|157:236,1,90
258,116,139996,6,0,P|328:108|379:151,1,135
414,196,140329,1,0,0:0:0:0:
492,106,140496,2,0,L|504:11,1,90,0|8,0:0|0:0,0:0:0:0:
8,16,140996,2,0,L|20:106,1,90
25,217,141329,5,0,0:0:0:0:
140,239,141496,1,0,0:0:0:0:
221,156,141662,1,0,0:0:0:0:
94,170,141829,1,0,0:0:0:0:
63,294,141996,1,8,0:0:0:0:
175,355,142162,1,0,0:0:0:0:
274,274,142329,1,8,0:0:0:0:
221,156,142496,1,8,0:0:0:0:
332,38,142662,6,0,P|375:37|407:89,1,90,4|0,0:0|0:0,0:0:0:0:
420,187,142996,2,0,P|444:155|506:157,1,90
221,156,143329,2,0,P|154:149|85:40,1,180,8|0,0:0|0:0,0:0:0:0:
247,85,143829,2,0,P|288:116|283:183,1,90
75,234,144162,2,0,B|20:270|14:348|14:348|2:328|15:302,1,180
191,333,144662,2,0,B|219:377|274:357|274:357|262:318|296:296,1,134.999996423721,8|0,0:0|0:0,0:0:0:0:
332,283,144996,2,0,P|363:321|359:369,1,90
420,187,145329,6,0,P|376:166|450:147,1,180
491,233,145829,1,0,0:0:0:0:
315,206,145996,2,0,B|291:170|236:164|236:164|199:219|125:207,1,180,8|0,0:0|0:0,0:0:0:0:
84,84,146496,2,0,P|134:87|142:153,2,90,0|0|8,0:0|0:0|0:0,0:0:0:0:
69,184,146996,1,8,0:0:0:0:
232,72,147162,1,8,0:0:0:0:
253,260,147329,2,0,P|307:291|368:257,1,135,8|0,0:0|0:0,0:0:0:0:
414,220,147662,2,0,P|457:231|422:246,1,90,8|0,0:0|0:0,0:0:0:0:
418,373,147996,5,4,0:0:0:0:
71,248,148329,1,0,0:0:0:0:
94,373,148496,1,0,0:0:0:0:
174,275,148662,1,8,0:0:0:0:
147,151,148829,2,0,B|59:140|55:56|55:56|63:90|94:113,1,180
285,129,149329,2,0,P|238:155|222:197,1,90
308,213,149662,1,0,0:0:0:0:
246,61,149829,2,0,P|223:44|208:90,1,90,0|8,0:0|0:0,0:0:0:0:
362,151,150162,2,0,P|437:122|490:38,1,180
425,271,150662,6,0,P|440:305|428:357,1,90
331,311,150996,2,0,P|318:342|261:368,1,90
244,267,151329,2,0,P|216:271|153:235,1,90,8|0,0:0|0:0,0:0:0:0:
244,178,151662,2,0,P|217:140|228:93,1,90
496,213,151996,5,2,0:3:0:0:
244,178,152162,1,4,0:3:0:0:
468,58,152329,1,2,0:3:0:0:
357,287,152496,1,4,0:3:0:0:
312,36,152662,1,2,3:3:0:0:
399,154,152829,1,4,0:3:0:0:
388,159,152912,1,4,0:3:0:0:
377,164,152996,2,0,P|349:165|338:141,1,45,2|0,0:3|0:0,0:0:0:0:
244,178,153162,2,0,P|228:159|240:142,1,45,2|0,0:3|0:0,0:0:0:0:
163,64,153329,6,0,B|85:60|34:135|34:135|41:104|71:81,1,215.999993408203,4|8,0:1|0:0,0:0:0:0:
307,219,153829,1,2,0:0:0:0:
317,333,153996,6,0,B|410:369|477:288|477:288|458:328|421:359,1,251.999992309571,2|8,0:3|0:0,0:0:0:0:
235,289,154496,1,2,0:0:0:0:
65,362,154662,6,0,B|43:358|43:358|20:256|20:256|65:266,1,161.999995056153
128,278,154996,2,0,B|171:282|171:282|180:281|180:281|187:284|187:284|239:289,1,107.999996704102,8|0,0:0|0:0,0:0:0:0:
458,65,155329,5,2,0:3:0:0:
339,80,155496,2,0,B|307:83|307:83|299:82|299:82|292:84|292:84|236:91,1,90,2|2,0:0|0:0,0:0:0:0:
416,309,155829,1,8,0:0:0:0:
429,310,155912,1,8,0:0:0:0:
442,310,155996,6,0,B|505:267|475:199|475:199|496:213|492:238,1,161.999995056153
412,238,156329,5,8,0:0:0:0:
199,144,156496,2,0,B|167:147|167:147|159:146|159:146|152:148|152:148|96:155,1,90,2|2,0:0|0:3,0:0:0:0:
306,322,156996,2,0,B|363:325|363:325|372:323|372:323|382:328|382:328|447:332,1,135,8|0,0:0|0:0,0:0:0:0:
504,333,157329,6,0,P|522:289|496:256,1,72
256,254,157662,2,0,P|247:220|266:191,1,72,8|2,0:0|0:0,0:0:0:0:
407,243,157996,5,2,0:3:0:0:
128,330,158162,1,2,0:0:0:0:
192,204,158329,2,0,P|250:235|257:271,1,90,8|8,3:1|0:1,0:0:0:0:
254,266,158579,1,8,0:0:0:0:
251,278,158662,6,0,B|222:207|277:172|277:172|334:202|325:257,1,215.999993408203,4|8,0:2|0:0,0:0:0:0:
433,92,159162,1,2,0:0:0:0:
129,44,159329,6,0,B|59:45|20:110|20:110|25:81|50:59,1,188.999994232178,2|0,0:3|0:0,0:0:0:0:
151,83,159662,2,0,B|184:113|238:106|238:106|222:63,1,125.999996154785,8|2,0:0|0:0,0:0:0:0:
407,243,159996,6,0,B|410:292|455:316|455:316|407:300|399:250,1,161.999995056153
488,242,160329,2,0,B|494:197|494:197|498:189|498:189|495:182|495:182|503:120,1,107.999996704102,8|0,0:0|0:0,0:0:0:0:
282,263,160662,2,0,P|297:324|306:383,1,107.999996704102,2|2,0:3|0:0,0:0:0:0:
304,133,160996,6,0,P|349:90|399:56,1,90,8|2,0:0|0:2,0:0:0:0:
181,179,161329,6,0,P|121:161|44:126,1,144,0|8,0:0|0:0,0:0:0:0:
185,50,161829,5,2,0:0:0:0:
368,81,161996,1,2,0:3:0:0:
396,264,162162,1,8,0:0:0:0:
396,264,162246,1,8,0:0:0:0:
396,264,162329,1,0,0:0:0:0:
230,347,162496,1,8,0:0:0:0:
99,216,162662,2,0,P|143:197|194:188,1,90,0|10,0:0|0:0,0:0:0:0:
412,168,162996,6,0,P|369:187|250:189,1,161.999995056153,8|0,0:0|0:0,0:0:0:0:
336,231,163329,2,0,P|392:264|450:326,1,107.999996704102,10|8,0:3|0:3,0:0:0:0:
466,101,163662,1,4,0:3:0:0:
255,190,163829,2,0,P|256:222|233:213,1,53.9999983520508,8|0,0:0|0:0,0:0:0:0:
176,153,163996,6,0,P|120:120|55:46,1,144,4|8,0:1|0:0,0:0:0:0:
46,283,164496,5,2,0:0:0:0:
232,349,164662,2,0,B|231:278|154:252|154:252|163:280|152:312,1,180,2|8,0:3|0:0,0:0:0:0:
307,319,165162,2,0,P|324:273|391:272,2,90,0|0|2,0:0|0:0|0:0,0:0:0:0:
423,88,165662,6,0,P|379:139|278:108,1,161.999995056153,8|0,0:0|0:0,0:0:0:0:
233,85,165996,2,0,P|184:70|126:134,1,107.999996704102,2|2,0:2|0:0,0:0:0:0:
345,58,166329,1,8,0:0:0:0:
125,153,166496,1,8,0:0:0:0:
127,162,166579,1,8,0:0:0:0:
129,170,166662,6,0,P|206:214|218:79,1,251.999992309571,0|8,0:0|0:0,0:0:0:0:
37,117,167162,5,2,0:0:0:0:
127,283,167329,2,0,P|179:323|257:309,1,135,2|0,0:3|0:0,0:0:0:0:
308,284,167662,2,0,P|374:264|419:289,1,90,8|2,0:0|0:0,0:0:0:0:
496,364,167996,1,8,0:0:0:0:
509,179,168162,1,8,0:0:0:0:
496,181,168246,1,8,0:0:0:0:
483,183,168329,6,0,P|447:179|407:144,1,72,0|8,0:0|0:0,0:0:0:0:
213,28,168662,6,0,B|226:98|162:120|162:120|175:103|196:96,1,135,2|0,0:3|0:0,0:0:0:0:
252,141,168996,6,0,P|294:180|280:247,1,107.999996704102,8|2,3:1|0:2,0:0:0:0:
59,323,169329,6,0,P|18:296|47:200,1,144,4|8,0:2|0:0,0:0:0:0:
260,304,169829,5,2,0:0:0:0:
92,256,169996,2,0,P|118:220|94:178,1,90,2|0,0:3|0:0,0:0:0:0:
65,80,170329,2,0,B|57:31|57:31|164:62,1,135,8|0,0:0|0:0,0:0:0:0:
194,85,170662,6,0,B|293:113|293:113|283:52,1,144,0|8,0:0|0:0,0:0:0:0:
401,100,171162,5,2,0:0:0:0:
386,12,171329,2,0,L|406:126,1,90,2|0,0:3|0:0,0:0:0:0:
493,233,171663,2,0,P|450:218|417:242,1,90,8|2,0:0|0:0,0:0:0:0:
282,282,171996,6,0,B|271:247|239:225|239:225|282:290|255:366,1,215.999993408203,4|8,0:2|0:0,0:0:0:0:
94,245,172496,1,2,0:0:0:0:
155,55,172662,1,2,0:3:0:0:
355,53,172829,1,8,0:0:0:0:
355,53,172912,1,8,0:0:0:0:
355,53,172996,1,0,0:0:0:0:
417,243,173162,1,8,0:0:0:0:
127,150,173329,5,2,0:0:0:0:
385,150,173496,1,2,0:3:0:0:
176,301,173662,1,2,0:3:0:0:
256,56,173829,1,4,0:3:0:0:
335,301,173996,1,2,0:3:0:0:
167,145,174162,1,4,0:3:0:0:
180,144,174246,1,4,0:3:0:0:
193,143,174329,6,0,L|263:136,1,45,2|0,0:3|0:0,0:0:0:0:
328,220,174496,2,0,L|283:224,1,45,2|0,0:3|0:0,0:0:0:0:
420,74,174663,6,0,B|503:108|488:208|488:208|509:181|505:153,1,215.999993408203,4|8,0:1|0:0,0:0:0:0:
257,298,175162,1,2,0:0:0:0:
65,293,175329,2,0,B|25:245|51:180|51:180|20:199|24:235,1,161.999995056153,2|0,0:3|0:0,0:0:0:0:
121,228,175662,2,0,P|165:205|126:188,1,107.999996704102,8|2,0:0|0:0,0:0:0:0:
286,97,175996,6,0,B|343:74|358:4|358:4|360:51|345:80,1,188.999994232178
239,102,176329,2,0,P|178:84|140:27,1,125.999996154785,8|2,0:0|0:0,0:0:0:0:
399,192,176662,1,2,0:3:0:0:
187,365,176829,2,0,P|228:301|387:342,1,251.999992309571,8|8,0:0|0:0,0:0:0:0:
175,209,177329,6,0,B|189:143|239:101|239:101|185:129|161:182,1,216
100,216,177662,2,0,B|140:249|135:307|135:307|145:283|144:261,1,144,8|2,0:0|0:0,0:0:0:0:
79,135,177996,6,0,B|44:131|13:104|13:104|79:180|188:155,1,251.999992309571,2|8,0:3|0:0,0:0:0:0:
462,137,178496,1,8,0:0:0:0:
462,137,178579,1,8,0:0:0:0:
462,137,178662,6,0,L|475:28,1,107.999996704102,0|2,0:0|0:0,0:0:0:0:
462,247,178996,2,0,L|475:356,1,107.999996704102,8|2,0:0|0:0,0:0:0:0:
387,147,179329,6,0,L|398:52,1,90,2|2,0:3|0:0,0:0:0:0:
387,237,179662,2,0,L|398:332,1,90,8|2,3:1|0:2,0:0:0:0:
256,192,179996,6,0,B|218:150|156:161|156:161|193:167|216:185,1,144,4|8,0:2|0:0,0:0:0:0:
307,108,180496,1,2,0:0:0:0:
175,260,180662,1,2,0:3:0:0:
12,158,180829,1,8,0:0:0:0:
12,158,180912,1,8,0:0:0:0:
12,158,180996,1,0,0:0:0:0:
138,3,181162,1,8,0:0:0:0:
85,164,181329,6,0,P|94:124|150:90,1,107.999996704102,0|2,0:0|0:0,0:0:0:0:
245,251,181662,2,0,B|246:320|173:333|173:333|204:340|222:322,1,161.999995056153,8|0,0:0|0:0,0:0:0:0:
175,260,181996,5,2,0:3:0:0:
387,237,182162,2,0,B|518:287|540:116|347:171|457:292|544:294,1,251.999992309571,8|8,0:0|0:0,0:0:0:0:
311,83,182662,6,0,B|256:79|210:117|210:117|225:91|249:79,1,161.999995056153
318,118,182996,2,0,P|365:144|431:125,1,107.999996704102,8|2,0:0|0:0,0:0:0:0:
345,8,183329,2,0,B|252:81|386:117|261:217,1,215.999993408203,2|8,0:3|0:0,0:0:0:0:
175,260,183829,1,2,0:0:0:0:
46,234,183996,6,0,B|4:241|4:241|21:137,1,125.999996154785
269,263,184329,6,0,B|308:296|281:356|281:356|206:370,1,161.999995056153,8|0,0:0|0:0,0:0:0:0:
166,336,184662,2,0,P|140:288|188:260,1,107.999996704102,10|8,0:3|0:3,0:0:0:0:
478,247,184996,2,0,B|476:214|476:214|473:207|473:207|477:198|477:198|473:116,1,107.999996704102,4|8,0:3|0:3,0:0:0:0:
151,164,185329,6,0,P|92:208|82:291,1,144,4|8,0:1|0:0,0:0:0:0:
260,107,185829,6,0,P|249:33|208:0,2,90,2|2|0,0:0|0:3|0:0,0:0:0:0:
100,62,186329,2,0,P|144:64|181:88,1,90,8|2,0:0|0:0,0:0:0:0:
399,239,186663,2,0,P|347:242|285:189,1,134.999996423721
316,267,186996,6,0,P|263:274|217:233,1,107.999996704102,8|2,0:0|0:0,0:0:0:0:
372,152,187329,2,0,P|425:145|471:186,1,107.999996704102,2|0,0:2|0:0,0:0:0:0:
140,152,187662,2,0,P|87:145|41:186,1,107.999996704102,8|2,0:0|0:0,0:0:0:0:
225,224,187996,6,0,B|364:292|325:125|473:202,1,251.999992309571,0|8,0:0|0:0,0:0:0:0:
411,282,188496,1,2,0:0:0:0:
278,145,188662,1,2,0:3:0:0:
414,25,188829,1,8,0:0:0:0:
414,25,188912,1,8,0:0:0:0:
414,25,188996,1,0,0:0:0:0:
325,142,189162,1,8,0:0:0:0:
458,279,189329,1,0,0:0:0:0:
461,19,189496,1,2,0:0:0:0:
232,150,189663,6,0,B|188:153|188:153|179:150|179:150|171:152|171:152|110:156,1,107.999997138977,8|0,0:0|0:0,0:0:0:0:
61,160,189996,6,0,P|38:115|62:70,1,90,2|2,0:3|0:0,0:0:0:0:
226,264,190329,6,0,P|198:306|142:307,1,107.999996704102,8|2,3:1|0:2,0:0:0:0:
236,61,190662,6,0,P|286:63|324:142,1,144,4|8,0:2|0:0,0:0:0:0:
158,232,191162,5,2,0:0:0:0:
455,208,191329,2,0,P|410:176|365:191,1,90,2|0,0:3|0:0,0:0:0:0:
309,322,191663,2,0,B|278:257|326:221|326:221|326:246|312:259,1,135,8|0,0:0|0:0,0:0:0:0:
390,273,191996,6,0,P|460:302|524:266,1,144,0|8,0:0|0:0,0:0:0:0:
481,53,192496,5,2,0:0:0:0:
362,78,192662,2,0,B|327:84|327:84|318:88|318:88|308:86|308:86|252:95,1,90,2|0,0:3|0:0,0:0:0:0:
106,235,192996,2,0,P|64:255|10:224,1,90,8|2,0:0|0:0,0:0:0:0:
10,99,193329,6,0,P|100:92|139:207,1,215.999993408203,4|8,0:2|0:0,0:0:0:0:
62,169,193829,1,2,0:0:0:0:
210,42,193996,1,2,0:3:0:0:
255,230,194162,1,8,0:0:0:0:
255,230,194246,1,8,0:0:0:0:
255,230,194329,1,0,0:0:0:0:
116,367,194496,1,8,0:0:0:0:
230,134,194663,5,4,0:3:0:0:
376,339,194829,1,2,0:3:0:0:
141,246,194996,1,2,0:3:0:0:
383,179,195163,1,4,0:3:0:0:
229,379,195329,1,2,0:3:0:0:
353,253,195496,1,4,0:3:0:0:
362,255,195579,1,4,0:3:0:0:
371,257,195663,6,0,B|315:277,1,53.9999983520508,2|0,0:3|0:0,0:0:0:0:
156,240,195829,2,0,B|206:221,1,53.9999983520508,2|0,0:3|0:0,0:0:0:0:
60,336,195996,6,0,B|-11:280|32:194|32:194|5:216|3:259,1,215.999993408203,4|8,0:1|0:0,0:0:0:0:
257,137,196496,1,2,0:0:0:0:
487,150,196663,6,0,B|482:185|455:199|455:199|509:93|420:21,1,251.999992309571,2|8,0:3|0:0,0:0:0:0:
257,137,197162,1,2,0:0:0:0:
112,168,197329,6,0,P|81:109|152:40,1,161.999995056153
153,110,197663,2,0,L|18:97,1,107.999996704102,8|0,0:0|0:0,0:0:0:0:
274,283,197996,5,2,0:3:0:0:
370,277,198163,2,0,L|476:269,1,90,2|2,0:0|0:0,0:0:0:0:
204,220,198496,1,8,0:0:0:0:
194,223,198579,1,8,0:0:0:0:
185,226,198663,6,0,B|130:232|111:285|111:285|74:258|30:279,1,161.999995056153
0,316,198996,5,8,0:0:0:0:
150,349,199163,2,0,P|93:356|60:337,1,90,2|2,0:0|0:3,0:0:0:0:
319,124,199663,2,0,P|376:117|441:169,1,135,8|0,0:0|0:0,0:0:0:0:
463,196,199996,6,0,P|505:206|501:174,1,72,0|2,0:0|0:0,0:0:0:0:
256,192,200329,2,0,P|214:202|218:170,1,72,8|0,0:0|0:0,0:0:0:0:
257,21,200662,5,2,0:3:0:0:
359,208,200829,1,2,0:0:0:0:
121,128,200996,2,0,P|91:106|33:143,1,90,8|8,3:1|0:0,0:0:0:0:
35,128,201246,1,8,0:0:0:0:
26,135,201329,6,0,P|83:95|86:209,1,215.999993408203,4|8,0:2|0:0,0:0:0:0:
225,363,201829,1,2,0:0:0:0:
382,253,201996,6,0,B|447:229|499:276|499:276|484:243|454:233,1,188.999994232178,2|0,0:3|0:0,0:0:0:0:
374,297,202329,2,0,B|345:332|288:320|288:320|296:286,1,125.999996154785,8|2,0:0|0:0,0:0:0:0:
429,98,202662,6,0,P|431:63|461:120,1,161.999995056153
386,130,202996,2,0,P|346:101|322:9,1,107.999996704102,8|2,0:0|0:0,0:0:0:0:
320,208,203329,2,0,P|261:211|205:187,1,107.999996704102,2|0,0:3|0:0,0:0:0:0:
127,363,203662,6,0,P|152:317|200:278,1,90,8|2,0:0|0:2,0:0:0:0:
69,78,203996,6,0,P|101:127|107:213,1,144,0|8,0:0|0:0,0:0:0:0:
256,312,204496,5,2,0:0:0:0:
408,217,204662,1,2,0:3:0:0:
346,47,204829,1,8,0:0:0:0:
346,47,204912,1,8,0:0:0:0:
346,47,204996,1,0,0:0:0:0:
166,47,205162,1,8,0:0:0:0:
105,217,205329,2,0,P|111:263|179:277,1,90,0|8,0:0|0:0,0:0:0:0:
408,217,205663,6,0,P|423:146|335:95,1,161.999995056153,8|0,0:0|0:0,0:0:0:0:
352,168,205996,2,0,L|466:142,1,107.999996704102,10|8,0:3|0:3,0:0:0:0:
256,312,206329,1,4,0:3:0:0:
167,139,206496,2,0,L|102:130,1,53.9999983520508,8|0,0:3|0:0,0:0:0:0:
256,192,206662,6,0,B|308:117|198:133|268:44,1,144,4|8,0:1|0:0,0:0:0:0:
337,271,207162,5,2,0:0:0:0:
177,222,207329,2,0,B|107:222|67:285|67:285|69:256|101:230,1,180,2|8,0:3|0:0,0:0:0:0:
337,271,207829,2,0,P|375:315|379:381,2,90,2|0|0,0:0|0:0|0:0,0:0:0:0:
360,93,208329,6,0,B|443:105|506:18|427:23|426:65,1,161.999995056153,8|0,0:0|0:0,0:0:0:0:
454,133,208662,2,0,B|466:169|466:169|469:175|469:175|468:181|468:181|492:254,1,107.999996704102,2|2,0:2|0:0,0:0:0:0:
256,192,208996,2,0,B|256:240|256:240|259:248|259:248|257:257|257:257|257:336,1,107.999996704102,8|0,0:0|0:0,0:0:0:0:
73,131,209329,6,0,B|-2:179|15:287|15:287|-5:257|0:214,1,251.999992309571,0|8,0:0|0:0,0:0:0:0:
160,192,209829,1,2,0:0:0:0:
256,61,209996,1,2,0:3:0:0:
136,51,210162,1,8,0:0:0:0:
136,51,210246,1,8,0:0:0:0:
136,51,210329,1,0,0:0:0:0:
352,192,210496,1,8,0:0:0:0:
376,51,210662,1,0,0:0:0:0:
256,178,210829,1,8,0:0:0:0:
333,321,210996,6,0,B|396:310|396:310|425:326|459:334,1,108,8|0,0:0|0:0,0:0:0:0:
481,310,211329,6,0,P|492:268|444:260,1,90,2|2,0:3|0:0,0:0:0:0:
184,290,211662,6,0,P|223:326|257:283,1,107.999996704102,8|2,3:1|0:2,0:0:0:0:
360,13,211996,6,0,P|308:28|334:113,1,144,4|8,0:2|0:0,0:0:0:0:
415,92,212496,5,2,0:0:0:0:
230,128,212662,2,0,P|182:96|150:38,1,90,2|0,0:3|0:0,0:0:0:0:
129,188,212996,2,0,P|81:208|31:200,1,90,8|2,0:0|0:0,0:0:0:0:
220,247,213329,6,0,B|204:309|153:332|153:332|162:311|176:297,1,144,0|8,0:0|0:0,0:0:0:0:
333,321,213829,5,2,0:0:0:0:
432,363,213996,2,0,P|446:322|430:272,1,90,2|0,0:3|0:0,0:0:0:0:
363,102,214329,2,0,P|407:117|437:85,1,90,8|2,0:0|0:0,0:0:0:0:
196,83,214662,6,0,B|110:86|70:165|70:165|66:129|94:100,1,215.999993408203,4|8,0:2|0:0,0:0:0:0:
277,101,215162,5,2,0:0:0:0:
409,194,215329,2,0,B|461:185|499:225|499:225|507:208|474:190,1,135,2|0,0:3|0:0,0:0:0:0:
383,203,215662,2,0,P|353:236|348:300,1,90,8|0,0:0|0:0,0:0:0:0:
146,330,215996,1,0,0:0:0:0:
258,189,216162,1,2,0:3:0:0:
230,347,216329,6,0,P|225:279|121:251,1,161.999995056153,4|0,0:3|0:0,0:0:0:0:
105,252,216662,2,0,P|64:282|65:349,1,107.999996704102,2|2,0:3|0:0,0:0:0:0:
258,189,216996,6,0,P|293:163|312:89,1,107.999996704102,4|4,0:0|0:1,0:0:0:0:
