osu file format v14

[General]
AudioFilename: audio.mp3
AudioLeadIn: 0
PreviewTime: 1391
Countdown: 0
SampleSet: Normal
StackLeniency: 0.7
Mode: 0
LetterboxInBreaks: 0
WidescreenStoryboard: 0

[Editor]
DistanceSpacing: 0.3
BeatDivisor: 12
GridSize: 32
TimelineZoom: 2.050002

[Metadata]
Title:Qian Si Xi
TitleUnicode:牵丝戏
Artist:Yin Lin & Aki A Jie
ArtistUnicode:银临 & Aki阿杰
Creator:AIR
Version:yore
Source:
Tags:灰原穷 古风 chinese pop
BeatmapID:2248128
BeatmapSetID:1074239

[Difficulty]
HPDrainRate:4
CircleSize:4.5
OverallDifficulty:8
ApproachRate:9.2
SliderMultiplier:3.59999990463257
SliderTickRate:1

[Events]
//Background and Video events
0,0,"78084788_p0.jpg",0,0
//Break Periods
2,113916,122217
//Storyboard Layer 0 (Background)
//Storyboard Layer 1 (Fail)
//Storyboard Layer 2 (Pass)
//Storyboard Layer 3 (Foreground)
//Storyboard Layer 4 (Overlay)
//Storyboard Sound Samples

[TimingPoints]
2089,697.674418604651,4,1,1,50,1,0
24414,-100,4,2,1,40,0,0
46740,-100,4,1,1,50,0,0
69066,-83.3333333333333,4,1,1,60,0,0
69414,-100,4,1,1,60,0,0
70461,-83.3333333333333,4,1,1,60,0,0
70810,-100,4,1,1,60,0,0
71856,-125,4,1,1,60,0,0
72205,-100,4,1,1,60,0,0
73252,-125,4,1,1,60,0,0
74647,-83.3333333333333,4,1,1,60,0,0
74996,-100,4,1,1,60,0,0
76042,-83.3333333333333,4,1,1,60,0,0
76391,-100,4,1,1,60,0,0
77438,-83.3333333333333,4,1,1,60,0,0
78135,-100,4,1,1,60,0,0
79531,-125,4,1,1,60,0,0
79880,-66.6666666666667,4,1,1,60,0,0
80228,-83.3333333333333,4,1,1,60,0,0
80577,-100,4,1,1,60,0,0
81624,-83.3333333333333,4,1,1,60,0,0
81973,-100,4,1,1,60,0,0
83019,-125,4,1,1,60,0,0
83368,-100,4,1,1,60,0,0
84414,-83.3333333333333,4,1,1,60,0,0
84763,-100,4,1,1,60,0,0
85810,-125,4,1,1,60,0,0
86159,-100,4,1,1,60,0,0
87205,-125,4,1,1,60,0,0
87554,-100,4,1,1,60,0,0
88600,-83.3333333333333,4,1,1,60,0,0
88949,-100,4,1,1,60,0,0
89996,-66.6666666666667,4,1,1,60,0,0
91391,-100,4,1,1,80,0,1
91740,-83.3333333333333,4,1,1,80,0,1
92438,-71.4285714285714,4,1,1,80,0,1
92787,-83.3333333333333,4,1,1,80,0,1
93484,-125,4,1,1,80,0,1
94531,-83.3333333333333,4,1,1,80,0,1
95577,-100,4,1,1,80,0,1
95926,-83.3333333333333,4,1,1,80,0,1
96275,-71.4285714285714,4,1,1,80,0,1
96624,-83.3333333333333,4,1,1,80,0,1
96973,-100,4,1,1,80,0,1
97321,-83.3333333333333,4,1,1,80,0,1
98019,-71.4285714285714,4,1,1,80,0,1
98368,-100,4,1,1,80,0,1
99066,-83.3333333333333,4,1,1,80,0,1
99414,-71.4285714285714,4,1,1,80,0,1
99763,-125,4,1,1,80,0,1
100112,-83.3333333333333,4,1,1,80,0,1
101507,-100,4,1,1,80,0,1
101856,-83.3333333333333,4,1,1,80,0,1
102205,-71.4285714285714,4,1,1,80,0,1
102554,-66.6666666666667,4,1,1,80,0,1
102903,-83.3333333333333,4,1,1,80,0,1
103252,-100,4,1,1,80,0,1
103600,-83.3333333333333,4,1,1,80,0,1
103949,-100,4,1,1,80,0,1
104647,-71.4285714285714,4,1,1,80,0,1
104996,-83.3333333333333,4,1,1,80,0,1
105345,-100,4,1,1,80,0,1
105694,-83.3333333333333,4,1,1,80,0,1
106042,-71.4285714285714,4,1,1,80,0,1
106391,-66.6666666666667,4,1,1,80,0,1
106740,-100,4,1,1,80,0,1
107089,-83.3333333333333,4,1,1,80,0,1
107787,-100,4,1,1,80,0,1
108135,-83.3333333333333,4,1,1,80,0,1
108833,-100,4,1,1,80,0,1
109531,-83.3333333333333,4,1,1,80,0,1
109880,-71.4285714285714,4,1,1,80,0,1
110228,-100,4,1,1,80,0,1
110577,-83.3333333333333,4,1,1,80,0,1
110926,-125,4,1,1,80,0,1
111275,-83.3333333333333,4,1,1,80,0,1
112321,-66.6666666666667,4,1,1,80,0,1
113716,-83.3333333333333,4,1,1,70,0,0
136042,-100,4,2,1,50,0,0
158368,-83.3333333333333,4,1,1,60,0,0
158717,-100,4,1,1,60,0,0
159763,-83.3333333333333,4,1,1,60,0,0
160112,-100,4,1,1,60,0,0
161159,-125,4,1,1,60,0,0
161507,-100,4,1,1,60,0,0
162554,-125,4,1,1,60,0,0
162903,-100,4,1,1,60,0,0
163949,-83.3333333333333,4,1,1,60,0,0
164298,-100,4,1,1,60,0,0
165345,-83.3333333333333,4,1,1,60,0,0
165694,-100,4,1,1,60,0,0
166740,-83.3333333333333,4,1,1,60,0,0
167438,-100,4,1,1,60,0,0
168833,-125,4,1,1,60,0,0
169182,-66.6666666666667,4,1,1,60,0,0
169531,-83.3333333333333,4,1,1,60,0,0
169880,-100,4,1,1,60,0,0
170926,-83.3333333333333,4,1,1,60,0,0
171275,-100,4,1,1,60,0,0
172321,-125,4,1,1,60,0,0
172670,-100,4,1,1,60,0,0
173717,-83.3333333333333,4,1,1,60,0,0
174066,-100,4,1,1,60,0,0
175112,-125,4,1,1,60,0,0
175461,-100,4,1,1,60,0,0
176507,-125,4,1,1,60,0,0
176856,-100,4,1,1,60,0,0
177903,-83.3333333333333,4,1,1,60,0,0
178252,-100,4,1,1,60,0,0
179298,-66.6666666666667,4,1,1,60,0,0
180693,-100,4,1,1,80,0,1
181042,-83.3333333333333,4,1,1,80,0,1
181740,-71.4285714285714,4,1,1,80,0,1
182089,-83.3333333333333,4,1,1,80,0,1
182787,-125,4,1,1,80,0,1
183833,-83.3333333333333,4,1,1,80,0,1
184880,-100,4,1,1,80,0,1
185228,-83.3333333333333,4,1,1,80,0,1
185577,-71.4285714285714,4,1,1,80,0,1
185926,-83.3333333333333,4,1,1,80,0,1
186275,-100,4,1,1,80,0,1
186624,-83.3333333333333,4,1,1,80,0,1
187321,-71.4285714285714,4,1,1,80,0,1
187670,-100,4,1,1,80,0,1
188368,-83.3333333333333,4,1,1,80,0,1
188717,-71.4285714285714,4,1,1,80,0,1
189066,-125,4,1,1,80,0,1
189414,-83.3333333333333,4,1,1,80,0,1
190810,-100,4,1,1,80,0,1
191159,-83.3333333333333,4,1,1,80,0,1
191507,-71.4285714285714,4,1,1,80,0,1
191856,-66.6666666666667,4,1,1,80,0,1
192205,-83.3333333333333,4,1,1,80,0,1
192554,-100,4,1,1,80,0,1
192903,-83.3333333333333,4,1,1,80,0,1
193252,-100,4,1,1,80,0,1
193949,-71.4285714285714,4,1,1,80,0,1
194298,-83.3333333333333,4,1,1,80,0,1
194647,-100,4,1,1,80,0,1
194996,-83.3333333333333,4,1,1,80,0,1
195345,-71.4285714285714,4,1,1,80,0,1
195694,-66.6666666666667,4,1,1,80,0,1
196042,-100,4,1,1,80,0,1
196391,-83.3333333333333,4,1,1,80,0,1
197089,-100,4,1,1,80,0,1
197438,-83.3333333333333,4,1,1,80,0,1
198135,-100,4,1,1,80,0,1
198833,-83.3333333333333,4,1,1,80,0,1
199182,-71.4285714285714,4,1,1,80,0,1
199531,-100,4,1,1,80,0,1
199880,-83.3333333333333,4,1,1,80,0,1
200228,-125,4,1,1,80,0,1
200577,-83.3333333333333,4,1,1,80,0,1
201623,-66.6666666666667,4,1,1,80,0,0
203019,-100,4,1,1,80,0,1
203368,-83.3333333333333,4,1,1,80,0,1
204066,-71.4285714285714,4,1,1,80,0,1
204414,-83.3333333333333,4,1,1,80,0,1
205112,-125,4,1,1,80,0,1
206159,-83.3333333333333,4,1,1,80,0,1
207554,-100,4,1,1,80,0,1
207903,-83.3333333333333,4,1,1,80,0,1
208252,-71.4285714285714,4,1,1,80,0,1
208600,-100,4,1,1,80,0,1
208949,-83.3333333333333,4,1,1,80,0,1
209647,-71.4285714285714,4,1,1,80,0,1
209996,-100,4,1,1,80,0,1
210694,-83.3333333333333,4,1,1,80,0,1
211042,-71.4285714285714,4,1,1,80,0,1
211391,-125,4,1,1,80,0,1
211740,-83.3333333333333,4,1,1,80,0,1
213135,-100,4,1,1,80,0,1
213484,-83.3333333333333,4,1,1,80,0,1
213833,-71.4285714285714,4,1,1,80,0,1
214182,-66.6666666666667,4,1,1,80,0,1
214531,-83.3333333333333,4,1,1,80,0,1
214880,-100,4,1,1,80,0,1
215228,-83.3333333333333,4,1,1,80,0,1
215577,-100,4,1,1,80,0,1
216275,-71.4285714285714,4,1,1,80,0,1
216973,-100,4,1,1,80,0,1
217670,-71.4285714285714,4,1,1,80,0,1
218019,-66.6666666666667,4,1,1,80,0,1
218368,-100,4,1,1,80,0,1
218717,-83.3333333333333,4,1,1,80,0,1
219414,-100,4,1,1,80,0,1
219763,-83.3333333333333,4,1,1,80,0,1
220461,-100,4,1,1,80,0,1
221159,-83.3333333333333,4,1,1,80,0,1
221507,-71.4285714285714,4,1,1,80,0,1
221856,-100,4,1,1,80,0,1
222205,-83.3333333333333,4,1,1,80,0,1
225344,-100,4,2,1,40,0,0

[Colours]
Combo1 : 255,255,96
Combo2 : 128,255,255
Combo3 : 255,68,68
Combo4 : 0,217,108
Combo5 : 83,83,255

[HitObjects]
86,193,1391,5,0,0:0:0:0:
206,145,1566,1,0,0:0:0:0:
193,217,1740,1,0,0:0:0:0:
215,288,1914,1,0,0:0:0:0:
132,275,2089,6,0,P|110:321|-9:376,1,180,4|0,0:2|0:0,0:0:0:0:
86,193,2612,2,0,L|86:96,2,90,0|8|0,0:0|0:2|0:0,0:0:0:0:
0,194,3135,2,0,B|25:155|25:155|51:199,1,90
205,75,3484,5,0,0:0:0:0:
165,4,3659,2,0,L|356:34,1,180
205,75,4182,1,8,0:2:0:0:
334,157,4356,2,0,P|348:177|318:151,1,180
492,139,4880,5,0,0:0:0:0:
492,139,5228,2,0,P|487:193|490:245,1,90
373,371,5577,1,8,0:2:0:0:
474,336,5752,2,0,B|443:297|386:298|386:298|439:284|478:322,1,180
298,282,6275,6,0,L|270:389,1,90
162,286,6624,2,0,B|186:324|186:324|218:268,1,90
66,372,6973,1,8,0:2:0:0:
8,238,7147,1,0,0:0:0:0:
83,206,7321,1,0,0:0:0:0:
135,148,7496,1,8,0:2:0:0:
44,93,7670,6,0,P|86:160|203:215,1,180,4|0,0:2|0:0,0:0:0:0:
274,12,8194,2,0,P|275:66|265:123,2,90,0|8|0,0:0|0:2|0:0,0:0:0:0:
388,46,8717,2,0,B|366:6|366:6|339:61,1,90
177,88,9066,5,0,0:0:0:0:
256,11,9240,2,0,P|274:130|282:221,1,180
488,224,9763,1,8,0:2:0:0:
372,151,9938,2,0,B|388:201|372:252|372:252|404:200|391:138,1,180
229,295,10461,5,0,0:0:0:0:
229,295,10810,2,0,B|209:296|209:296|193:302|193:302|179:299|179:299|164:306|164:306|143:303|143:303|125:309|125:309|105:306|105:306|87:313|87:313|68:309|68:309|48:317,2,180,2|2|2,3:1|3:1|3:1,0:0:0:0:
275,364,11682,1,0,0:0:0:0:
182,225,11856,5,2,0:1:0:0:
262,231,12031,1,0,0:0:0:0:
126,137,12205,2,0,L|25:127,1,90
15,12,12554,1,8,0:2:0:0:
177,84,12728,1,0,0:0:0:0:
238,37,12903,1,0,0:0:0:0:
314,49,13077,1,8,0:2:0:0:
288,117,13252,6,0,P|314:68|449:31,1,180,4|0,0:2|0:0,0:0:0:0:
461,284,13775,2,0,P|448:300|441:259,2,90,0|8|0,0:0|0:2|0:0,0:0:0:0:
289,200,14298,2,0,P|304:242|359:242,1,90
503,204,14647,5,0,0:0:0:0:
352,245,14821,2,0,P|315:217|175:215,1,180
273,277,15345,1,8,0:2:0:0:
173,220,15519,2,0,B|238:207|238:207|260:81,1,180
273,277,16042,5,2,3:1:0:0:
186,341,16217,2,0,B|159:364|159:364|170:293,1,90,2|0,3:1|0:0,0:0:0:0:
120,78,16566,2,0,B|139:43|139:43|-9:64,1,180,2|0,3:1|0:0,0:0:0:0:
134,156,17089,1,2,3:1:0:0:
203,128,17263,1,0,0:0:0:0:
59,148,17438,6,0,L|39:243,1,90
254,212,17787,2,0,L|255:324,1,90
400,129,18135,1,8,0:2:0:0:
503,185,18310,1,0,0:0:0:0:
464,253,18484,1,0,0:0:0:0:
486,329,18659,1,8,0:2:0:0:
407,316,18833,6,0,P|442:282|424:159,1,180,4|0,0:2|0:0,0:0:0:0:
486,329,19356,2,0,P|475:286|516:257,2,90,0|8|0,0:0|0:2|0:0,0:0:0:0:
323,208,19880,2,0,P|314:187|306:222,1,90
248,45,20228,6,0,B|233:91|175:88|175:88|152:24|69:43,1,180
104,34,20752,2,0,B|154:34|173:71|173:71|169:207,1,180
48,98,21275,2,0,B|19:117|19:117|33:52,1,90
372,77,21624,6,0,B|396:75|396:75|403:78|403:78|408:73|408:73|481:68,1,90
317,144,21973,2,0,B|319:177|319:177|322:186|322:186|320:195|320:195|323:251,1,90
281,66,22321,2,0,B|241:68|241:68|232:71|232:71|225:68|225:68|177:70,1,90,8|0,0:2|0:0,0:0:0:0:
415,180,22670,2,0,P|430:233|408:286,1,90
219,366,23019,5,0,0:0:0:0:
126,342,23194,1,0,0:0:0:0:
90,252,23368,1,0,0:0:0:0:
37,323,23542,1,0,0:0:0:0:
90,252,23717,1,8,0:2:0:0:
85,161,23891,1,0,0:0:0:0:
159,205,24066,1,0,0:0:0:0:
85,161,24240,1,8,0:2:0:0:
92,75,24414,6,0,B|121:60|121:60|75:127|0:162,1,180,4|0,0:1|0:0,0:0:0:0:
37,26,24938,1,2,0:0:0:0:
182,107,25112,2,0,L|275:125,1,90,8|0,0:0|0:0,0:0:0:0:
355,20,25461,1,0,0:0:0:0:
435,12,25635,1,0,0:0:0:0:
406,112,25810,2,0,B|397:147|397:147|444:265,1,135,2|0,0:1|0:0,0:0:0:0:
491,250,26159,2,0,B|505:222|505:222|473:146,1,90,0|2,0:0|0:0,0:0:0:0:
281,354,26507,2,0,B|232:344|232:344|368:316,1,180,8|0,0:0|0:0,0:0:0:0:
417,378,27031,1,2,0:0:0:0:
357,310,27205,6,0,B|457:288|457:288|395:271,1,135,4|0,0:0|0:0,0:0:0:0:
368,265,27554,2,0,L|238:238,1,90,0|2,0:0|0:0,0:0:0:0:
114,185,27903,1,8,0:0:0:0:
41,224,28077,2,0,B|-4:230|-4:230|40:191,1,90
114,185,28426,1,0,0:0:0:0:
68,53,28600,2,0,B|96:49|96:49|105:51|105:51|113:46|113:46|170:36,1,90,2|2,0:1|0:0,0:0:0:0:
287,38,28949,2,0,B|315:55|315:55|322:63|322:63|333:64|333:64|375:91,1,90,0|2,0:0|0:0,0:0:0:0:
423,193,29298,2,0,B|429:228|429:228|425:237|425:237|432:244|432:244|443:297,1,90,8|2,0:0|0:0,0:0:0:0:
392,375,29647,1,0,0:0:0:0:
501,225,29821,1,8,0:0:0:0:
428,288,29996,6,0,B|447:300|447:300|466:214|390:137,1,180,4|0,0:0|0:0,0:0:0:0:
496,100,30519,1,2,0:0:0:0:
348,247,30694,2,0,L|254:269,1,90,8|0,0:0|0:0,0:0:0:0:
70,335,31042,2,0,B|41:368|41:368|52:305,1,90
199,344,31391,2,0,P|174:304|70:231,1,135,2|0,0:1|0:0,0:0:0:0:
44,226,31740,2,0,P|12:233|13:180,1,90,0|2,0:0|0:0,0:0:0:0:
127,66,32089,2,0,P|130:46|116:72,1,90,8|0,0:0|0:0,0:0:0:0:
14,27,32438,1,0,0:0:0:0:
112,146,32612,1,2,0:0:0:0:
238,80,32787,6,0,B|280:75|280:75|302:43|302:43|361:100,1,135,4|0,0:0|0:0,0:0:0:0:
357,90,33135,2,0,L|477:76,1,90,0|2,0:0|0:0,0:0:0:0:
299,155,33484,1,8,0:0:0:0:
390,6,33659,2,0,L|377:208,1,180,2|2,0:0|0:0,0:0:0:0:
468,364,34182,1,2,0:1:0:0:
494,289,34356,1,2,0:0:0:0:
348,279,34531,1,0,0:0:0:0:
285,324,34705,1,2,0:0:0:0:
91,261,34880,1,8,0:0:0:0:
167,265,35054,1,2,0:0:0:0:
65,136,35228,1,0,0:0:0:0:
13,72,35403,1,8,0:0:0:0:
190,86,35577,6,0,B|173:103|173:103|189:20|287:1,1,180,4|0,0:1|0:0,0:0:0:0:
121,35,36100,1,2,0:0:0:0:
265,113,36275,2,0,P|257:165|236:222,1,90,8|0,0:0|0:0,0:0:0:0:
390,52,36624,2,0,P|407:65|374:59,1,90
247,67,36973,2,0,P|256:122|236:224,1,135,2|0,0:1|0:0,0:0:0:0:
202,247,37321,2,0,B|162:256|162:256|179:189,1,90,0|2,0:0|0:0,0:0:0:0:
377,277,37670,2,0,B|404:279|404:279|413:283|413:283|424:280|424:280|487:285,1,90,8|0,0:0|0:0,0:0:0:0:
212,348,38019,2,0,B|240:341|240:341|248:342|248:342|253:339|253:339|318:324,1,90,0|8,0:0|0:0,0:0:0:0:
76,325,38368,6,0,B|128:329|128:329|-11:364,1,180,4|0,0:0|0:0,0:0:0:0:
61,194,38891,1,2,0:0:0:0:
10,269,39066,2,0,L|112:277,1,90,8|2,0:0|0:0,0:0:0:0:
194,206,39414,1,0,0:0:0:0:
65,328,39589,2,0,B|31:336|31:336|67:163,1,180,2|2,0:0|0:0,0:0:0:0:
36,59,40112,1,0,0:0:0:0:
102,9,40287,1,2,0:0:0:0:
162,77,40461,2,0,P|132:109|125:56,1,90,8|2,0:0|0:0,0:0:0:0:
325,0,40810,1,0,0:0:0:0:
261,79,40984,1,8,0:0:0:0:
107,82,41159,6,0,P|176:104|253:195,1,180,4|0,0:2|0:0,0:0:0:0:
422,188,41682,1,2,0:0:0:0:
427,101,41856,2,0,B|448:93|448:93|462:93|462:93|470:82|470:82|518:60,1,90,8|0,0:0|0:0,0:0:0:0:
350,143,42205,1,0,0:0:0:0:
429,301,42380,1,2,0:0:0:0:
422,188,42554,6,0,P|351:202|296:282,1,135,4|0,0:2|0:0,0:0:0:0:
291,306,42903,2,0,P|301:331|274:309,1,90,0|2,0:0|0:0,0:0:0:0:
429,301,43252,1,8,0:0:0:0:
343,364,43426,1,0,0:0:0:0:
234,278,43600,2,0,P|192:227|186:180,1,90,0|8,0:0|0:0,0:0:0:0:
66,365,43949,6,0,B|46:378|46:378|7:296|62:224,1,180,4|0,0:0|0:0,0:0:0:0:
269,138,44473,1,2,0:0:0:0:
241,49,44647,2,0,B|257:51|257:51|266:55|266:55|279:52|279:52|293:58|293:58|306:55|306:55|322:63|322:63|336:58|336:58|350:66|350:66|365:62|365:62|381:71|381:71|397:68|397:68|409:74,1,180,8|0,0:0|0:0,0:0:0:0:
500,29,45170,1,2,0:0:0:0:
439,148,45345,2,0,P|427:183|431:248,1,90
362,384,45694,1,2,0:0:0:0:
417,330,45868,1,0,0:0:0:0:
261,201,46042,1,2,0:0:0:0:
323,251,46217,1,8,0:0:0:0:
179,368,46391,1,0,0:0:0:0:
234,314,46565,1,8,0:0:0:0:
121,216,46740,6,0,P|130:186|93:226,1,180,4|0,1:3|1:0,1:0:0:0:
8,133,47263,1,0,1:0:0:0:
68,81,47438,2,0,P|94:36|81:1,1,90,8|0,1:0|1:0,1:0:0:0:
222,58,47787,2,0,B|235:36|235:36|166:64,1,90,0|0,1:0|1:0,1:0:0:0:
349,67,48135,2,0,B|318:84|318:84|216:56,1,135,0|0,1:0|1:0,1:0:0:0:
175,60,48484,2,0,B|148:75|148:75|143:39|182:24,1,90,0|0,1:0|1:0,1:0:0:0:
424,3,48833,2,0,P|463:48|454:167,1,180,8|0,1:0|1:0,1:0:0:0:
332,177,49356,1,0,1:0:0:0:
436,296,49531,6,0,P|458:282|414:294,1,180,4|0,1:2|1:0,1:0:0:0:
419,372,50054,1,0,1:0:0:0:
252,293,50228,1,8,1:0:0:0:
311,366,50403,1,0,1:0:0:0:
165,283,50577,1,0,1:0:0:0:
102,220,50752,2,0,B|50:218|50:218|132:189|132:189|83:172,1,180,8|0,1:0|1:0,1:0:0:0:
90,156,51275,2,0,L|-11:127,1,90,0|0,1:0|1:0,1:0:0:0:
12,317,51624,1,8,1:0:0:0:
102,220,51798,1,0,1:0:0:0:
162,104,51973,2,0,B|195:95|195:95|203:95|203:95|208:90|208:90|265:74,1,90,0|8,1:0|1:0,1:0:0:0:
327,215,52321,6,0,B|343:193|343:193|263:216|246:334,1,180,4|0,1:3|1:0,1:0:0:0:
159,369,52845,1,0,1:0:0:0:
72,331,53019,2,0,P|37:315|46:355,1,90,8|0,1:0|1:0,1:0:0:0:
159,369,53368,1,0,1:0:0:0:
251,305,53542,1,0,1:0:0:0:
377,364,53717,2,0,P|434:371|455:273,1,135,0|0,1:0|1:0,1:0:0:0:
455,273,54066,2,0,B|441:243|441:243|506:248,1,90,0|0,1:0|1:0,1:0:0:0:
387,196,54414,2,0,P|331:203|354:327,1,180,8|0,1:0|1:0,1:0:0:0:
396,281,54938,1,0,1:0:0:0:
249,165,55112,6,0,B|191:122|235:21|276:119,1,135,4|0,1:2|1:0,1:0:0:0:
270,106,55461,2,0,L|172:122,1,90,0|0,1:0|1:0,1:0:0:0:
325,17,55810,1,8,1:0:0:0:
137,26,55984,2,0,L|35:16,1,90,0|0,1:0|1:0,1:0:0:0:
178,132,56333,2,0,B|197:129|197:129|210:131|210:131|223:128|223:128|238:131|238:131|251:126|251:126|268:129|268:129|286:124|286:124|304:129|304:129|323:124|323:124|339:126|339:126|355:120|355:120|373:128,1,180,8|0,1:0|1:0,1:0:0:0:
475,164,56856,1,0,1:0:0:0:
481,77,57031,1,0,1:0:0:0:
365,277,57205,1,8,1:0:0:0:
399,199,57380,1,0,1:0:0:0:
218,345,57554,1,0,1:0:0:0:
285,293,57728,1,8,1:0:0:0:
306,380,57903,6,0,P|267:328|168:298,1,135,4|0,1:3|1:0,1:0:0:0:
140,295,58252,2,0,B|92:290|92:290|156:266,1,90,0|0,1:0|1:0,1:0:0:0:
28,189,58600,2,0,P|90:149|101:86,1,135,8|0,1:0|1:0,1:0:0:0:
68,49,58949,1,0,1:0:0:0:
233,63,59124,6,0,B|200:54|186:41|186:41|244:57|328:55,1,180,0|0,1:0|1:0,0:0:0:0:
479,86,59647,2,0,L|509:-22,1,90,0|0,1:0|1:0,1:0:0:0:
360,112,59996,2,0,P|402:156|433:130,1,90,8|0,1:0|1:0,1:0:0:0:
232,209,60345,2,0,P|246:243|258:209,1,90,0|0,1:0|1:0,1:0:0:0:
263,331,60694,6,0,P|229:291|119:279,1,135,4|0,1:2|1:0,1:0:0:0:
106,300,61042,2,0,P|75:331|6:296,1,90,0|0,1:0|1:0,1:0:0:0:
83,193,61391,2,0,P|56:170|8:204,1,90,8|0,1:0|1:0,1:0:0:0:
223,109,61740,1,0,1:0:0:0:
263,38,61914,1,0,1:0:0:0:
176,19,62089,2,0,B|146:16|146:16|135:18|135:18|123:14|123:14|77:9,1,90,0|0,1:0|1:0,1:0:0:0:
311,136,62438,2,0,B|343:133|343:133|352:135|352:135|357:130|357:130|408:124,1,90,0|0,1:0|1:0,1:0:0:0:
237,277,62787,2,0,B|201:274|201:274|193:277|193:277|184:273|184:273|128:269,1,90,8|0,1:0|1:0,1:0:0:0:
315,367,63135,1,0,1:0:0:0:
213,202,63310,1,8,1:0:0:0:
331,233,63484,6,0,B|314:262|314:262|300:173|382:123,1,180,4|0,1:3|1:0,1:0:0:0:
418,238,64007,1,0,1:0:0:0:
346,45,64182,2,0,P|323:28|335:64,1,90,8|0,1:0|1:0,1:0:0:0:
426,15,64531,1,0,1:0:0:0:
277,120,64705,1,0,1:0:0:0:
197,106,64880,6,0,P|170:79|166:10,1,90,0|0,1:0|1:0,1:0:0:0:
51,86,65228,2,0,P|50:50|84:-18,1,90,0|0,1:0|1:0,1:0:0:0:
18,201,65577,2,0,P|63:223|83:308,1,135,8|0,1:0|1:0,1:0:0:0:
66,329,65926,2,0,P|43:343|18:289,1,90,0|0,1:0|1:0,1:0:0:0:
255,332,66275,2,0,B|280:281|336:290|336:290|366:350|442:321,1,180,4|0,1:2|1:0,1:0:0:0:
497,305,66798,1,0,1:0:0:0:
412,241,66973,2,0,B|442:231|442:231|448:233|448:233|454:228|454:228|507:207,1,90,8|0,1:0|1:0,1:0:0:0:
316,129,67321,1,0,1:0:0:0:
225,84,67496,2,0,B|267:69|267:69|211:53,1,90,8|0,1:0|1:0,1:0:0:0:
136,89,67845,5,2,1:0:0:0:
5,13,68019,1,0,1:0:0:0:
86,29,68194,1,0,1:0:0:0:
303,13,68368,1,8,3:3:0:0:
224,57,68542,1,8,3:3:0:0:
233,57,68630,1,8,3:3:0:0:
241,57,68717,2,0,L|269:57,1,22.5,8|0,3:3|3:0,1:0:0:0:
159,106,68891,2,0,L|187:106,1,22.5,8|0,3:2|3:0,1:0:0:0:
48,166,69066,6,0,B|109:287|-2:316|52:226,1,161.999995056153,4|0,2:1|2:0,2:0:0:0:
47,239,69414,6,0,P|126:217|157:230,1,90,2|2,2:0|2:1,2:0:0:0:
330,291,69763,2,0,P|381:314|454:266,1,135,8|0,2:0|2:0,2:0:0:0:
466,225,70112,2,0,L|392:240,1,45,2|0,2:0|3:0,2:0:0:0:
466,140,70287,2,0,L|510:131,1,45,0|0,2:0|3:0,2:0:0:0:
333,100,70461,6,0,B|280:64|250:12|250:12|306:40|337:103,1,215.999993408203,8|2,2:3|2:0,2:0:0:0:
416,67,70984,5,2,2:1:0:0:
278,166,71159,2,0,P|246:161|187:118,1,90,8|0,2:0|2:0,2:0:0:0:
333,100,71507,2,0,P|357:74|319:77,1,90,2|0,2:0|2:0,2:0:0:0:
256,287,71856,6,0,P|305:301|355:369,1,108,4|0,2:2|2:0,2:0:0:0:
409,360,72205,6,0,P|458:353|501:371,1,90,2|2,2:0|2:1,2:0:0:0:
140,340,72554,2,0,P|86:364|26:320,1,135,8|0,2:0|2:0,2:0:0:0:
64,280,72903,2,0,P|78:272|53:267,1,45,2|0,2:0|3:0,2:0:0:0:
24,155,73077,2,0,P|1:171|29:176,1,45,0|0,2:0|3:0,2:0:0:0:
125,110,73252,5,8,2:3:0:0:
107,82,73426,2,0,L|99:6,1,72,2|2,2:1|2:0,2:0:0:0:
211,148,73775,5,2,2:1:0:0:
25,51,73949,1,8,2:0:0:0:
197,72,74124,1,0,2:0:0:0:
348,173,74298,1,2,2:0:0:0:
211,148,74473,1,8,2:0:0:0:
201,144,74560,1,8,2:0:0:0:
189,138,74647,6,0,B|160:126|160:126|279:111|279:111|267:128,1,161.999995056153,4|0,2:0|2:0,2:0:0:0:
243,155,74996,6,0,L|238:56,1,90,2|2,2:0|2:1,2:0:0:0:
488,180,75345,2,0,L|500:28,1,135,8|0,2:0|2:0,2:0:0:0:
449,19,75694,2,0,L|404:15,1,45,2|0,2:0|3:0,2:0:0:0:
344,136,75868,2,0,L|389:135,1,45,0|0,2:0|3:0,2:0:0:0:
470,265,76042,6,0,B|443:309|374:308|374:308|352:232|252:238,1,215.999993408203,4|2,2:2|2:0,2:0:0:0:
191,256,76566,5,2,2:1:0:0:
273,329,76740,2,0,P|303:318|280:341,1,90,8|0,2:0|2:0,2:0:0:0:
191,256,77089,1,2,2:0:0:0:
380,362,77263,1,8,2:0:0:0:
369,361,77350,1,8,2:0:0:0:
359,360,77438,6,0,P|299:325|313:210,1,161.999995056153,4|0,2:2|2:0,2:0:0:0:
345,204,77787,2,0,B|383:198|383:198|383:308,1,107.999996704102,2|2,2:0|2:1,2:0:0:0:
168,151,78135,5,8,2:0:0:0:
87,172,78310,2,0,L|78:75,1,90,0|2,2:0|2:0,2:0:0:0:
335,48,78659,1,0,2:0:0:0:
397,97,78833,2,2,L|396:131,1,22.5,2|0,2:1|3:0,2:0:0:0:
302,124,79007,2,0,L|301:158,1,22.5,0|0,2:0|3:0,2:0:0:0:
137,201,79182,2,0,L|138:235,1,22.5,2|0,2:1|3:0,2:0:0:0:
236,239,79356,2,0,L|235:273,1,22.5,2|0,2:1|3:0,2:0:0:0:
258,372,79531,6,0,P|301:357|279:294,1,108,8|0,2:0|2:0,2:0:0:0:
247,372,79880,6,0,P|215:365|241:286,1,135.000005149842,8|8,2:3|2:3,2:0:0:0:
451,253,80228,6,0,B|495:284|494:346|494:346|510:322|496:268,1,161.999995056153,4|0,2:1|2:0,2:0:0:0:
419,320,80577,6,0,L|315:310,1,90,2|2,2:0|2:1,2:0:0:0:
250,68,80926,2,0,L|425:44,1,135,8|0,2:0|2:0,2:0:0:0:
425,44,81275,2,0,P|448:49|439:77,1,45,2|0,2:0|3:0,2:0:0:0:
321,143,81449,2,0,P|302:133|304:111,1,45,0|0,2:0|3:0,2:0:0:0:
126,106,81624,6,0,P|111:26|166:86,1,215.999993408203,8|2,2:3|2:0,2:0:0:0:
10,31,82147,5,2,2:1:0:0:
59,173,82321,2,0,L|172:204,1,90,8|0,2:0|2:0,2:0:0:0:
447,264,82670,2,0,L|329:293,1,90,2|0,2:0|2:0,2:0:0:0:
195,358,83019,6,0,L|69:323,1,108,4|0,2:2|2:0,2:0:0:0:
30,338,83368,6,0,B|4:349|4:349|24:268,1,90,2|2,2:0|2:1,2:0:0:0:
254,253,83717,2,0,B|239:277|239:277|240:194,1,90,8|0,2:0|2:0,2:0:0:0:
427,179,84066,1,2,2:0:0:0:
190,127,84240,1,0,2:0:0:0:
376,30,84414,6,0,B|386:-4|386:-4|297:34,1,107.999996704102,8|2,2:3|2:1,2:0:0:0:
484,102,84763,6,0,L|510:217,1,90,2|2,2:0|2:1,2:0:0:0:
287,371,85112,1,8,2:0:0:0:
413,322,85287,1,0,2:0:0:0:
208,333,85461,2,0,P|185:323|190:373,1,90,2|8,2:0|2:0,2:0:0:0:
186,369,85723,1,8,2:0:0:0:
196,368,85810,6,0,P|180:309|85:264,1,144,4|2,2:0|2:0,2:0:0:0:
13,371,86333,5,2,2:1:0:0:
113,265,86507,2,0,P|135:306|95:352,1,90,8|0,2:0|2:0,2:0:0:0:
0,212,86856,1,2,2:0:0:0:
213,235,87031,1,0,2:0:0:0:
52,308,87205,6,0,B|69:304|69:304|83:308|83:308|99:304|99:304|114:308|114:308|128:306|128:306|143:309|143:309|159:307|159:307|179:310|179:310|196:306,1,144,4|2,2:2|2:0,2:0:0:0:
148,181,87728,5,2,2:1:0:0:
213,235,87903,1,8,2:0:0:0:
214,12,88077,1,0,2:0:0:0:
139,54,88252,2,0,B|158:77|158:77|168:82|168:82|170:89|170:89|203:128,1,90,2|8,2:0|2:0,2:0:0:0:
473,73,88600,6,0,B|486:34|486:34|312:98,1,215.999993408203,4|2,2:2|2:0,2:0:0:0:
214,12,89124,5,2,2:1:0:0:
374,193,89298,1,8,2:0:0:0:
264,265,89473,2,0,B|279:228|279:228|279:218|279:218|285:214|285:214|297:184,1,90,0|2,2:0|2:0,2:0:0:0:
290,26,89821,1,2,2:1:0:0:
367,65,89996,5,2,3:2:0:0:
366,112,90083,1,2,3:2:0:0:
334,140,90170,1,2,3:2:0:0:
290,147,90257,1,2,3:2:0:0:
257,127,90345,2,0,P|208:127|212:208,1,135.000005149842,8|8,3:1|3:1,2:0:0:0:
217,207,90606,1,8,3:1:0:0:
236,212,90694,6,0,P|271:195|272:151,1,67.5000025749208,2|0,3:3|3:0,2:0:0:0:
106,60,90868,6,0,L|92:143,1,67.5000025749208,2|0,3:3|3:0,2:0:0:0:
257,127,91042,6,0,L|257:205,1,67.5000025749208,8|0,3:3|3:0,2:0:0:0:
406,60,91217,6,0,L|420:143,1,67.5000025749208,2|0,3:3|3:0,2:0:0:0:
458,347,91391,6,0,B|475:360|475:360|497:266|399:215,1,180,4|8,0:1|0:0,0:0:0:0:
166,301,91914,5,2,0:0:0:0:
229,360,92089,2,0,L|249:241,1,107.999996704102,2|0,0:3|0:0,0:0:0:0:
27,202,92438,6,0,B|22:173|-4:160|-4:160|19:124|51:129|51:129|-2:91|16:24,1,188.999994232178,8|0,0:0|0:0,0:0:0:0:
22,17,92787,6,0,B|23:73|68:107|68:107|-5:122|-19:176|-19:176|46:211|33:300,1,323.999990112305,4|2,0:3|0:0,0:0:0:0:
256,362,93484,6,0,L|362:359,1,72,2|0,0:3|0:0,0:0:0:0:
339,352,93746,1,0,0:0:0:0:
349,344,93833,2,0,B|344:324|344:324|348:311|348:311|343:297|343:297|347:281|347:281|342:265|342:265|348:249|348:249|342:234|342:234|348:217|348:217|340:200,1,144,8|4,0:0|0:2,0:0:0:0:
342,198,94531,5,8,0:0:0:0:
249,164,94705,1,2,0:0:0:0:
325,105,94880,2,0,B|371:97|371:97|309:42|309:42|379:28,1,161.999995056153,2|0,0:3|0:0,0:0:0:0:
398,29,95228,2,0,L|545:8,1,107.999996704102,8|8,0:0|0:0,0:0:0:0:
471,153,95577,6,0,L|457:204,1,45,2|0,0:3|3:0,0:0:0:0:
375,230,95752,2,0,L|361:281,1,45,8|0,0:3|3:0,0:0:0:0:
221,346,95926,6,0,P|187:289|219:229,1,107.999996704102,2|8,0:3|0:3,0:0:0:0:
241,206,96188,1,8,0:3:0:0:
252,199,96275,6,0,L|392:234,1,125.999996154785,2|8,0:3|0:3,0:0:0:0:
128,107,96624,6,0,L|237:134,1,107.999996704102,2|2,0:3|0:3,0:0:0:0:
0,0,96973,6,0,L|153:38,1,135,4|0,0:1|0:0,0:0:0:0:
66,73,97321,6,0,P|16:77|4:20,1,107.999996704102,8|2,0:0|0:0,0:0:0:0:
330,33,97670,2,0,B|349:14|349:14|468:34,1,107.999996704102,2|8,0:3|0:0,0:0:0:0:
345,116,98019,6,0,B|325:136|325:136|186:114,1,125.999996154785,8|0,0:0|0:0,0:0:0:0:
203,77,98281,1,0,0:0:0:0:
211,70,98368,6,0,B|243:40|243:40|292:79,1,90,4|0,0:3|0:0,0:0:0:0:
379,294,98717,2,0,P|363:296|319:392,1,135,8|0,0:0|0:0,0:0:0:0:
275,348,99066,6,0,P|226:314|272:260,1,107.999996704102,2|2,0:3|0:0,0:0:0:0:
406,371,99414,6,0,P|451:335|365:216,1,188.999994232178,8|0,0:0|0:0,0:0:0:0:
359,192,99763,6,0,B|313:185|313:185|426:171,1,144,4|8,0:2|0:0,0:0:0:0:
485,132,100287,5,2,0:0:0:0:
394,22,100461,2,0,L|363:20,1,26.9999991760254,2|0,0:3|3:0,0:0:0:0:
325,91,100635,2,0,L|293:97,1,26.9999991760254,8|0,0:3|3:0,0:0:0:0:
187,91,100810,2,0,L|219:97,1,26.9999991760254,2|0,0:3|3:0,0:0:0:0:
118,22,100984,1,2,0:3:0:0:
128,21,101071,1,2,0:3:0:0:
138,20,101159,1,2,0:3:0:0:
255,31,101333,1,2,0:3:0:0:
78,163,101507,6,0,P|153:203|165:242,1,90,2|2,0:3|0:0,0:0:0:0:
434,163,101856,6,0,P|359:203|341:263,1,107.999996704102,2|2,0:3|0:0,0:0:0:0:
153,203,102205,6,0,P|134:169|171:132,1,62.9999980773926,2|0,0:3|3:0,0:0:0:0:
256,271,102380,2,0,P|262:301|243:325,1,62.9999980773926,2|0,0:3|3:0,0:0:0:0:
349,220,102554,6,0,P|375:180|305:84,1,135.000005149842,4|0,0:1|0:0,0:0:0:0:
298,77,102816,1,0,0:0:0:0:
285,77,102903,6,0,B|251:70|251:70|245:72|245:72|237:69|237:69|156:53,1,107.999996704102,8|2,0:0|0:0,0:0:0:0:
359,309,103252,6,0,B|388:317|388:317|399:317|399:317|406:324|406:324|466:339,1,90,2|8,0:3|0:0,0:0:0:0:
201,150,103600,6,0,B|166:141|166:141|163:137|163:137|156:137|156:137|86:118,1,107.999996704102,8|0,0:0|0:0,0:0:0:0:
227,328,103949,6,0,B|274:321|274:321|281:315|281:315|296:317|296:317|387:305,1,135,4|0,0:3|0:0,0:0:0:0:
423,301,104298,2,0,B|437:280|445:259|445:259|451:286|447:316,1,90,8|2,0:0|0:0,0:0:0:0:
115,322,104647,6,0,P|93:357|-1:378,1,125.999996154785,2|2,0:3|0:0,0:0:0:0:
100,38,104996,6,0,P|47:12|-4:18,1,107.999996704102,8|8,0:0|0:0,0:0:0:0:
293,77,105345,6,0,B|291:33|332:5|332:5|345:46|377:64,1,135,4|0,0:2|0:0,0:0:0:0:
389,84,105694,6,0,P|330:60|290:79,1,107.999996704102,8|2,0:0|0:0,0:0:0:0:
449,340,106042,6,0,P|482:361|453:327,1,125.999996154785,2|0,0:3|0:0,0:0:0:0:
496,77,106391,6,0,B|486:103|486:103|480:111|480:111|483:119|483:119|452:216,1,135.000005149842,8|2,0:0|0:0,0:0:0:0:
161,204,106740,6,0,B|135:202|135:202|167:338,1,135
167,338,107089,6,0,B|127:362|127:362|59:339,1,107.999996704102,8|2,0:0|0:0,0:0:0:0:
8,106,107438,1,2,0:3:0:0:
135,117,107612,1,2,0:3:0:0:
143,113,107699,1,2,0:3:0:0:
152,109,107787,6,0,B|206:67|173:-38|115:74,1,135,2|0,0:3|0:0,0:0:0:0:
130,60,108135,6,0,B|197:49|236:103|236:103|296:80|283:12,1,215.999993408203,4|8,0:1|0:0,0:0:0:0:
54,18,108659,1,2,0:0:0:0:
204,184,108833,5,2,0:3:0:0:
142,230,109007,1,8,0:3:0:0:
133,230,109095,1,8,0:3:0:0:
124,231,109182,2,0,L|88:232,1,22.5,8|0,0:3|3:0,0:0:0:0:
39,279,109356,2,0,L|3:280,1,22.5,2|0,0:3|3:0,0:0:0:0:
202,358,109531,6,0,P|253:317|360:351,1,161.999995056153,4|0,0:3|0:0,0:0:0:0:
357,349,109880,6,0,P|398:373|481:340,1,125.999996154785,8|2,0:0|0:0,0:0:0:0:
372,33,110228,5,2,0:3:0:0:
423,106,110403,2,0,P|444:126|451:116,1,45,8|8,0:3|0:3,0:0:0:0:
507,89,110577,6,0,P|461:94|373:189,1,161.999995056153,2|0,0:3|0:0,0:0:0:0:
311,200,110926,6,0,B|298:180|269:177|269:177|284:162|288:139|288:139|255:137|234:104,1,144,4|8,0:2|0:0,0:0:0:0:
200,39,111449,5,2,0:0:0:0:
170,148,111624,1,2,0:3:0:0:
123,4,111798,1,8,0:3:0:0:
74,148,111973,2,0,B|6:164|6:164|57:137,1,107.999996704102,2|8,0:3|0:3,0:0:0:0:
93,132,112234,1,8,0:3:0:0:
106,129,112321,6,0,L|167:175,1,67.5000025749208,8|0,0:3|3:0,0:0:0:0:
336,182,112496,2,0,B|359:190|359:190|314:147,1,67.5000025749208,2|0,0:3|3:0,0:0:0:0:
243,135,112670,2,0,B|227:122|227:122|250:168,1,67.5000025749208,2|0,0:3|3:0,0:0:0:0:
267,319,112845,1,8,0:3:0:0:
228,326,112932,1,8,0:3:0:0:
199,295,113019,6,0,P|188:265|224:236,1,67.5000025749208,2|0,0:3|3:0,0:0:0:0:
301,346,113194,6,0,P|328:335|330:288,1,67.5000025749208,8|0,0:3|3:0,0:0:0:0:
165,317,113368,6,0,P|139:304|124:237,1,67.5000025749208,2|0,0:3|3:0,0:0:0:0:
303,200,113542,6,0,P|316:169|306:135,1,67.5000025749208,2|0,0:3|3:0,0:0:0:0:
159,53,113716,5,4,0:1:0:0:
0,19,122787,6,0,L|26:22,1,26.9999991760254,2|0,0:3|3:0,0:0:0:0:
120,119,122961,2,0,L|147:123,1,26.9999991760254,8|0,0:3|3:0,0:0:0:0:
11,153,123135,2,0,L|38:157,1,26.9999991760254,2|0,0:3|3:0,0:0:0:0:
88,94,123310,1,8,0:3:0:0:
72,91,123397,1,8,0:3:0:0:
56,88,123484,5,8,0:3:0:0:
192,203,123659,1,2,0:3:0:0:
217,130,123833,1,8,0:3:0:0:
337,120,124007,1,8,0:3:0:0:
302,50,124182,2,0,B|336:46|336:46|346:43|346:43|355:44|355:44|439:35,1,107.999996704102,2|8,0:3|0:3,0:0:0:0:
406,273,124531,2,0,B|389:285|389:285|404:214,1,53.9999983520508,2|0,0:3|3:0,0:0:0:0:
505,231,124705,2,0,B|493:246|493:246|482:191,1,53.9999983520508,2|0,0:3|3:0,0:0:0:0:
285,182,124880,6,0,B|305:147|305:147|219:197|233:322,1,215.999993408203,4|2,0:0|0:1,0:0:0:0:
8,358,125403,2,0,P|33:341|50:231,2,107.999996704102,0|2|0,0:0|0:3|0:0,0:0:0:0:
9,193,125926,1,2,0:1:0:0:
145,359,126100,1,0,0:0:0:0:
8,358,126275,6,0,P|34:297|137:250,1,161.999995056153,0|0,0:0|3:0,0:0:0:0:
171,257,126624,2,0,B|182:277|205:302|205:302|120:264|134:162,1,215.999993408203,2|2,0:1|0:3,0:0:0:0:
237,199,127147,1,0,0:0:0:0:
79,66,127321,1,2,0:1:0:0:
208,121,127496,1,2,0:1:0:0:
203,113,127583,1,2,0:1:0:0:
198,105,127670,6,0,B|170:64|170:64|283:36,1,161.999995056153
342,22,128019,2,0,B|320:91|320:91|286:44,1,107.999996704102,2|0,0:1|0:0,0:0:0:0:
491,173,128368,2,0,B|495:209|495:209|500:221|500:221|496:235|496:235|504:315,1,107.999996704102,2|0,0:3|0:0,0:0:0:0:
501,89,128717,1,2,0:1:0:0:
415,302,128891,1,0,0:0:0:0:
421,137,129066,5,0,0:0:0:0:
363,241,129240,1,0,0:0:0:0:
253,270,129414,2,0,P|215:288|236:251,1,107.999996704102,2|0,0:1|0:0,0:0:0:0:
363,241,129763,1,2,0:3:0:0:
284,358,129938,1,8,0:3:0:0:
274,362,130025,1,8,0:3:0:0:
261,362,130112,1,2,0:3:0:0:
288,193,130287,1,2,0:3:0:0:
253,270,130461,6,0,B|228:222|174:223|174:223|148:280|79:274,1,161.999995056153,4|0,0:0|0:0,0:0:0:0:
66,265,130810,2,0,B|54:237|54:237|46:230|46:230|48:223|48:223|24:149,1,107.999996704102,2|0,0:1|0:0,0:0:0:0:
366,116,131159,2,0,B|370:76|370:76|373:71|373:71|371:61|371:61|378:-6,1,107.999996704102,2|0,0:3|0:0,0:0:0:0:
170,103,131507,1,2,0:1:0:0:
400,191,131682,1,0,0:0:0:0:
215,340,131856,6,0,B|210:360|188:369|188:369|207:280|126:221,1,161.999995056153
100,234,132205,1,2,0:1:0:0:
294,313,132380,1,0,0:0:0:0:
417,292,132554,2,0,B|449:280|449:280|386:370,1,107.999996704102,2|0,0:3|0:0,0:0:0:0:
450,145,132903,2,0,B|475:126|475:126|442:230,1,107.999996704102,2|0,0:1|0:0,0:0:0:0:
445,208,133164,1,0,0:0:0:0:
434,215,133252,6,0,P|375:189|421:68,1,215.999993408203,0|2,0:0|0:1,0:0:0:0:
490,13,133775,1,0,0:0:0:0:
330,23,133949,1,2,0:3:0:0:
413,77,134124,1,0,0:0:0:0:
249,49,134298,1,2,0:3:0:0:
328,31,134473,1,8,0:3:0:0:
336,35,134560,1,8,0:3:0:0:
344,39,134647,5,8,0:3:0:0:
158,50,134821,1,2,0:3:0:0:
241,159,134996,2,0,B|276:173|276:173|281:95,1,107.999996704102,8|0,0:3|0:0,0:0:0:0:
135,200,135345,2,0,B|114:221|114:221|132:266,1,53.9999983520508,2|0,0:3|3:0,0:0:0:0:
239,350,135519,2,0,B|266:352|266:352|287:324,1,53.9999983520508,8|0,0:3|3:0,0:0:0:0:
388,243,135694,2,0,B|398:221|398:221|377:200,1,53.9999983520508,2|0,0:3|3:0,0:0:0:0:
226,232,135868,2,0,B|205:253|205:253|223:298,1,53.9999983520508,2|0,0:3|3:0,0:0:0:0:
311,259,136042,6,0,B|321:222|321:222|369:296|336:382,1,180,4|0,0:1|0:0,0:0:0:0:
459,372,136566,1,2,0:0:0:0:
495,219,136740,2,0,B|504:180|504:180|431:210,1,90,8|0,0:0|0:0,0:0:0:0:
206,103,137089,1,0,0:0:0:0:
174,36,137263,1,0,0:0:0:0:
250,28,137438,2,0,B|294:68|294:68|263:181,1,135,2|0,0:1|0:0,0:0:0:0:
300,193,137787,2,0,B|335:184|335:184|344:180|344:180|355:181|355:181|420:166,1,90,0|2,0:0|0:0,0:0:0:0:
108,272,138135,2,0,B|65:257|65:257|216:265,1,180,8|0,0:0|0:0,0:0:0:0:
19,371,138659,1,0,0:0:0:0:
92,280,138833,6,0,B|135:308|135:308|103:391,1,135,4|0,0:0|0:0,0:0:0:0:
19,371,139182,2,0,B|14:343|14:343|10:336|10:336|12:329|12:329|2:251,1,90,0|2,0:0|0:0,0:0:0:0:
255,298,139531,2,0,B|255:265|255:265|257:258|257:258|255:250|255:250|257:171,1,90,8|0,0:0|0:0,0:0:0:0:
10,81,139880,1,0,0:0:0:0:
90,164,140054,1,2,0:0:0:0:
154,84,140228,2,0,B|175:57|175:57|58:93,1,135,2|0,0:1|0:0,0:0:0:0:
10,81,140577,2,0,L|115:118,1,90,0|2,0:0|0:0,0:0:0:0:
345,131,140926,2,0,L|255:160,1,90
231,344,141275,1,0,0:0:0:0:
336,378,141449,1,8,0:0:0:0:
415,313,141624,6,0,B|452:261|430:194|430:194|400:272,1,179.999995231629,4|0,0:0|0:0,0:0:0:0:
415,313,142147,1,2,0:0:0:0:
313,216,142321,2,0,L|217:244,1,90,8|0,0:0|0:0,0:0:0:0:
386,61,142670,2,0,P|385:44|399:69,1,90
167,81,143019,2,0,B|124:67|83:100|83:100|70:39|-15:34,1,180,2|0,0:1|0:0,0:0:0:0:
214,18,143542,1,2,0:0:0:0:
140,162,143717,2,0,L|113:260,1,90,8|0,0:0|0:0,0:0:0:0:
300,186,144066,2,0,B|352:177|352:177|309:164,1,90
196,324,144414,6,0,B|153:333|153:333|138:344|138:344|43:362,1,135,4|0,0:0|0:0,0:0:0:0:
12,345,144763,2,0,P|9:333|63:288,1,90,0|2,0:0|0:0,0:0:0:0:
286,365,145112,2,0,P|301:347|274:364,1,90,8|0,0:0|0:0,0:0:0:0:
423,285,145461,2,0,P|441:304|512:311,1,90,0|2,0:0|0:0,0:0:0:0:
512,62,145810,2,0,B|498:63|498:63|491:70|491:70|479:71|479:71|468:77|468:77|454:77|454:77|441:86|441:86|426:85|426:85|417:92|417:92|403:91|403:91|393:99|393:99|379:99|379:99|370:107|370:107|357:107|357:107|348:113,1,180,2|0,0:1|0:0,0:0:0:0:
325,118,146333,1,2,0:0:0:0:
277,128,146507,2,0,P|234:101|218:11,1,135,8|0,0:0|0:0,0:0:0:0:
174,82,146856,2,0,P|126:95|63:93,1,90,0|2,0:0|0:0,0:0:0:0:
311,231,147205,6,0,P|374:225|461:275,1,135,4|0,0:0|0:0,0:0:0:0:
483,284,147554,2,0,L|506:184,2,90,0|2|8,0:0|0:0|0:0,0:0:0:0:
376,310,148077,1,2,0:0:0:0:
222,247,148252,2,0,B|195:358,1,90,0|2,0:0|0:0,0:0:0:0:
49,254,148600,2,0,B|-2:238|-2:238|96:215,1,135,2|0,0:1|0:0,0:0:0:0:
130,212,148949,2,0,L|158:100,1,90,0|2,0:0|0:0,0:0:0:0:
33,57,149298,2,0,P|22:51|45:55,1,90,8|0,0:0|0:0,0:0:0:0:
265,77,149647,2,0,B|297:76|297:76|307:79|307:79|319:75|319:75|378:73,1,90,0|2,0:0|0:0,0:0:0:0:
504,224,149996,6,0,B|457:238|421:198|421:198|371:240|414:308,1,180,4|0,0:0|0:0,0:0:0:0:
487,149,150519,1,2,0:0:0:0:
385,280,150694,2,0,P|404:231|343:159,1,135,8|0,0:0|0:0,0:0:0:0:
308,164,151042,1,0,0:0:0:0:
260,242,151217,2,0,P|287:294|352:207,1,180,2|2,0:1|0:0,0:0:0:0:
196,335,151740,2,0,B|159:346|159:346|205:311,1,90,2|2,0:1|0:0,0:0:0:0:
94,173,152089,2,0,L|-12:171,1,90,8|2,0:0|0:0,0:0:0:0:
156,235,152438,1,0,0:0:0:0:
4,171,152612,6,0,B|24:166|24:166|41:168|41:168|60:162|60:162|82:165|82:165|101:160|101:160|126:161|126:161|148:154|148:154|171:158|171:158|196:150,1,180,12|0,0:0|0:0,0:0:0:0:
110,23,153135,2,0,B|67:12|67:12|115:46,1,90,8|2,0:0|0:0,0:0:0:0:
359,102,153484,2,0,B|382:111|382:111|412:48|349:-6,1,135,2|0,0:1|0:0,0:0:0:0:
313,22,153833,1,0,0:0:0:0:
453,129,154007,6,0,P|393:96|265:121,1,180,4|0,0:0|0:0,0:0:0:0:
475,226,154531,2,0,B|495:200|495:200|437:213,1,90,8|2,0:0|0:0,0:0:0:0:
234,358,154880,2,0,P|264:294|259:365,1,180,2|0,0:1|0:0,0:0:0:0:
112,366,155403,1,2,0:0:0:0:
26,306,155577,6,0,B|1:266|2:217|2:217|-14:259|7:317,1,180,4|0,0:0|0:0,0:0:0:0:
110,189,156100,1,2,0:0:0:0:
59,117,156275,1,8,0:0:0:0:
55,28,156449,1,2,0:0:0:0:
219,134,156624,2,0,B|228:105|228:105|229:94|229:94|234:84|234:84|255:21,1,90,8|8,0:0|0:0,0:0:0:0:
460,190,156973,5,2,0:0:0:0:
505,115,157147,1,0,0:0:0:0:
329,239,157321,1,2,0:0:0:0:
415,291,157496,1,2,0:0:0:0:
255,319,157670,1,8,0:0:0:0:
177,291,157845,1,8,0:0:0:0:
168,291,157932,1,8,0:0:0:0:
159,291,158019,2,0,L|133:290,1,22.5,8|0,0:0|3:0,0:0:0:0:
68,251,158194,2,0,L|42:250,1,22.5,8|0,0:0|3:0,0:0:0:0:
147,187,158368,6,0,B|181:83|181:83|113:88,1,161.999995056153,4|0,0:0|0:0,0:0:0:0:
125,97,158717,6,0,L|247:87,1,90,2|2,0:2|0:1,0:0:0:0:
394,211,159066,2,0,B|357:215|357:215|348:218|348:218|338:216|338:216|274:221,1,90
466,293,159414,2,0,P|485:282|466:276,1,45,2|0,0:2|3:0,0:0:0:0:
454,131,159589,2,0,P|474:133|459:150,1,45,2|0,0:2|3:0,0:0:0:0:
404,217,159763,6,0,B|348:237|306:183|306:183|239:205|266:302,1,215.999993408203,8|2,0:3|0:2,0:0:0:0:
343,300,160287,5,2,0:1:0:0:
194,319,160461,2,0,P|153:273|160:217,1,90
15,142,160810,2,0,P|42:114|40:54,1,90,2|0,0:2|0:0,0:0:0:0:
84,295,161159,6,0,P|61:243|123:175,1,144,4|2,0:2|0:2,0:0:0:0:
254,144,161682,5,2,0:1:0:0:
160,81,161856,2,0,B|153:61|153:61|146:58|146:58|147:52|147:52|127:-13,1,90
325,42,162205,2,0,B|360:31|360:31|274:11,1,90,2|0,0:2|0:0,0:0:0:0:
421,171,162554,5,8,0:3:0:0:
492,124,162728,2,0,L|503:48,1,72,2|2,0:1|0:2,0:0:0:0:
421,171,163077,5,2,0:1:0:0:
334,171,163252,1,0,0:0:0:0:
460,255,163426,1,2,0:1:0:0:
468,257,163513,1,2,0:1:0:0:
478,260,163600,2,0,L|508:267,1,22.5,2|0,0:2|3:0,0:0:0:0:
419,327,163775,2,0,L|449:334,1,22.5,2|0,0:2|3:0,0:0:0:0:
357,378,163949,6,0,B|301:362|290:315|290:315|376:286,1,161.999995056153,4|0,0:2|0:0,0:0:0:0:
392,242,164298,6,0,B|395:220|395:220|400:209|400:209|397:197|397:197|405:133,1,90,2|2,0:2|0:1,0:0:0:0:
156,112,164647,2,0,B|152:80|152:80|148:72|148:72|152:61|152:61|146:-3,1,90
285,156,164996,2,0,B|297:171|297:171|260:160,1,45,2|0,0:2|3:0,0:0:0:0:
203,252,165170,2,0,B|207:274|207:274|174:250,1,45,2|0,0:2|3:0,0:0:0:0:
65,257,165345,6,0,B|62:283|72:311|72:311|27:274|16:199|89:134,1,215.999993408203,4|2,0:2|0:2,0:0:0:0:
8,100,165868,5,2,0:1:0:0:
157,186,166042,2,0,L|266:178,1,90
430,303,166391,1,2,0:2:0:0:
332,266,166566,1,2,0:2:0:0:
321,266,166653,1,2,0:2:0:0:
309,266,166740,6,0,B|252:262|252:262|421:229,1,215.999993408203,4|2,0:2|0:2,0:0:0:0:
478,172,167263,1,2,0:1:0:0:
346,68,167438,5,0,0:0:0:0:
258,123,167612,2,0,B|238:131|238:131|221:132|221:132|213:139|213:139|153:161,1,90,0|2,0:0|0:2,0:0:0:0:
104,102,167961,1,2,0:1:0:0:
72,21,168135,2,0,L|97:23,1,22.5,8|0,0:3|3:0,0:0:0:0:
181,60,168310,2,0,L|206:62,1,22.5,2|0,0:1|3:0,0:0:0:0:
331,179,168484,2,0,L|306:181,1,22.5,2|0,0:1|3:0,0:0:0:0:
424,130,168659,2,0,L|399:132,1,22.5,2|0,0:1|3:0,0:0:0:0:
206,282,168833,6,0,P|194:302|246:361,1,108,2|0,0:1|0:0,0:0:0:0:
258,250,169182,6,0,P|312:284|299:346,1,135.000005149842,8|8,0:3|0:3,0:0:0:0:
34,296,169531,6,0,B|32:242|79:199|79:199|39:205|25:247,1,161.999995056153,4|0,0:0|0:0,0:0:0:0:
116,276,169880,6,0,L|221:283,1,90,2|2,0:2|0:1,0:0:0:0:
82,43,170228,2,0,B|30:35|30:35|114:18,1,135
167,12,170577,2,0,P|181:37|163:75,1,45,2|0,0:2|3:0,0:0:0:0:
288,115,170752,2,0,P|283:132|254:145,1,45,2|0,0:2|3:0,0:0:0:0:
418,89,170926,6,0,P|440:48|391:93,1,215.999993408203,8|2,0:3|0:2,0:0:0:0:
511,4,171449,5,2,0:1:0:0:
464,177,171624,2,0,P|409:200|374:258,1,90
122,221,171973,2,0,P|90:191|48:177,1,90,2|0,0:2|0:0,0:0:0:0:
201,311,172321,6,0,B|181:327|181:327|191:255|262:225,1,144,4|2,0:2|0:2,0:0:0:0:
301,346,172845,5,2,0:1:0:0:
223,152,173019,2,0,L|117:128,1,90
318,104,173368,2,0,B|333:97|333:97|301:86,1,45,2|0,0:2|3:0,0:0:0:0:
418,66,173542,2,0,B|432:60|432:60|382:47,1,45,2|0,0:2|3:0,0:0:0:0:
509,10,173717,6,0,L|487:149,1,107.999996704102,8|2,0:3|0:1,0:0:0:0:
509,374,174066,6,0,L|490:260,1,90,2|2,0:2|0:1,0:0:0:0:
345,159,174414,1,0,0:0:0:0:
426,240,174589,1,2,0:1:0:0:
265,202,174763,2,0,L|163:202,1,90,2|2,0:2|0:2,0:0:0:0:
150,202,175025,1,2,0:2:0:0:
131,202,175112,6,0,B|93:231|93:231|115:137,1,144,4|2,0:2|0:2,0:0:0:0:
7,84,175635,5,2,0:1:0:0:
215,117,175810,2,0,P|268:89|262:18,1,135
232,21,176159,1,2,0:2:0:0:
383,97,176333,1,0,0:0:0:0:
173,194,176507,6,0,L|159:278,1,72,8|0,0:3|0:0,0:0:0:0:
350,303,176856,6,0,L|341:209,1,90,2|2,0:2|0:1,0:0:0:0:
158,188,177205,2,0,L|132:348,1,135
90,363,177554,2,0,P|63:364|67:297,1,90,2|0,0:2|0:0,0:0:0:0:
374,337,177903,6,0,P|388:291|341:344,1,215.999993408203,4|2,0:2|0:2,0:0:0:0:
495,277,178426,5,2,0:1:0:0:
328,161,178600,1,0,0:0:0:0:
338,343,178775,2,0,P|359:296|430:295,1,90,0|2,0:0|0:2,0:0:0:0:
495,277,179124,1,2,0:1:0:0:
404,207,179298,5,2,3:2:0:0:
380,167,179385,1,2,3:2:0:0:
336,152,179473,1,2,3:2:0:0:
297,162,179560,1,2,3:2:0:0:
270,191,179647,2,0,P|211:176|215:104,1,135.000005149842,8|8,3:1|3:1,0:0:0:0:
227,94,179909,1,8,3:1:0:0:
251,87,179996,6,0,P|282:88|286:136,1,67.5000025749208,2|0,3:3|3:0,0:0:0:0:
250,263,180170,6,0,P|231:288|188:268,1,67.5000025749208,2|0,3:3|3:0,0:0:0:0:
93,172,180345,6,0,P|78:143|117:116,1,67.5000025749208,2|0,3:3|3:0,0:0:0:0:
215,201,180519,6,0,P|197:218|168:184,1,67.5000025749208,2|0,3:3|3:0,0:0:0:0:
457,146,180693,6,0,B|486:158|486:158|464:116|406:98|346:144,1,180,4|8,0:0|0:0,0:0:0:0:
318,272,181217,5,2,0:0:0:0:
390,311,181391,2,0,P|418:286|381:233,1,107.999996704102,2|0,0:3|0:0,0:0:0:0:
30,384,181740,6,0,B|-22:370|8:291|62:318|62:318|73:280|115:290,1,188.999994232178,8|0,0:0|0:0,0:0:0:0:
171,316,182089,6,0,B|147:236|215:140|215:140|254:206|254:206|232:241|230:288,1,323.999990112305,4|2,0:3|0:0,0:0:0:0:
103,59,182787,6,0,L|19:55,1,72,2|0,0:3|0:0,0:0:0:0:
22,49,183048,1,0,0:0:0:0:
13,42,183135,2,0,L|180:52,1,144,8|4,0:0|0:2,0:0:0:0:
174,52,183833,5,8,0:0:0:0:
326,6,184007,1,2,0:0:0:0:
388,75,184182,2,0,B|424:117|424:117|466:-2,1,161.999995056153,2|0,0:3|0:0,0:0:0:0:
423,18,184531,2,0,B|336:28|336:28|383:66,1,107.999996704102,8|0,0:0|0:0,0:0:0:0:
474,214,184880,6,0,P|492:201|472:192,1,45,2|0,0:3|3:0,0:0:0:0:
341,245,185054,2,0,P|343:232|314:233,1,45,8|0,0:3|3:0,0:0:0:0:
188,280,185228,6,0,P|132:273|94:200,1,107.999996704102,2|0,0:3|0:0,0:0:0:0:
103,178,185490,1,0,0:0:0:0:
116,158,185577,6,0,P|138:135|94:148,1,125.999996154785,2|8,0:3|0:3,0:0:0:0:
274,359,185926,6,0,B|305:348|305:348|315:349|315:349|321:343|321:343|387:321,1,107.999996704102,2|2,0:3|0:3,0:0:0:0:
246,129,186275,6,0,P|175:126|112:73,1,135,4|0,0:0|0:0,0:0:0:0:
127,29,186624,6,0,B|139:7|139:7|54:44,1,107.999996704102,8|2,0:0|0:0,0:0:0:0:
72,231,186973,2,0,B|94:215|94:215|5:215,1,107.999996704102,2|0,0:3|0:0,0:0:0:0:
164,373,187321,6,0,P|192:321|256:294,1,125.999996154785,8|2,0:0|0:3,0:0:0:0:
307,312,187583,1,2,0:3:0:0:
337,325,187670,6,0,P|364:343|445:328,1,90,4|0,0:3|0:0,0:0:0:0:
491,90,188019,2,0,B|457:69|457:69|472:188,1,135,8|0,0:0|0:0,0:0:0:0:
410,194,188368,6,0,P|378:169|298:164,1,107.999996704102,2|0,0:3|0:0,0:0:0:0:
94,78,188717,6,0,P|161:89|252:9,1,188.999994232178,8|0,0:0|0:0,0:0:0:0:
231,77,189066,6,0,B|223:95|223:95|226:108|226:108|220:124|220:124|224:140|224:140|217:154|217:154|219:171|219:171|214:185|214:185|218:200|218:200|209:216,1,144,4|8,0:2|0:0,0:0:0:0:
109,313,189589,5,2,0:0:0:0:
130,222,189763,2,0,L|101:217,1,26.9999991760254,2|0,0:3|3:0,0:0:0:0:
193,302,189938,2,0,L|223:297,1,26.9999991760254,8|0,0:3|3:0,0:0:0:0:
319,302,190112,2,0,L|289:297,1,26.9999991760254,2|0,0:3|3:0,0:0:0:0:
382,222,190287,1,2,0:3:0:0:
392,221,190374,1,2,0:3:0:0:
402,220,190461,1,2,0:3:0:0:
403,313,190635,1,2,0:3:0:0:
338,130,190810,6,0,P|314:110|357:122,1,135,2|0,0:3|0:0,0:0:0:0:
317,168,191159,6,0,B|267:165|246:120|246:120|211:145|208:198,1,161.999995056153,2|0,0:3|0:0,0:0:0:0:
206,229,191507,6,0,P|231:231|214:208,1,62.9999980773926,2|0,0:3|3:0,0:0:0:0:
43,134,191682,2,0,P|32:117|60:129,1,62.9999980773926,2|0,0:3|3:0,0:0:0:0:
77,272,191856,6,0,B|122:343|122:343|65:363,1,135.000005149842,4|0,0:0|0:0,0:0:0:0:
54,370,192118,1,0,0:0:0:0:
37,375,192205,6,0,B|23:335|23:335|17:329|17:329|19:322|19:322|1:271,1,107.999996704102,8|2,0:0|0:0,0:0:0:0:
321,203,192554,6,0,B|317:241|317:241|319:249|319:249|316:257|316:257|310:311,1,90,2|0,0:3|0:0,0:0:0:0:
204,307,192903,6,0,B|197:263|197:263|194:257|194:257|195:248|195:248|187:182,1,107.999996704102,8|0,0:0|0:0,0:0:0:0:
502,219,193252,6,0,B|497:235|497:235|497:249|497:249|493:260|493:260|495:273|495:273|489:285|489:285|492:298|492:298|485:307|485:307|487:323|487:323|482:334|482:334|482:351,1,135,4|0,0:3|0:0,0:0:0:0:
424,374,193600,2,0,B|392:385|392:385|388:347|424:323,1,90,8|2,0:0|0:0,0:0:0:0:
465,119,193949,6,0,P|505:48|512:2,1,125.999996154785,2|0,0:3|0:0,0:0:0:0:
213,43,194298,6,0,P|209:65|220:38,1,107.999996704102,8|0,0:0|0:0,0:0:0:0:
18,161,194647,6,0,B|81:168|81:168|131:142|131:142|109:110,1,135,4|0,0:2|0:0,0:0:0:0:
104,99,194996,6,0,B|72:89|72:89|63:82|63:82|55:83|55:83|1:68,1,107.999996704102,8|2,0:0|0:0,0:0:0:0:
245,202,195345,6,0,B|288:195|288:195|298:191|298:191|312:193|312:193|410:179,1,125.999996154785,2|0,0:3|0:0,0:0:0:0:
152,315,195694,6,0,B|122:308|122:308|114:302|114:302|100:301|100:301|9:279,1,135.000005149842,8|0,0:0|0:0,0:0:0:0:
292,369,196042,6,0,P|322:313|392:326,1,135
427,350,196391,6,0,B|465:370|465:370|443:293,1,107.999996704102,8|2,0:0|0:0,0:0:0:0:
499,62,196740,1,2,0:3:0:0:
390,106,196914,1,2,0:3:0:0:
380,108,197002,1,2,0:3:0:0:
370,110,197089,6,0,B|334:118|334:118|365:6,1,135,8|0,0:0|0:0,0:0:0:0:
408,23,197438,6,0,B|439:11|439:11|383:216,1,215.999993408203,4|8,0:0|0:0,0:0:0:0:
512,167,197961,1,2,0:0:0:0:
315,190,198135,5,2,0:3:0:0:
375,274,198310,1,8,0:3:0:0:
384,276,198397,1,8,0:3:0:0:
394,278,198484,2,0,L|427:285,1,22.5,2|0,0:3|3:0,0:0:0:0:
490,324,198659,2,0,L|523:331,1,22.5,2|0,0:3|3:0,0:0:0:0:
266,356,198833,6,0,P|238:305|134:308,1,161.999995056153,4|0,0:3|0:0,0:0:0:0:
112,332,199182,6,0,P|84:359|13:316,1,125.999996154785,8|2,0:0|0:0,0:0:0:0:
158,131,199531,5,2,0:3:0:0:
51,83,199705,2,0,P|71:60|39:39,1,45,8|8,0:3|0:3,0:0:0:0:
49,40,199880,6,0,P|30:105|63:234,1,161.999995056153,2|0,0:3|0:0,0:0:0:0:
90,227,200228,6,0,B|110:224|110:224|119:226|119:226|131:222|131:222|145:225|145:225|157:220|157:220|170:223|170:223|184:219|184:219|199:222|199:222|213:218|213:218|230:223,1,144,4|8,0:2|0:0,0:0:0:0:
352,246,200752,5,2,0:0:0:0:
286,131,200926,1,2,0:3:0:0:
436,230,201100,1,8,0:3:0:0:
377,81,201275,2,0,P|428:60|470:3,1,107.999996704102,2|8,0:3|0:3,0:0:0:0:
448,18,201537,1,8,0:3:0:0:
435,20,201623,6,0,L|421:91,1,67.5000025749208,8|0,0:3|3:0,0:0:0:0:
286,131,201798,2,0,L|272:202,1,67.5000025749208,2|0,0:3|3:0,0:0:0:0:
138,245,201973,2,0,L|124:316,1,67.5000025749208,2|0,0:3|3:0,0:0:0:0:
9,168,202147,1,8,0:3:0:0:
7,124,202234,1,8,0:3:0:0:
44,89,202321,6,0,B|79:84|79:84|117:134,1,67.5000025749208,2|0,0:3|3:0,0:0:0:0:
66,266,202496,6,0,B|29:273|29:273|1:237,1,67.5000025749208,8|0,0:3|3:0,0:0:0:0:
154,171,202670,6,0,B|184:157|184:157|229:179,1,67.5000025749208,2|0,0:3|3:0,0:0:0:0:
224,250,202845,6,0,B|205:273|205:273|168:266,1,67.5000025749208,2|0,0:3|3:0,0:0:0:0:
363,216,203019,6,0,B|385:164|440:165|440:165|469:217|535:206,1,180,4|2,0:0|0:0,0:0:0:0:
374,87,203542,5,0,0:0:0:0:
503,213,203717,2,0,P|450:193|460:124,1,107.999996704102,2|0,0:3|0:0,0:0:0:0:
322,316,204066,6,0,B|292:320|292:320|282:325|282:325|274:323|274:323|189:334,1,125.999996154785,2|0,0:0|0:0,0:0:0:0:
64,135,204414,6,0,B|19:109|19:109|136:122,1,161.999995056153,4|0,0:3|0:0,0:0:0:0:
174,111,204763,2,0,P|195:90|151:95,1,107.999996704102,2|0,0:0|0:0,0:0:0:0:
24,307,205112,6,0,P|12:301|27:286,1,36,2|0,0:3|3:0,0:0:0:0:
126,310,205287,2,0,L|166:307,1,36,0|0,0:0|3:0,0:0:0:0:
108,212,205461,2,0,B|147:217|147:217|160:212|160:212|175:232|175:232|194:224|194:224|243:229,1,144,2|4,0:0|0:2,0:0:0:0:
281,231,206159,5,2,0:0:0:0:
444,202,206333,1,0,0:0:0:0:
411,358,206507,2,0,P|426:322|333:242,1,161.999995056153,2|0,0:3|0:0,0:0:0:0:
281,231,206856,2,0,P|249:222|253:148,1,107.999996704102,2|0,0:0|0:0,0:0:0:0:
363,42,207205,2,0,B|357:78|357:78|361:90|361:90|354:98|354:98|342:166,1,107.999996704102
149,298,207554,6,0,B|143:268|143:268|136:261|136:261|139:249|139:249|131:196,1,90,2|0,0:0|0:0,0:0:0:0:
63,60,207903,6,0,B|25:33|25:33|124:49,1,107.999996704102,2|0,0:3|0:0,0:0:0:0:
264,185,208252,6,0,B|296:159|296:159|163:180,1,125.999996154785,2|2,0:0|0:0,0:0:0:0:
450,29,208600,6,0,P|484:75|483:160,1,135,4|0,0:0|0:0,0:0:0:0:
448,190,208949,6,0,B|425:218|425:218|464:235|474:177,1,107.999996704102,2|0,0:0|0:0,0:0:0:0:
182,93,209298,2,0,P|164:114|185:113,1,53.9999983520508,2|0,0:3|3:0,0:0:0:0:
270,182,209473,2,0,L|210:179,1,53.9999983520508,0|0,0:0|3:0,0:0:0:0:
284,255,209647,6,0,B|113:273,1,125.999996154785,2|0,0:0|0:0,0:0:0:0:
356,358,209996,6,0,B|401:368|401:368|372:323,2,90,4|0|2,0:3|0:0|0:0,0:0:0:0:
364,180,210519,1,0,0:0:0:0:
364,80,210694,6,0,B|338:77|338:77|328:81|328:81|318:74|318:74|232:63,1,107.999996704102,2|0,0:3|0:0,0:0:0:0:
471,47,211042,6,0,B|503:15|503:15|417:25,1,125.999996154785,2|0,0:0|0:0,0:0:0:0:
174,99,211391,6,0,B|158:135|108:136|108:136|92:88|33:86,1,144,4|2,0:2|0:0,0:0:0:0:
3,158,211914,5,0,0:0:0:0:
130,28,212089,2,0,L|101:30,1,26.9999991760254,2|0,0:3|3:0,0:0:0:0:
185,129,212263,2,0,L|216:131,1,26.9999991760254,8|0,0:3|3:0,0:0:0:0:
327,129,212438,2,0,L|296:131,1,26.9999991760254,2|0,0:3|3:0,0:0:0:0:
382,28,212612,1,2,0:3:0:0:
392,28,212699,1,2,0:3:0:0:
402,28,212787,1,2,0:3:0:0:
255,61,212961,1,2,0:3:0:0:
354,208,213135,6,0,P|388:245|381:355,1,135,8|0,0:3|0:0,0:0:0:0:
459,295,213484,6,0,B|501:265|501:265|428:270,1,107.999996704102,2|8,0:3|0:3,0:0:0:0:
161,292,213833,6,0,B|141:279|141:279|198:280,1,62.9999980773926,2|0,0:3|3:0,0:0:0:0:
62,240,214007,2,0,B|41:218|41:218|104:237,1,62.9999980773926,2|0,0:3|3:0,0:0:0:0:
200,186,214182,6,0,B|214:153|214:153|209:140|209:140|216:128|216:128|169:33,1,135.000005149842,4|0,0:0|0:0,0:0:0:0:
381,49,214531,6,0,P|432:69|449:29,1,107.999996704102,2|0,0:0|0:0,0:0:0:0:
326,257,214880,6,0,P|308:269|308:351,1,90,2|0,0:3|0:0,0:0:0:0:
119,144,215228,6,0,P|90:150|48:89,1,107.999996704102,2|0,0:0|0:0,0:0:0:0:
318,182,215577,6,0,P|371:196|368:321,1,180,4|2,0:3|0:0,0:0:0:0:
326,257,216100,1,0,0:0:0:0:
258,122,216275,6,0,P|291:102|238:119,1,251.999992309571,2|2,0:3|0:0,0:0:0:0:
258,122,216973,6,0,P|254:58|243:121,1,180,4|2,0:2|0:0,0:0:0:0:
134,107,217496,1,0,0:0:0:0:
32,64,217670,6,0,B|-12:48|-12:48|87:41,1,125.999996154785,2|0,0:3|0:0,0:0:0:0:
175,194,218019,6,0,B|177:218|177:218|173:230|173:230|179:244|179:244|179:329,1,135.000005149842,2|2,0:0|0:0,0:0:0:0:
50,368,218368,6,0,P|25:362|41:348,1,45,0|0,0:0|3:0,0:0:0:0:
61,258,218542,2,0,L|111:272,1,45,0|0,0:0|3:0,0:0:0:0:
255,267,218717,6,0,L|382:297,1,107.999996704102,2|2,0:0|0:0,0:0:0:0:
468,95,219066,2,0,B|509:69|509:69|392:78,1,161.999995056153,2|0,0:3|0:0,0:0:0:0:
339,82,219414,6,0,L|264:121,1,45,2|0,0:3|3:0,0:0:0:0:
314,192,219589,2,0,L|365:167,1,45,2|0,0:3|3:0,0:0:0:0:
213,127,219763,6,0,P|137:104|94:-5,1,161.999995056153,4|0,0:0|0:0,0:0:0:0:
157,46,220112,2,0,L|130:194,1,107.999996704102,2|0,0:0|0:0,0:0:0:0:
357,292,220461,6,0,L|344:180,1,90,2|0,0:3|0:0,0:0:0:0:
116,236,220810,2,0,B|83:240|83:240|77:244|77:244|62:244|62:244|6:251,1,90,2|0,0:0|0:0,0:0:0:0:
324,122,221159,6,0,L|530:100,1,161.999995056153,4|0,0:3|0:0,0:0:0:0:
506,60,221507,6,0,B|510:20|510:20|417:71,1,125.999996154785,2|0,0:0|0:0,0:0:0:0:
228,239,221856,6,0,B|195:201|195:201|289:231,1,135,2|0,0:3|0:0,0:0:0:0:
328,228,222205,6,0,B|412:231|439:111|280:127|310:252|424:215|450:218,2,215.999993408203,2|4|2,0:0|0:2|0:0,0:0:0:0:
228,239,223077,1,2,0:0:0:0:
183,104,223252,1,2,0:3:0:0:
105,149,223426,1,8,0:3:0:0:
114,44,223600,1,2,0:3:0:0:
16,47,223775,1,8,0:3:0:0:
9,44,223862,1,8,0:3:0:0:
2,40,223949,6,0,L|32:41,1,26.9999991760254,8|0,0:3|3:0,0:0:0:0:
183,104,224124,2,0,L|154:106,1,26.9999991760254,2|0,0:3|3:0,0:0:0:0:
329,104,224298,2,0,L|358:106,1,26.9999991760254,2|0,0:3|3:0,0:0:0:0:
510,40,224473,2,0,L|480:41,1,26.9999991760254,2|0,0:3|3:0,0:0:0:0:
304,11,224647,6,0,B|279:26|279:26|290:58,1,53.9999983520508,2|0,0:3|3:0,0:0:0:0:
455,184,224821,2,0,B|475:160|475:160|459:138,1,53.9999983520508,2|0,0:3|3:0,0:0:0:0:
246,235,224996,2,0,L|186:248,1,53.9999983520508,2|0,0:3|3:0,0:0:0:0:
315,196,225170,2,0,L|368:185,1,53.9999983520508,8|0,0:3|3:0,0:0:0:0:
333,304,225344,6,0,P|399:318|501:384,1,180,4|0,0:2|0:0,0:0:0:0:
496,249,225868,1,2,0:0:0:0:
416,169,226042,2,0,B|380:168|380:168|442:110|533:125,1,180
277,89,226566,1,2,0:0:0:0:
134,27,226740,5,0,0:0:0:0:
256,13,226914,2,0,P|205:54|252:162,1,180,2|2,0:0|0:0,0:0:0:0:
72,365,227612,2,0,P|99:346|43:355,1,180,2|2,0:0|0:0,0:0:0:0:
12,213,228135,5,0,0:0:0:0:
10,200,228484,2,0,L|114:215,1,90,0|2,0:0|0:0,0:0:0:0:
330,119,228833,1,0,0:0:0:0:
401,75,229007,2,0,B|454:55|454:55|322:68,1,180,2|2,0:0|0:0,0:0:0:0:
270,202,229531,5,0,0:0:0:0:
195,273,229705,1,2,0:0:0:0:
369,249,229880,1,2,0:0:0:0:
299,287,230054,1,2,0:0:0:0:
443,290,230228,2,0,L|474:380,1,90,2|2,0:0|0:0,0:0:0:0:
452,110,230577,2,0,L|512:23,1,90,2|2,0:0|0:0,0:0:0:0:
345,193,230926,6,0,B|236:224|290:129|171:158,1,180,4|0,0:0|0:0,0:0:0:0:
33,196,231449,1,2,0:0:0:0:
51,71,231624,2,0,B|34:42|34:42|5:106,1,90
74,288,231973,2,0,B|88:313|88:313|119:244,1,90,0|2,0:0|0:0,0:0:0:0:
33,196,232321,5,0,0:0:0:0:
198,82,232496,2,0,P|255:91|346:6,1,180,2|2,0:0|0:0,0:0:0:0:
271,373,233194,2,0,P|225:329|100:322,1,180,2|2,0:0|0:0,0:0:0:0:
364,294,233717,5,0,0:0:0:0:
372,272,234066,2,0,L|267:280,1,90,0|2,0:0|0:0,0:0:0:0:
111,158,234414,1,0,0:0:0:0:
95,144,234589,2,0,B|136:150|136:150|154:156|154:156|165:147|165:147|179:155|179:155|290:173,1,180,2|2,0:0|0:0,0:0:0:0:
454,186,235112,5,0,0:0:0:0:
512,131,235287,1,2,0:0:0:0:
450,75,235461,1,2,0:0:0:0:
373,100,235635,1,2,0:0:0:0:
375,255,235810,1,2,0:0:0:0:
446,298,235984,1,2,0:0:0:0:
500,248,236159,1,2,0:0:0:0:
454,186,236333,1,2,0:0:0:0:
