osu file format v14

[General]
AudioFilename: audio.mp3
AudioLeadIn: 0
PreviewTime: 1391
Countdown: 0
SampleSet: Soft
StackLeniency: 0.7
Mode: 0
LetterboxInBreaks: 0
WidescreenStoryboard: 0

[Editor]
DistanceSpacing: 0.3
BeatDivisor: 8
GridSize: 32
TimelineZoom: 2.450002

[Metadata]
Title:Qian Si Xi
TitleUnicode:牵丝戏
Artist:Yin Lin & Aki A Jie
ArtistUnicode:银临 & Aki阿杰
Creator:AIR
Version:hard
Source:
Tags:灰原穷 古风 chinese pop
BeatmapID:2257929
BeatmapSetID:1074239

[Difficulty]
HPDrainRate:3
CircleSize:4
OverallDifficulty:7
ApproachRate:8
SliderMultiplier:3
SliderTickRate:1

[Events]
//Background and Video events
0,0,"78084788_p0.jpg",0,0
//Break Periods
2,113917,122734
//Storyboard Layer 0 (Background)
//Storyboard Layer 1 (Fail)
//Storyboard Layer 2 (Pass)
//Storyboard Layer 3 (Foreground)
//Storyboard Layer 4 (Overlay)
//Storyboard Sound Samples

[TimingPoints]
2089,697.674418604651,4,1,1,50,1,0
24414,-100,4,2,1,40,0,0
46740,-100,4,1,1,50,0,0
69066,-83.3333333333333,4,1,1,60,0,0
69414,-100,4,1,1,60,0,0
70461,-83.3333333333333,4,1,1,60,0,0
70810,-100,4,1,1,60,0,0
71856,-125,4,1,1,60,0,0
72205,-100,4,1,1,60,0,0
73252,-125,4,1,1,60,0,0
73600,-100,4,1,1,60,0,0
74647,-83.3333333333333,4,1,1,60,0,0
74996,-100,4,1,1,60,0,0
76042,-83.3333333333333,4,1,1,60,0,0
76391,-100,4,1,1,60,0,0
77438,-83.3333333333333,4,1,1,60,0,0
78135,-100,4,1,1,60,0,0
79531,-125,4,1,1,60,0,0
79880,-66.6666666666667,4,1,1,60,0,0
80228,-83.3333333333333,4,1,1,60,0,0
80577,-100,4,1,1,60,0,0
81624,-83.3333333333333,4,1,1,60,0,0
81973,-83.3333333333333,4,1,1,60,0,0
83019,-125,4,1,1,60,0,0
83368,-100,4,1,1,60,0,0
84763,-100,4,1,1,60,0,0
85810,-125,4,1,1,60,0,0
86159,-100,4,1,1,60,0,0
87205,-125,4,1,1,60,0,0
87554,-100,4,1,1,60,0,0
88600,-83.3333333333333,4,1,1,60,0,0
88949,-100,4,1,1,60,0,0
89996,-66.6666666666667,4,1,1,60,0,0
91391,-100,4,1,1,80,0,1
91740,-83.3333333333333,4,1,1,80,0,1
92438,-71.4285714285714,4,1,1,80,0,1
92787,-83.3333333333333,4,1,1,80,0,1
93484,-125,4,1,1,80,0,1
94531,-83.3333333333333,4,1,1,80,0,1
95577,-100,4,1,1,80,0,1
95926,-83.3333333333333,4,1,1,80,0,1
96275,-71.4285714285714,4,1,1,80,0,1
96624,-83.3333333333333,4,1,1,80,0,1
96973,-100,4,1,1,80,0,1
97321,-83.3333333333333,4,1,1,80,0,1
98019,-71.4285714285714,4,1,1,80,0,1
98368,-100,4,1,1,80,0,1
99066,-83.3333333333333,4,1,1,80,0,1
99414,-71.4285714285714,4,1,1,80,0,1
99763,-125,4,1,1,80,0,1
100112,-83.3333333333333,4,1,1,80,0,1
101507,-100,4,1,1,80,0,1
101856,-83.3333333333333,4,1,1,80,0,1
102205,-71.4285714285714,4,1,1,80,0,1
102554,-66.6666666666667,4,1,1,80,0,1
102903,-83.3333333333333,4,1,1,80,0,1
103252,-100,4,1,1,80,0,1
103600,-83.3333333333333,4,1,1,80,0,1
103949,-100,4,1,1,80,0,1
104996,-83.3333333333333,4,1,1,80,0,1
105345,-100,4,1,1,80,0,1
105694,-83.3333333333333,4,1,1,80,0,1
106042,-71.4285714285714,4,1,1,80,0,1
106391,-66.6666666666667,4,1,1,80,0,1
106740,-100,4,1,1,80,0,1
107089,-83.3333333333333,4,1,1,80,0,1
107787,-100,4,1,1,80,0,1
108135,-83.3333333333333,4,1,1,80,0,1
108833,-100,4,1,1,80,0,1
109531,-83.3333333333333,4,1,1,80,0,1
109880,-71.4285714285714,4,1,1,80,0,1
110228,-100,4,1,1,80,0,1
110577,-83.3333333333333,4,1,1,80,0,1
111275,-83.3333333333333,4,1,1,80,0,1
112321,-66.6666666666667,4,1,1,80,0,1
113716,-83.3333333333333,4,1,1,70,0,0
136042,-100,4,2,1,50,0,0
158368,-83.3333333333333,4,1,1,60,0,0
158717,-100,4,1,1,60,0,0
159763,-83.3333333333333,4,1,1,60,0,0
160112,-100,4,1,1,60,0,0
161159,-125,4,1,1,60,0,0
161507,-100,4,1,1,60,0,0
162554,-125,4,1,1,60,0,0
162903,-100,4,1,1,60,0,0
163949,-83.3333333333333,4,1,1,60,0,0
164298,-100,4,1,1,60,0,0
165345,-83.3333333333333,4,1,1,60,0,0
165694,-100,4,1,1,60,0,0
166740,-83.3333333333333,4,1,1,60,0,0
167438,-100,4,1,1,60,0,0
169182,-66.6666666666667,4,1,1,60,0,0
169531,-83.3333333333333,4,1,1,60,0,0
169880,-100,4,1,1,60,0,0
170926,-83.3333333333333,4,1,1,60,0,0
171275,-100,4,1,1,60,0,0
172321,-125,4,1,1,60,0,0
172670,-100,4,1,1,60,0,0
174066,-100,4,1,1,60,0,0
175112,-125,4,1,1,60,0,0
175461,-100,4,1,1,60,0,0
176507,-125,4,1,1,60,0,0
176856,-100,4,1,1,60,0,0
177903,-83.3333333333333,4,1,1,60,0,0
178252,-100,4,1,1,60,0,0
179298,-66.6666666666667,4,1,1,60,0,0
180693,-100,4,1,1,80,0,1
181042,-83.3333333333333,4,1,1,80,0,1
181740,-71.4285714285714,4,1,1,80,0,1
182089,-83.3333333333333,4,1,1,80,0,1
182787,-125,4,1,1,80,0,1
183833,-83.3333333333333,4,1,1,80,0,1
184880,-100,4,1,1,80,0,1
185577,-71.4285714285714,4,1,1,80,0,1
185926,-83.3333333333333,4,1,1,80,0,1
186275,-100,4,1,1,80,0,1
186624,-83.3333333333333,4,1,1,80,0,1
187321,-71.4285714285714,4,1,1,80,0,1
187670,-100,4,1,1,80,0,1
188368,-83.3333333333333,4,1,1,80,0,1
188717,-71.4285714285714,4,1,1,80,0,1
189066,-125,4,1,1,80,0,1
189414,-83.3333333333333,4,1,1,80,0,1
190810,-100,4,1,1,80,0,1
191159,-83.3333333333333,4,1,1,80,0,1
191507,-71.4285714285714,4,1,1,80,0,1
191856,-66.6666666666667,4,1,1,80,0,1
192205,-83.3333333333333,4,1,1,80,0,1
192554,-100,4,1,1,80,0,1
192903,-83.3333333333333,4,1,1,80,0,1
193252,-100,4,1,1,80,0,1
193949,-71.4285714285714,4,1,1,80,0,1
194298,-83.3333333333333,4,1,1,80,0,1
194647,-100,4,1,1,80,0,1
194996,-83.3333333333333,4,1,1,80,0,1
195345,-71.4285714285714,4,1,1,80,0,1
195694,-66.6666666666667,4,1,1,80,0,1
196042,-100,4,1,1,80,0,1
196391,-83.3333333333333,4,1,1,80,0,1
197089,-100,4,1,1,80,0,1
197438,-83.3333333333333,4,1,1,80,0,1
198135,-100,4,1,1,80,0,1
198833,-83.3333333333333,4,1,1,80,0,1
199182,-71.4285714285714,4,1,1,80,0,1
199531,-100,4,1,1,80,0,1
199880,-83.3333333333333,4,1,1,80,0,1
200577,-83.3333333333333,4,1,1,80,0,1
201623,-66.6666666666667,4,1,1,80,0,0
203019,-100,4,1,1,80,0,1
203368,-83.3333333333333,4,1,1,80,0,1
204066,-71.4285714285714,4,1,1,80,0,1
204414,-83.3333333333333,4,1,1,80,0,1
205112,-125,4,1,1,80,0,1
206159,-83.3333333333333,4,1,1,80,0,1
207903,-83.3333333333333,4,1,1,80,0,1
208252,-71.4285714285714,4,1,1,80,0,1
208600,-100,4,1,1,80,0,1
208949,-83.3333333333333,4,1,1,80,0,1
209647,-71.4285714285714,4,1,1,80,0,1
209996,-100,4,1,1,80,0,1
211042,-71.4285714285714,4,1,1,80,0,1
211391,-125,4,1,1,80,0,1
211740,-83.3333333333333,4,1,1,80,0,1
213135,-100,4,1,1,80,0,1
213484,-83.3333333333333,4,1,1,80,0,1
213833,-71.4285714285714,4,1,1,80,0,1
214182,-66.6666666666667,4,1,1,80,0,1
214531,-83.3333333333333,4,1,1,80,0,1
214880,-100,4,1,1,80,0,1
215228,-83.3333333333333,4,1,1,80,0,1
215577,-100,4,1,1,80,0,1
216275,-71.4285714285714,4,1,1,80,0,1
216624,-83.3333333333333,4,1,1,80,0,1
216973,-100,4,1,1,80,0,1
217321,-83.3333333333333,4,1,1,80,0,1
217670,-71.4285714285714,4,1,1,80,0,1
218019,-66.6666666666667,4,1,1,80,0,1
218368,-100,4,1,1,80,0,1
218717,-83.3333333333333,4,1,1,80,0,1
219414,-100,4,1,1,80,0,1
219763,-83.3333333333333,4,1,1,80,0,1
220461,-100,4,1,1,80,0,1
221159,-83.3333333333333,4,1,1,80,0,1
221507,-71.4285714285714,4,1,1,80,0,1
221856,-100,4,1,1,80,0,1
222205,-83.3333333333333,4,1,1,80,0,1
225344,-100,4,2,1,40,0,0

[Colours]
Combo1 : 255,255,96
Combo2 : 128,255,255
Combo3 : 255,68,68
Combo4 : 0,217,108
Combo5 : 83,83,255

[HitObjects]
437,250,1391,5,0,0:0:0:0:
417,180,1566,1,0,0:0:0:0:
352,216,1740,1,0,0:0:0:0:
377,287,1914,1,0,0:0:0:0:
437,250,2089,2,0,L|270:264,1,150,4|0,0:2|0:0,0:0:0:0:
212,295,2612,2,0,P|196:316|205:370,1,75,0|8,0:0|0:2,0:0:0:0:
17,200,3135,2,0,B|13:196|31:213|31:269,1,75,0|0,0:0|0:0,0:0:0:0:
119,223,3484,1,0,0:0:0:0:
39,264,3659,2,0,P|27:205|89:134,1,150,0|0,0:0|0:0,0:0:0:0:
447,89,4356,2,0,B|468:89|488:68|488:68|363:80,1,150,0|0,0:0|0:0,0:0:0:0:
286,51,4880,5,0,0:0:0:0:
286,51,5228,2,0,L|267:133,1,75,0|0,0:0|0:0,0:0:0:0:
190,156,5577,1,8,0:2:0:0:
127,97,5752,2,0,B|133:71|133:71|78:115|88:202,1,150,0|0,0:0|0:0,0:0:0:0:
17,246,6275,2,0,P|43:273|103:295,1,75,0|0,0:0|0:0,0:0:0:0:
169,344,6624,2,0,P|202:324|232:278,1,75,0|0,0:0|0:0,0:0:0:0:
314,289,6973,2,0,P|346:326|385:346,1,75,8|0,0:2|0:0,0:0:0:0:
479,316,7321,2,0,P|497:274|504:231,1,75,0|8,0:0|0:2,0:0:0:0:
446,154,7670,6,0,P|411:117|463:140,1,150,4|0,0:2|0:0,0:0:0:0:
347,66,8194,2,0,P|310:38|290:6,1,75,0|8,0:0|0:2,0:0:0:0:
153,154,8717,2,0,B|149:150|193:138|229:179,1,75,0|0,0:0|0:0,0:0:0:0:
269,221,9066,1,0,0:0:0:0:
220,155,9240,2,0,P|167:148|98:57,1,150,0|0,0:0|0:0,0:0:0:0:
373,312,9938,2,0,P|449:325|482:392,1,150,0|0,0:0|0:0,0:0:0:0:
310,366,10461,5,0,0:0:0:0:
310,366,10810,2,0,B|314:347|314:347|314:329|314:329|323:318|323:318|321:300|321:300|330:288|330:288|328:272|328:272|336:261|336:261|334:244|334:244|345:226,2,150,2|2|2,3:1|3:1|3:1,0:0:0:0:
86,133,11856,2,0,B|140:132|172:181|172:181|196:161|195:116,1,150,2|0,0:1|0:0,0:0:0:0:
120,62,12380,1,0,0:0:0:0:
100,49,12554,2,0,P|55:40|14:71,1,75,8|0,0:2|0:0,0:0:0:0:
40,216,12903,2,0,P|67:233|57:195,1,75,0|8,0:0|0:2,0:0:0:0:
203,137,13252,6,0,B|258:128|258:128|272:130|272:130|284:122|284:122|361:109,1,150,4|0,0:2|0:0,0:0:0:0:
422,35,13775,2,0,B|448:8|448:8|443:61,1,75,0|8,0:0|0:2,0:0:0:0:
222,269,14298,2,0,L|158:346,1,75,0|0,0:0|0:0,0:0:0:0:
56,353,14647,1,0,0:0:0:0:
177,338,14821,2,0,L|319:255,1,150,0|0,0:0|0:0,0:0:0:0:
326,260,15519,2,0,B|381:263|381:263|396:266|396:266|405:260|405:260|492:265,1,150,0|0,0:0|0:0,0:0:0:0:
499,185,16042,5,2,3:1:0:0:
499,185,16217,2,0,B|512:150|512:150|467:116,1,75,2|0,3:1|0:0,0:0:0:0:
396,103,16566,2,0,B|371:102|371:102|358:106|358:106|343:102|343:102|325:106|325:106|310:103|310:103|297:108|297:108|280:104|280:104|262:109|262:109|242:107,1,150,2|0,3:1|0:0,0:0:0:0:
159,57,17089,2,0,P|156:10|125:65,2,150,2|0|0,3:1|0:0|0:0,0:0:0:0:
94,132,17961,1,0,0:0:0:0:
58,138,18135,2,0,P|16:109|10:54,1,75,8|0,0:2|0:0,0:0:0:0:
174,163,18484,2,0,P|213:133|266:138,1,75,0|8,0:0|0:2,0:0:0:0:
102,238,18833,6,0,P|103:268|46:379,1,150,4|0,0:2|0:0,0:0:0:0:
3,267,19356,2,0,B|-6:227|-6:227|41:249,1,75,0|8,0:0|0:2,0:0:0:0:
336,309,19880,2,0,L|426:299,1,75,0|0,0:0|0:0,0:0:0:0:
497,336,20228,2,0,B|528:280|489:226|489:226|469:269,1,150,0|0,0:0|0:0,0:0:0:0:
410,312,20752,2,0,L|312:308,1,75,0|0,0:0|0:0,0:0:0:0:
127,81,21275,1,0,0:0:0:0:
172,22,21449,1,0,0:0:0:0:
212,89,21624,6,0,B|205:112|205:112|197:122|197:122|197:133|197:133|181:188,1,75,0|0,0:0|0:0,0:0:0:0:
224,305,21973,2,0,B|210:277|210:277|209:270|209:270|203:261|203:261|184:224,1,75,0|0,0:0|0:0,0:0:0:0:
88,190,22321,1,8,0:2:0:0:
10,146,22496,1,0,0:0:0:0:
1,232,22670,1,0,0:0:0:0:
83,278,22845,1,0,0:0:0:0:
88,190,23019,6,0,P|132:210|135:266,1,75,0|0,0:0|0:0,0:0:0:0:
263,238,23368,2,0,P|279:275|257:326,1,75,0|0,0:0|0:0,0:0:0:0:
382,298,23717,1,8,0:2:0:0:
427,369,23891,1,0,0:0:0:0:
483,305,24066,1,0,0:0:0:0:
435,229,24240,1,8,0:2:0:0:
490,141,24414,6,0,B|513:127|522:111|522:111|403:124,1,150,4|0,0:1|0:0,0:0:0:0:
303,61,24938,1,2,0:0:0:0:
274,76,25112,2,0,L|200:92,1,75,8|0,0:0|0:0,0:0:0:0:
116,44,25461,2,0,L|41:33,1,75
38,126,25810,2,0,B|-6:117|-6:117|12:164|74:223,1,150,2|0,0:1|0:0,0:0:0:0:
315,300,26507,2,0,B|359:309|359:309|341:262|279:203,1,150,8|0,0:0|0:0,0:0:0:0:
366,158,27031,2,0,L|452:148,1,75,2|4,0:0|0:0,0:0:0:0:
177,368,27554,5,0,0:0:0:0:
93,340,27728,2,0,B|56:333|56:333|163:285,2,150,2|0|0,0:0|0:0|0:0,0:0:0:0:
21,249,28600,2,0,P|5:209|19:166,1,75,2|2,0:1|0:0,0:0:0:0:
103,131,28949,2,0,P|135:140|155:179,1,75,0|2,0:0|0:0,0:0:0:0:
253,157,29298,2,0,P|270:125|305:114,1,75,8|2,0:0|0:0,0:0:0:0:
415,174,29647,2,0,P|421:211|406:245,1,75,0|8,0:0|0:0,0:0:0:0:
312,285,29996,6,0,P|270:260|326:268,1,150,4|0,0:0|0:0,0:0:0:0:
365,366,30519,1,2,0:0:0:0:
397,361,30694,2,0,P|429:323|427:286,1,75,8|0,0:0|0:0,0:0:0:0:
326,261,31042,2,0,L|230:272,1,75,0|0,0:0|0:0,0:0:0:0:
157,189,31391,2,0,L|336:166,1,150,2|0,0:1|0:0,0:0:0:0:
390,139,31914,2,0,B|411:111|411:111|479:119,1,75,2|8,0:0|0:0,0:0:0:0:
247,87,32438,2,0,L|173:76,1,75,0|2,0:0|0:0,0:0:0:0:
97,97,32787,6,0,P|49:90|26:17,1,112.5,4|0,0:0|0:0,0:0:0:0:
60,0,33135,2,0,P|99:9|94:48,1,75,0|2,0:0|0:0,0:0:0:0:
24,172,33484,2,0,B|18:209|18:209|21:228|21:228|13:243|13:243|2:329,1,150,8|0,0:0|0:0,0:0:0:0:
106,291,34007,1,2,0:0:0:0:
145,303,34182,2,0,P|189:299|217:246,1,75,2|2,0:1|0:0,0:0:0:0:
299,280,34531,2,0,P|332:261|343:206,1,75,0|2,0:0|0:0,0:0:0:0:
260,187,34880,2,0,P|230:159|226:120,1,75,8|2,0:0|0:0,0:0:0:0:
143,87,35228,2,0,P|118:42|141:-4,1,75,0|8,0:0|0:0,0:0:0:0:
267,18,35577,6,0,B|291:20|291:20|308:26|308:26|324:26|324:26|342:35|342:35|362:33|362:33|380:40|380:40|399:39|399:39|423:49,1,150,4|0,0:1|0:0,0:0:0:0:
503,106,36100,2,0,B|474:129|474:129|477:81,1,75,2|8,0:0|0:0,0:0:0:0:
312,282,36624,2,0,L|385:338,1,75,0|0,0:0|0:0,0:0:0:0:
467,373,36973,2,0,P|485:305|423:275,1,150,2|0,0:1|0:0,0:0:0:0:
359,185,37496,2,0,L|434:191,1,75,2|8,0:0|0:0,0:0:0:0:
233,349,38019,2,0,B|269:359|269:359|222:392,1,75,0|8,0:0|0:0,0:0:0:0:
155,373,38368,5,4,0:0:0:0:
391,167,38717,1,0,0:0:0:0:
79,59,39066,2,0,B|44:50|44:50|168:36,1,150,8|0,0:0|0:0,0:0:0:0:
241,9,39589,1,2,0:0:0:0:
274,18,39763,2,0,P|296:56|281:106,1,75,0|2,0:0|0:0,0:0:0:0:
300,195,40112,2,0,P|288:219|231:244,1,75,0|2,0:0|0:0,0:0:0:0:
149,286,40461,2,0,P|112:279|79:233,1,75,8|2,0:0|0:0,0:0:0:0:
150,188,40810,1,0,0:0:0:0:
150,188,40984,1,8,0:0:0:0:
86,253,41159,6,0,P|145:271|199:370,1,150,4|0,0:2|0:0,0:0:0:0:
473,132,41856,2,0,P|446:113|483:128,1,112.5,8|0,0:0|0:0,0:0:0:0:
506,148,42205,1,0,0:0:0:0:
419,186,42380,2,0,P|391:211|358:324,1,150,2|0,0:0|0:0,0:0:0:0:
446,287,42903,2,0,P|469:252|519:274,1,75,0|2,0:0|0:0,0:0:0:0:
357,315,43252,2,0,P|354:271|407:173,1,150,8|0,0:0|0:0,0:0:0:0:
350,94,43775,2,0,B|315:90|315:90|368:128,1,75,8|4,0:0|0:0,0:0:0:0:
81,18,44298,5,0,0:0:0:0:
137,284,44647,2,0,B|153:320|153:320|101:300|37:251,1,150,8|0,0:0|0:0,0:0:0:0:
12,180,45170,1,2,0:0:0:0:
30,182,45345,2,0,L|125:169,1,75,0|0,0:0|0:0,0:0:0:0:
195,199,45694,2,0,L|287:213,1,75,2|0,0:0|0:0,0:0:0:0:
402,183,46042,1,2,0:0:0:0:
319,149,46217,1,8,0:0:0:0:
345,248,46391,1,0,0:0:0:0:
409,310,46566,1,8,0:0:0:0:
328,342,46740,6,0,B|311:347|311:347|288:345|288:345|268:354|268:354|246:351|246:351|227:360|227:360|204:357|204:357|173:367,1,150,4|0,1:3|1:0,0:0:0:0:
88,372,47263,1,0,1:0:0:0:
46,366,47438,2,0,B|15:355|15:355|71:335,1,75,8|0,1:0|1:0,0:0:0:0:
158,275,47787,2,0,L|176:186,1,75,0|0,1:0|1:0,0:0:0:0:
82,195,48135,2,0,P|63:153|46:54,1,112.5,0|0,1:0|1:0,0:0:0:0:
56,37,48484,2,0,B|68:6|68:6|34:17|31:46,1,75,0|0,1:0|1:0,0:0:0:0:
195,49,48833,2,0,L|374:35,1,150,8|0,1:0|1:0,0:0:0:0:
407,91,49356,1,0,1:0:0:0:
480,100,49531,6,0,B|514:90|514:90|482:139|431:175,1,150,4|0,1:2|1:0,0:0:0:0:
407,91,50054,2,0,L|328:139,1,75,0|8,1:0|1:0,0:0:0:0:
95,268,50577,2,0,L|180:295,1,75,0|8,1:0|1:0,0:0:0:0:
130,366,50926,2,0,B|90:375|90:375|123:351,1,75,0|0,0:0|1:0,0:0:0:0:
241,348,51275,2,0,L|336:337,1,75,0|0,1:0|1:0,0:0:0:0:
446,368,51624,2,0,P|458:346|429:375,1,150,8|0,1:0|1:0,0:0:0:0:
506,271,52147,1,8,1:0:0:0:
487,251,52321,6,0,B|455:229|407:224|407:224|435:188|431:150,1,150,4|0,1:3|1:0,0:0:0:0:
346,129,52845,2,0,L|305:209,2,75,0|8|0,1:0|1:0|1:0,0:0:0:0:
243,109,53368,2,0,L|235:206,1,75,0|0,1:0|1:0,0:0:0:0:
150,143,53717,2,0,P|89:113|88:68,1,112.5,0|0,1:0|1:0,0:0:0:0:
110,25,54066,2,0,L|29:15,1,75,0|0,1:0|1:0,0:0:0:0:
175,74,54414,2,0,L|259:71,1,75,8|0,1:0|0:0,0:0:0:0:
124,166,54763,2,0,L|35:173,1,75,0|0,1:0|1:0,0:0:0:0:
16,280,55112,6,0,P|63:291|132:386,1,150,4|0,1:2|1:0,0:0:0:0:
191,297,55635,2,0,B|207:262|207:262|157:281,1,75,0|8,1:0|1:0,0:0:0:0:
394,74,56159,2,0,L|488:82,1,75,0|8,1:0|1:0,0:0:0:0:
348,2,56507,2,0,P|308:18|277:2,1,75,0|0,0:0|1:0,0:0:0:0:
250,108,56856,2,0,P|217:89|217:40,1,75,0|0,1:0|1:0,0:0:0:0:
325,175,57205,2,0,P|363:149|401:163,1,75,8|0,1:0|1:0,0:0:0:0:
486,245,57554,1,0,1:0:0:0:
425,302,57728,1,8,1:0:0:0:
407,227,57903,6,0,B|434:266|434:266|463:284|463:284|512:354,1,150,4|0,1:3|1:0,0:0:0:0:
387,362,58426,2,0,P|402:319|433:298,1,75,0|8,1:0|1:0,0:0:0:0:
179,271,58949,1,0,1:0:0:0:
126,332,59124,2,0,P|76:282|-10:275,1,150,0|0,1:0|1:0,0:0:0:0:
179,271,59647,2,0,L|260:260,1,75,0|0,1:0|1:0,0:0:0:0:
123,184,59996,2,0,L|30:176,1,75,8|0,1:0|1:0,0:0:0:0:
152,115,60345,2,0,L|252:106,1,75,0|0,1:0|1:0,0:0:0:0:
90,68,60694,5,4,1:2:0:0:
407,45,61042,1,0,1:0:0:0:
276,291,61391,2,0,B|266:326|266:326|243:289,1,75,8|0,1:0|1:0,0:0:0:0:
354,261,61740,1,0,1:0:0:0:
340,345,61914,2,0,L|165:330,1,150,0|0,1:0|1:0,0:0:0:0:
94,347,62438,2,0,L|17:372,1,75,0|0,1:0|1:0,0:0:0:0:
90,265,62787,1,8,1:0:0:0:
370,63,63135,2,0,L|461:38,1,75,0|8,1:0|1:0,0:0:0:0:
279,39,63484,6,0,B|232:33|232:33|281:137,1,150,4|0,1:3|1:0,0:0:0:0:
180,124,64007,2,0,P|162:112|169:149,2,75,0|8|0,1:0|1:0|1:0,0:0:0:0:
266,206,64531,1,0,1:0:0:0:
310,197,64705,2,0,B|361:201|361:201|377:208|377:208|391:201|391:201|408:207|408:207|474:213,1,150,0|0,1:0|1:0,0:0:0:0:
489,309,65228,2,0,P|448:344|397:338,1,75,0|0,1:0|1:0,0:0:0:0:
361,301,65577,1,8,1:0:0:0:
35,184,65926,1,0,1:0:0:0:
358,29,66275,6,0,B|340:28|340:28|324:30|324:30|311:29|311:29|297:32|297:32|281:29|281:29|265:33|265:33|248:31|248:31|234:34|234:34|208:35,1,150,4|0,1:2|1:0,0:0:0:0:
119,25,66798,1,0,1:0:0:0:
101,37,66973,2,0,P|57:68|50:113,1,75,8|0,1:0|1:0,0:0:0:0:
143,139,67321,2,0,P|140:173|181:216,1,75,0|8,1:0|1:0,0:0:0:0:
286,200,67670,5,0,1:0:0:0:
354,138,67845,1,2,1:0:0:0:
237,121,68019,1,0,1:0:0:0:
286,200,68194,1,0,1:0:0:0:
286,200,68281,1,0,0:0:0:0:
286,200,68368,1,8,3:3:0:0:
232,264,68542,1,8,3:3:0:0:
339,251,68717,2,0,L|423:247,1,75,8|8,3:3|3:2,0:0:0:0:
480,364,69066,6,0,P|426:369|345:278,1,179.999994506836,4|2,2:1|2:0,0:0:0:0:
498,186,69589,2,0,P|508:138|485:114,2,75,2|8|0,2:1|2:0|0:0,0:0:0:0:
391,113,70112,2,0,L|369:199,1,75,2|0,2:0|2:0,0:0:0:0:
248,130,70461,2,0,B|199:122|199:122|236:71|321:56,1,179.999994506836,8|2,2:3|2:0,0:0:0:0:
195,15,70984,1,2,2:1:0:0:
155,31,71159,2,0,L|67:28,1,75,8|0,2:0|2:0,0:0:0:0:
12,117,71507,2,0,L|114:120,1,75,2|0,2:0|2:0,0:0:0:0:
85,204,71856,6,0,L|97:311,1,90,4|0,2:2|2:0,0:0:0:0:
76,324,72205,2,0,L|-1:317,1,75,2|2,2:0|2:1,0:0:0:0:
175,264,72554,2,0,L|279:273,1,75,8|0,2:0|0:0,0:0:0:0:
304,351,72903,2,0,B|273:374|273:374|247:337,1,75,2|0,2:0|2:0,0:0:0:0:
362,253,73252,1,8,2:3:0:0:
401,246,73426,2,0,L|472:239,1,60,2|2,2:1|2:0,0:0:0:0:
467,155,73775,1,2,2:1:0:0:
405,84,73949,2,0,L|314:68,1,75,8|0,2:0|2:0,0:0:0:0:
485,44,74298,2,0,B|507:10|507:10|464:22,1,75,2|8,2:0|2:0,0:0:0:0:
410,91,74647,6,0,L|218:53,1,179.999994506836,4|2,2:0|2:0,0:0:0:0:
113,77,75170,2,0,P|98:89|105:58,2,75,2|8|0,2:1|2:0|0:0,0:0:0:0:
231,62,75694,2,0,L|320:54,1,75,2|0,2:0|2:0,0:0:0:0:
321,175,76042,2,0,P|277:218|247:308,1,134.999995880127,4|0,2:2|0:0,0:0:0:0:
234,338,76391,2,0,P|196:306|158:295,1,75,2|2,2:0|2:1,0:0:0:0:
334,289,76740,2,0,P|379:283|430:300,1,75,8|0,2:0|2:0,0:0:0:0:
296,185,77089,2,0,P|238:170|213:140,1,75,2|8,2:0|2:0,0:0:0:0:
326,293,77438,6,0,P|379:292|480:384,1,179.999994506836,4|2,2:2|2:0,0:0:0:0:
501,272,77961,2,0,B|512:229|512:229|466:257,1,89.9999972534181,2|8,2:1|2:0,0:0:0:0:
399,210,78310,1,0,2:0:0:0:
55,302,78659,1,0,2:0:0:0:
26,276,78833,2,0,L|33:190,1,75,2|0,2:1|2:0,0:0:0:0:
168,191,79182,2,0,L|164:96,1,75,2|2,2:1|2:1,0:0:0:0:
8,44,79531,2,0,P|76:61|85:64,1,60,8|0,2:0|0:0,0:0:0:0:
157,125,79880,2,0,P|119:133|41:164,1,112.500004291535,8|8,2:3|2:3,0:0:0:0:
127,276,80228,6,0,P|169:295|257:359,1,134.999995880127,4|0,2:1|2:0,0:0:0:0:
280,351,80577,2,0,P|318:330|373:313,1,75,2|2,2:0|2:1,0:0:0:0:
306,198,80926,2,0,P|292:219|298:190,1,75,8|0,2:0|0:0,0:0:0:0:
411,140,81275,2,0,P|427:178|429:243,1,75,2|0,2:0|2:0,0:0:0:0:
413,217,81624,2,0,P|423:149|501:62,1,179.999994506836,8|2,2:3|2:0,0:0:0:0:
160,15,82321,2,0,P|179:38|179:97,1,89.9999972534181,8|0,2:0|2:0,0:0:0:0:
265,146,82670,2,0,P|230:199|185:215,1,89.9999972534181,2|0,2:0|2:0,0:0:0:0:
68,178,83019,6,0,L|57:288,1,90,4|0,2:2|2:0,0:0:0:0:
79,283,83368,2,0,L|70:381,1,75,2|2,2:0|2:1,0:0:0:0:
46,182,83717,2,0,L|27:86,1,75,8|0,2:0|2:0,0:0:0:0:
99,60,84065,1,2,2:0:0:0:
99,60,84240,2,0,L|271:81,1,150
329,113,84763,2,0,P|358:109|322:92,1,75,2|2,2:0|2:1,0:0:0:0:
395,12,85112,1,8,2:0:0:0:
417,342,85461,2,0,L|318:333,1,75,2|8,2:0|2:0,0:0:0:0:
330,333,85810,6,0,L|472:317,1,120,4|2,2:0|2:0,0:0:0:0:
474,241,86333,2,0,B|502:220|502:220|494:277,1,75,2|8,2:1|2:0,0:0:0:0:
192,373,86856,1,2,2:0:0:0:
116,348,87031,1,0,2:0:0:0:
177,282,87205,2,0,L|38:255,1,120,4|2,2:2|2:0,0:0:0:0:
9,326,87728,2,0,B|14:364|14:364|46:331,1,75,2|8,2:1|2:0,0:0:0:0:
12,34,88252,1,2,2:0:0:0:
84,64,88426,1,8,2:0:0:0:
25,109,88600,6,0,B|10:131|10:131|175:105,1,179.999994506836,4|2,2:2|2:0,0:0:0:0:
261,44,89124,1,2,2:1:0:0:
234,58,89298,2,0,L|328:102,1,75,8|0,2:0|2:0,0:0:0:0:
452,85,89647,2,0,L|349:108,1,75,2|2,2:0|2:1,0:0:0:0:
389,224,89996,5,2,3:2:0:0:
415,233,90083,1,2,3:2:0:0:
441,235,90170,1,2,3:2:0:0:
463,227,90257,1,2,3:2:0:0:
475,207,90345,2,0,L|338:194,1,112.500004291535,8|8,3:1|3:1,0:0:0:0:
274,177,90694,1,2,3:3:0:0:
180,122,90868,1,2,3:3:0:0:
104,182,91042,1,8,3:3:0:0:
5,108,91217,1,2,3:3:0:0:
32,222,91391,6,0,P|64:260|36:365,1,150,4|8,0:1|0:0,0:0:0:0:
147,346,91914,2,0,P|165:323|138:269,2,89.9999972534181,2|2|0,0:0|0:3|0:0,0:0:0:0:
247,278,92438,2,0,L|356:297,1,104.999996795654,8|0,0:0|0:0,0:0:0:0:
440,369,92787,6,0,B|482:315|468:242|468:242|428:304,1,179.999994506836,4|0,0:3|0:0,0:0:0:0:
112,138,93484,2,0,P|82:92|93:50,1,90,2|0,0:3|0:0,0:0:0:0:
126,30,93833,2,0,L|-7:17,1,120,8|4,0:0|0:2,0:0:0:0:
287,102,94531,2,0,B|409:150|505:55|419:-5|366:124,1,269.999991760254,8|0,0:0|0:0,0:0:0:0:
479,148,95228,2,0,P|510:94|520:48,1,89.9999972534181,8|8,0:0|0:0,0:0:0:0:
362,110,95577,2,0,L|332:197,1,75,2|8,0:3|0:3,0:0:0:0:
240,195,95926,2,0,L|197:302,1,89.9999972534181,2|8,0:3|0:3,0:0:0:0:
185,127,96275,2,0,L|126:33,1,104.999996795654,2|8,0:3|0:3,0:0:0:0:
69,182,96624,2,0,B|27:204|27:204|81:218,1,89.9999972534181,2|2,0:3|0:3,0:0:0:0:
172,246,96973,6,0,B|208:244|208:244|224:246|224:246|242:242|242:242|264:245|264:245|285:240|285:240|326:246,1,150,4|8,0:1|0:0,0:0:0:0:
419,289,97496,2,0,L|427:379,2,89.9999972534181,2|2|8,0:0|0:3|0:0,0:0:0:0:
483,233,98019,2,0,P|503:209|459:217,1,104.999996795654,8|0,0:0|0:0,0:0:0:0:
379,113,98368,2,0,B|339:93|339:93|455:78,1,150,4|8,0:3|0:0,0:0:0:0:
94,102,99066,2,0,L|-5:84,1,89.9999972534181,2|2,0:3|0:0,0:0:0:0:
10,93,99414,2,0,L|203:87,1,157.499995193482,8|0,0:0|0:0,0:0:0:0:
216,86,99763,6,0,B|225:52|225:52|196:66,1,60,4|0,0:2|0:0,0:0:0:0:
101,206,100112,2,0,P|80:254|82:307,1,89.9999972534181,8|2,0:0|0:0,0:0:0:0:
201,238,100461,2,0,P|219:211|229:140,1,89.9999972534181,2|8,0:3|0:3,0:0:0:0:
297,264,100810,2,0,P|288:318|310:370,1,89.9999972534181,2|2,0:3|0:3,0:0:0:0:
433,282,101159,2,0,P|415:233|373:194,1,89.9999972534181,2|2,0:3|0:3,0:0:0:0:
445,86,101507,2,0,P|472:82|428:68,1,150,2|2,0:3|0:3,0:0:0:0:
304,112,102031,1,2,0:0:0:0:
228,87,102205,1,2,0:3:0:0:
152,61,102380,1,2,0:3:0:0:
152,61,102467,1,2,3:0:0:0:
152,61,102554,6,0,B|120:55|120:55|103:57|103:57|92:54|92:54|25:40,1,112.500004291535,4|0,0:1|0:0,0:0:0:0:
131,182,102903,2,0,B|170:177|170:177|179:180|179:180|191:174|191:174|249:168,1,89.9999972534181,8|2,0:0|0:0,0:0:0:0:
321,264,103252,2,0,B|296:260|296:260|287:260|287:260|279:257|279:257|223:246,1,75,2|8,0:3|0:0,0:0:0:0:
385,335,103600,2,0,B|416:329|416:329|429:332|429:332|439:326|439:326|500:313,1,89.9999972534181,8|0,0:0|0:0,0:0:0:0:
472,217,103949,2,0,B|446:229|446:229|455:191|510:118,2,150,4|8|2,0:3|0:0|0:3,0:0:0:0:
399,124,104821,1,2,0:0:0:0:
372,131,104996,2,0,L|271:139,1,89.9999972534181,8|8,0:0|0:0,0:0:0:0:
215,86,105345,6,0,L|116:85,1,75,4|0,0:2|0:0,0:0:0:0:
90,24,105694,2,0,L|-8:11,1,89.9999972534181,8|2,0:0|0:0,0:0:0:0:
57,155,106042,2,0,B|37:182|37:182|10:105,1,104.999996795654,2|0,0:3|0:0,0:0:0:0:
153,66,106391,2,0,B|173:39|173:39|204:127,1,112.500004291535,8|2,0:0|0:0,0:0:0:0:
139,231,106740,2,0,B|134:260|134:260|126:271|126:271|128:283|128:283|121:298|121:298|125:311|125:311|117:328|117:328|119:343|119:343|105:380,1,150,0|8,0:0|0:0,0:0:0:0:
26,362,107263,1,2,0:0:0:0:
18,340,107438,2,0,P|11:290|58:258,1,89.9999972534181,2|2,0:3|0:3,0:0:0:0:
220,264,107787,2,0,P|255:302|239:377,1,112.5,2|0,0:3|0:0,0:0:0:0:
296,343,108135,6,0,B|324:340|324:340|390:304|390:304|505:302,1,179.999994506836,4|8,0:1|0:0,0:0:0:0:
416,206,108659,1,2,0:0:0:0:
401,178,108833,2,0,L|296:157,1,75,2|8,0:3|0:3,0:0:0:0:
426,97,109182,2,0,L|510:81,1,75,8|2,0:3|0:3,0:0:0:0:
322,37,109531,2,0,P|261:8|225:58,1,134.999995880127,4|0,0:3|0:0,0:0:0:0:
194,86,109880,2,0,P|138:103|105:50,1,104.999996795654,8|2,0:0|0:0,0:0:0:0:
25,18,110228,2,0,L|10:102,1,75,2|8,0:3|0:3,0:0:0:0:
55,189,110577,6,0,B|90:256|69:326|69:326|35:285,2,179.999994506836,2|4|8,0:3|0:2|0:0,0:0:0:0:
147,201,111449,1,2,0:0:0:0:
172,191,111624,2,0,L|274:201,1,89.9999972534181,2|8,0:3|0:3,0:0:0:0:
312,283,111973,2,0,L|433:285,1,89.9999972534181,2|8,0:3|0:3,0:0:0:0:
504,343,112321,2,0,B|483:380|483:380|468:291,1,112.500004291535,8|2,0:3|0:3,0:0:0:0:
465,180,112670,2,0,B|479:141|479:141|371:155,1,112.500004291535,2|8,0:3|0:3,0:0:0:0:
285,90,113019,1,2,0:3:0:0:
368,44,113194,1,8,0:3:0:0:
368,44,113281,1,8,3:0:0:0:
368,44,113368,1,2,0:3:0:0:
249,18,113542,1,2,0:3:0:0:
285,90,113717,1,4,0:1:0:0:
364,233,123484,5,8,0:3:0:0:
440,275,123659,1,2,0:3:0:0:
448,179,123833,2,0,P|495:152|475:95,1,89.9999972534181,8|8,0:3|0:3,0:0:0:0:
457,18,124182,1,2,0:3:0:0:
379,62,124356,1,8,0:3:0:0:
379,62,124444,1,8,0:3:0:0:
379,62,124531,2,0,L|268:53,1,89.9999972534181,2|2,0:3|0:3,0:0:0:0:
185,80,124880,6,0,P|166:24|166:90,1,179.999994506836,4|2,0:0|0:1,0:0:0:0:
58,125,125403,2,0,P|24:83|-10:48,2,89.9999972534181,0|2|0,0:0|0:3|0:0,0:0:0:0:
77,218,125926,2,0,P|23:263|-7:296,1,89.9999972534181,2|0,0:1|0:0,0:0:0:0:
159,173,126275,2,0,P|196:170|337:193,1,179.999994506836,0|2,0:0|0:1,0:0:0:0:
167,380,126973,2,0,P|155:368|190:370,1,89.9999972534181,2|0,0:3|0:0,0:0:0:0:
288,321,127321,2,0,L|197:258,1,89.9999972534181,2|2,0:1|0:1,0:0:0:0:
365,285,127670,6,0,B|420:274|420:274|435:274|435:274|505:162,1,179.999994506836,0|2,0:0|0:1,0:0:0:0:
490,59,128194,2,0,L|425:159,2,89.9999972534181,0|2|0,0:0|0:3|0:0,0:0:0:0:
377,65,128717,2,0,B|334:78|334:78|370:35,1,89.9999972534181,2|0,0:1|0:0,0:0:0:0:
435,6,129066,1,0,0:0:0:0:
152,63,129414,2,0,L|108:163,1,89.9999972534181,2|0,0:1|0:0,0:0:0:0:
35,134,129763,2,0,L|-8:235,1,89.9999972534181,2|8,0:3|0:3,0:0:0:0:
78,324,130112,2,0,P|111:271|95:239,1,89.9999972534181,2|2,0:3|0:3,0:0:0:0:
92,258,130461,6,0,P|149:306|275:306,1,179.999994506836,4|2,0:0|0:1,0:0:0:0:
319,244,130984,1,0,0:0:0:0:
329,229,131159,2,0,P|369:242|428:302,1,89.9999972534181,2|0,0:3|0:0,0:0:0:0:
477,176,131507,2,0,P|489:227|479:284,1,89.9999972534181,2|0,0:1|0:0,0:0:0:0:
384,136,131856,2,0,P|360:89|413:6,1,134.999995880127,0|0,0:0|0:0,0:0:0:0:
390,17,132205,1,2,0:1:0:0:
491,70,132380,2,0,B|504:91|504:91|416:75,1,89.9999972534181,0|2,0:0|0:3,0:0:0:0:
145,20,132903,2,0,L|72:83,1,89.9999972534181,2|0,0:1|0:0,0:0:0:0:
8,28,133252,6,0,L|180:131,1,179.999994506836,0|2,0:0|0:1,0:0:0:0:
166,219,133775,1,0,0:0:0:0:
147,234,133949,2,0,P|89:238|37:210,1,89.9999972534181,2|0,0:3|0:0,0:0:0:0:
65,346,134298,2,0,P|21:321|-4:277,1,89.9999972534181,2|8,0:3|0:3,0:0:0:0:
154,324,134647,1,8,0:3:0:0:
232,265,134821,1,2,0:3:0:0:
300,318,134996,2,0,B|332:322|332:322|340:325|340:325|354:325|354:325|415:335,1,89.9999972534181,8|0,0:3|0:0,0:0:0:0:
420,254,135345,1,2,0:3:0:0:
506,231,135519,1,8,0:3:0:0:
506,231,135606,1,8,3:3:0:0:
506,231,135694,2,0,L|436:158,1,89.9999972534181,2|2,0:3|0:3,0:0:0:0:
383,48,136042,6,0,B|406:37|406:37|393:100|326:138,1,150,4|0,0:1|0:0,0:0:0:0:
257,61,136566,1,2,0:0:0:0:
233,62,136740,2,0,L|157:55,1,75,8|0,0:0|0:0,0:0:0:0:
106,137,137089,2,0,L|14:138,1,75,0|0,0:0|0:0,0:0:0:0:
140,218,137438,2,0,P|146:368|146:373,1,150,2|0,0:1|0:0,0:0:0:0:
442,240,138135,2,0,P|429:288|428:328,1,75,8|0,0:0|0:0,0:0:0:0:
360,364,138484,2,0,P|348:327|348:279,1,75,0|0,0:0|0:0,0:0:0:0:
436,318,138833,6,0,P|446:261|501:154,1,150,4|0,0:0|0:0,0:0:0:0:
463,87,139356,2,0,P|440:78|439:121,1,75,2|8,0:0|0:0,0:0:0:0:
79,35,139880,1,0,0:0:0:0:
193,368,140228,2,0,P|239:320|234:230,1,150,2|0,0:1|0:0,0:0:0:0:
155,185,140752,1,2,0:0:0:0:
128,193,140926,2,0,L|37:195,1,75,0|0,0:0|0:0,0:0:0:0:
19,277,141275,2,0,P|37:297|84:271,1,75,0|8,0:0|0:0,0:0:0:0:
98,128,141624,6,0,B|61:108|61:108|88:163|141:203,1,150,4|0,0:0|0:0,0:0:0:0:
188,94,142147,1,2,0:0:0:0:
206,82,142321,2,0,L|299:69,1,75,8|0,0:0|0:0,0:0:0:0:
357,148,142670,2,0,L|457:148,1,75,0|0,0:0|0:0,0:0:0:0:
490,244,143019,2,0,B|457:257|437:294|437:294|388:286|337:318,1,150,2|0,0:1|0:0,0:0:0:0:
288,368,143542,2,0,B|247:353|247:353|290:313,1,75,2|8,0:0|0:0,0:0:0:0:
494,57,144066,2,0,L|470:135,1,75,0|0,0:0|0:0,0:0:0:0:
368,80,144414,6,0,L|321:215,1,112.5,4|0,0:0|0:0,0:0:0:0:
298,202,144763,2,0,P|255:195|222:153,1,75,0|2,0:0|0:0,0:0:0:0:
137,190,145112,2,0,P|102:129|104:95,1,75,8|0,0:0|0:0,0:0:0:0:
10,76,145461,2,0,P|17:46|54:-2,1,75,0|2,0:0|0:0,0:0:0:0:
240,58,145810,2,0,B|234:75|234:75|235:92|235:92|228:108|228:108|230:124|230:124|221:140|221:140|223:161|223:161|215:180|215:180|216:198|216:198|203:224,1,150,2|0,0:1|0:0,0:0:0:0:
203,240,146333,1,2,0:0:0:0:
179,269,146507,2,0,P|121:306|99:313,1,75,8|0,0:0|0:0,0:0:0:0:
269,323,146856,2,0,P|314:351|360:369,1,75,0|2,0:0|0:0,0:0:0:0:
454,311,147205,6,0,B|483:285|483:285|368:295,1,150,4|0,0:0|0:0,0:0:0:0:
440,192,147728,1,2,0:0:0:0:
410,186,147903,2,0,L|306:175,1,75,8|2,0:0|0:0,0:0:0:0:
457,104,148252,2,0,B|501:94|501:94|464:80,1,75,0|2,0:0|0:0,0:0:0:0:
399,24,148600,2,0,B|350:37|350:37|330:40|330:40|243:62,1,150,2|0,0:1|0:0,0:0:0:0:
161,39,149124,2,0,P|119:26|60:20,1,75,2|8,0:0|0:0,0:0:0:0:
249,366,149647,1,0,0:0:0:0:
8,306,149996,6,0,P|38:266|143:256,1,150,4|0,0:0|0:0,0:0:0:0:
208,195,150519,1,2,0:0:0:0:
188,184,150694,2,0,L|109:150,1,75,8|0,0:0|0:0,0:0:0:0:
221,81,151042,1,0,0:0:0:0:
297,129,151217,2,0,P|372:135|455:115,1,150,2|2,0:1|0:0,0:0:0:0:
497,206,151740,2,0,P|466:243|470:291,1,75,2|2,0:1|0:0,0:0:0:0:
500,346,152089,1,8,0:0:0:0:
130,239,152438,1,0,0:0:0:0:
88,309,152612,1,12,0:0:0:0:
4,278,152787,6,0,L|-1:185,1,75,0|0,0:0|0:0,0:0:0:0:
66,108,153135,2,0,B|94:71|94:71|-9:92,2,150,8|2|0,0:0|0:1|0:0,0:0:0:0:
168,117,154007,1,4,0:0:0:0:
201,111,154182,2,0,P|247:135|317:120,1,112.5,0|0,0:0|0:0,0:0:0:0:
343,108,154531,2,0,P|366:75|405:60,1,75,8|2,0:0|0:0,0:0:0:0:
432,151,154880,2,0,P|472:158|501:192,1,75,2|0,0:1|0:0,0:0:0:0:
430,248,155228,2,0,P|449:282|437:335,1,75,0|2,0:0|0:0,0:0:0:0:
363,367,155577,5,4,0:0:0:0:
18,246,155926,1,0,0:0:0:0:
103,209,156100,1,2,0:0:0:0:
36,151,156275,2,0,L|11:80,1,75,8|2,0:0|0:0,0:0:0:0:
119,97,156624,2,0,L|89:5,1,75,8|8,0:0|0:0,0:0:0:0:
215,100,156973,2,0,L|192:198,1,75,2|0,0:0|0:0,0:0:0:0:
282,191,157321,2,0,L|264:278,1,75,2|2,0:0|0:0,0:0:0:0:
383,228,157670,1,8,0:0:0:0:
462,191,157845,1,8,0:0:0:0:
462,191,157932,1,8,0:0:0:0:
462,191,158019,1,8,0:0:0:0:
476,273,158194,1,8,0:0:0:0:
383,228,158368,6,0,P|393:167|498:107,1,179.999994506836,4|2,0:0|0:2,0:0:0:0:
412,20,158891,2,0,P|385:33|374:79,2,75,2|0|0,0:1|0:0|0:0,0:0:0:0:
291,49,159414,2,0,L|205:35,1,75,2|2,0:2|0:2,0:0:0:0:
110,128,159763,2,0,P|59:140|112:106,1,179.999994506836,8|2,0:3|0:2,0:0:0:0:
170,191,160287,1,2,0:1:0:0:
152,226,160461,2,0,P|102:243|74:246,1,75,0|0,0:0|0:0,0:0:0:0:
8,336,160810,2,0,P|62:351|88:355,1,75,2|0,0:2|0:0,0:0:0:0:
222,335,161159,6,0,P|269:297|309:309,1,90,4|0,0:2|0:0,0:0:0:0:
348,322,161507,2,0,P|390:340|421:326,1,75,2|2,0:2|0:1,0:0:0:0:
493,215,161856,2,0,L|479:306,1,75,0|0,0:0|0:0,0:0:0:0:
410,176,162205,2,0,L|394:279,1,75,2|0,0:2|0:0,0:0:0:0:
274,178,162554,2,0,B|239:149|239:149|266:67,1,120,8|2,0:3|0:2,0:0:0:0:
347,29,163077,1,2,0:1:0:0:
364,46,163252,2,0,B|388:71|388:71|370:130,1,75,0|2,0:0|0:1,0:0:0:0:
254,83,163600,2,0,L|160:83,1,75,2|2,0:2|0:2,0:0:0:0:
85,186,163949,6,0,L|237:188,1,134.999995880127,4|0,0:2|0:0,0:0:0:0:
265,209,164298,2,0,L|285:289,1,75,2|2,0:2|0:1,0:0:0:0:
144,375,164647,2,0,L|148:273,1,75,0|0,0:0|0:0,0:0:0:0:
27,268,164996,2,0,B|10:301|10:301|53:292,1,75,2|2,0:2|0:2,0:0:0:0:
104,189,165345,6,0,L|263:184,1,134.999995880127,4|0,0:2|0:0,0:0:0:0:
287,184,165694,2,0,L|309:104,1,75,2|2,0:2|0:1,0:0:0:0:
216,13,166042,2,0,P|192:51|209:89,1,75,0|0,0:0|0:0,0:0:0:0:
130,112,166391,2,0,P|108:97|92:43,1,75,2|2,0:2|0:2,0:0:0:0:
298,48,166740,6,0,B|338:55|338:55|347:59|347:59|366:57|366:57|387:64|387:64|488:79,1,179.999994506836,4|2,0:2|0:2,0:0:0:0:
498,111,167263,1,2,0:1:0:0:
477,155,167438,2,0,P|427:188|400:191,1,75,0|0,0:0|0:0,0:0:0:0:
377,284,167787,2,0,P|335:282|297:266,1,75,2|2,0:2|0:1,0:0:0:0:
209,233,168135,6,0,P|162:264|127:277,1,75,8|2,0:3|0:1,0:0:0:0:
0,218,168484,2,0,P|46:231|80:258,1,75,2|2,0:1|0:1,0:0:0:0:
77,335,168833,1,2,0:1:0:0:
168,349,169007,1,0,0:0:0:0:
168,349,169095,1,0,0:0:0:0:
168,349,169182,2,0,B|214:341|214:341|223:344|223:344|231:340|231:340|297:328,1,112.500004291535,8|8,0:3|0:3,0:0:0:0:
402,345,169531,6,0,B|442:364|442:364|470:328|455:227,1,179.999994506836,4|2,0:0|0:2,0:0:0:0:
375,120,170054,2,0,B|347:111|347:111|359:171,2,75,2|0|0,0:1|0:0|0:0,0:0:0:0:
439,49,170577,2,0,L|519:35,1,75,2|2,0:2|0:2,0:0:0:0:
370,105,170926,2,0,L|212:133,1,134.999995880127,8|0,0:3|0:0,0:0:0:0:
185,116,171275,2,0,L|85:103,1,75,2|2,0:2|0:1,0:0:0:0:
72,28,171624,2,0,P|21:42|-2:73,1,75,0|0,0:0|0:0,0:0:0:0:
47,168,171973,2,0,P|17:214|20:243,1,75,2|0,0:2|0:0,0:0:0:0:
105,324,172321,6,0,P|140:284|89:226,1,120,4|2,0:2|0:2,0:0:0:0:
363,17,173019,2,0,L|330:128,1,112.5,0|0,0:0|0:0,0:0:0:0:
285,115,173368,2,0,L|199:117,1,75,2|2,0:2|0:2,0:0:0:0:
416,317,173891,1,2,0:1:0:0:
372,329,174066,2,0,P|349:298|352:244,1,75,2|2,0:2|0:1,0:0:0:0:
416,317,174414,6,0,P|379:286|396:183,1,150,0|2,0:0|0:2,0:0:0:0:
458,133,174938,1,2,0:2:0:0:
485,95,175112,2,0,L|359:104,1,120,4|2,0:2|0:2,0:0:0:0:
15,198,175810,2,0,L|177:212,1,150,0|2,0:0|0:2,0:0:0:0:
115,293,176333,1,0,0:0:0:0:
82,315,176507,6,0,P|43:310|41:291,1,60,8|0,0:3|0:0,0:0:0:0:
10,167,176856,2,0,P|5:148|56:141,1,75,2|2,0:2|0:1,0:0:0:0:
182,172,177205,2,0,P|213:215|167:261,1,112.5,0|0,0:0|0:0,0:0:0:0:
143,258,177554,2,0,L|106:171,1,75,2|0,0:2|0:0,0:0:0:0:
233,76,177903,6,0,B|243:28|243:28|314:156,1,179.999994506836,4|2,0:2|0:2,0:0:0:0:
396,165,178426,1,2,0:1:0:0:
468,115,178600,2,0,L|500:36,1,75,0|0,0:0|0:0,0:0:0:0:
417,184,178949,2,0,L|380:269,1,75,2|2,0:2|0:1,0:0:0:0:
237,267,179298,5,2,3:2:0:0:
226,258,179385,1,2,3:2:0:0:
212,255,179473,1,2,3:2:0:0:
195,257,179560,1,2,3:2:0:0:
171,276,179647,2,0,L|284:312,1,112.500004291535,8|8,3:1|3:1,0:0:0:0:
342,266,179996,1,2,3:3:0:0:
311,167,180170,1,2,3:3:0:0:
419,110,180345,1,2,3:3:0:0:
277,14,180519,1,2,3:3:0:0:
374,15,180693,6,0,L|213:85,1,150,4|8,0:0|0:0,0:0:0:0:
103,49,181217,2,0,B|79:34|79:34|155:40,2,89.9999972534181,2|2|0,0:0|0:3|0:0,0:0:0:0:
54,132,181740,2,0,L|18:260,1,104.999996795654,8|0,0:0|0:0,0:0:0:0:
80,344,182089,2,0,P|126:291|105:224,1,134.999995880127,4|0,0:3|0:0,0:0:0:0:
105,227,182438,2,0,L|210:220,1,89.9999972534181,0|2,0:0|0:0,0:0:0:0:
291,296,182787,2,0,P|326:314|288:278,1,180,2|0,0:3|0:0,0:0:0:0:
410,340,183484,6,0,P|424:298|451:264,1,60,4|0,0:2|0:0,0:0:0:0:
401,195,183833,2,0,P|421:155|472:120,1,89.9999972534181,8|2,0:0|0:0,0:0:0:0:
498,22,184182,2,0,P|444:44|377:50,1,89.9999972534181,2|0,0:3|0:0,0:0:0:0:
276,29,184531,2,0,P|323:72|348:112,1,89.9999972534181,8|0,0:0|0:0,0:0:0:0:
196,118,184880,2,0,B|159:128|159:128|191:97,1,75,2|8,0:3|0:3,0:0:0:0:
154,19,185228,1,2,0:3:0:0:
72,52,185403,1,8,0:3:0:0:
72,52,185490,1,8,0:3:0:0:
72,52,185577,2,0,L|23:144,1,104.999996795654,2|8,0:3|0:3,0:0:0:0:
108,239,185926,2,0,L|126:337,1,89.9999972534181,2|2,0:3|0:3,0:0:0:0:
14,329,186275,6,0,B|4:303|4:303|142:331,1,150,4|8,0:0|0:0,0:0:0:0:
239,289,186798,2,0,P|255:275|219:277,2,89.9999972534181,2|2|0,0:0|0:3|0:0,0:0:0:0:
297,366,187321,2,0,P|337:330|417:334,1,104.999996795654,8|2,0:0|0:3,0:0:0:0:
492,363,187670,2,0,P|435:331|426:271,1,112.5,4|0,0:3|0:0,0:0:0:0:
431,269,188019,2,0,L|468:193,1,75,8|0,0:0|0:0,0:0:0:0:
409,73,188368,2,0,L|475:145,1,89.9999972534181,2|0,0:3|0:0,0:0:0:0:
332,264,188717,2,0,L|395:165,1,104.999996795654,8|0,0:0|0:0,0:0:0:0:
341,26,189066,6,0,B|317:30|317:30|305:35|305:35|294:34|294:34|215:45,1,120,4|8,0:2|0:0,0:0:0:0:
141,8,189589,1,2,0:0:0:0:
117,18,189763,2,0,P|64:43|51:93,1,89.9999972534181,2|8,0:3|0:3,0:0:0:0:
161,160,190112,2,0,P|165:115|128:91,1,89.9999972534181,2|2,0:3|0:3,0:0:0:0:
12,195,190461,2,0,L|103:149,1,89.9999972534181,2|2,0:3|0:3,0:0:0:0:
165,248,190810,2,0,L|255:198,1,75,2|8,0:3|0:3,0:0:0:0:
237,208,191071,1,8,0:3:0:0:
245,205,191159,2,0,L|343:248,1,89.9999972534181,2|0,0:3|0:0,0:0:0:0:
485,313,191507,2,0,L|382:269,1,104.999996795654,2|2,0:3|0:3,0:0:0:0:
456,183,191856,6,0,P|472:147|425:184,1,168.750006437302,4|0,0:0|0:0,0:0:0:0:
465,207,192205,2,0,P|502:172|512:127,1,89.9999972534181,8|2,0:0|0:0,0:0:0:0:
388,26,192554,2,0,P|343:38|360:69,1,75,2|0,0:3|0:0,0:0:0:0:
248,86,192903,2,0,L|148:28,1,89.9999972534181,8|0,0:0|0:0,0:0:0:0:
35,68,193252,2,0,B|47:84|47:84|47:96|47:96|58:107|58:107|60:124|60:124|70:133|70:133|71:150|71:150|83:161|83:161|88:185|88:185|108:198,1,150,4|8,0:3|0:0,0:0:0:0:
133,216,193775,1,2,0:0:0:0:
146,256,193949,2,0,P|146:311|105:344,1,104.999996795654,2|0,0:3|0:0,0:0:0:0:
84,207,194298,2,0,P|22:213|10:253,1,89.9999972534181,8|0,0:0|0:0,0:0:0:0:
119,351,194647,6,0,P|155:307|131:240,1,112.5,4|0,0:2|0:0,0:0:0:0:
99,241,194996,2,0,L|35:333,1,89.9999972534181,8|2,0:0|0:0,0:0:0:0:
228,198,195345,2,0,L|159:297,1,104.999996795654,2|0,0:3|0:0,0:0:0:0:
336,166,195694,2,0,L|266:270,1,112.500004291535,8|0,0:0|0:0,0:0:0:0:
413,205,196042,2,0,B|481:218|481:218|426:169,1,112.5,0|0,0:0|0:0,0:0:0:0:
425,167,196391,2,0,L|394:58,1,89.9999972534181,8|2,0:0|0:0,0:0:0:0:
255,22,196740,2,0,L|149:16,1,89.9999972534181,2|2,0:3|0:3,0:0:0:0:
56,80,197089,2,0,L|163:89,1,75,8|0,0:0|0:0,0:0:0:0:
265,148,197438,6,0,P|293:201|281:297,1,134.999995880127,4|0,0:0|0:0,0:0:0:0:
259,320,197787,2,0,P|239:339|255:307,1,89.9999972534181,8|2,0:0|0:0,0:0:0:0:
406,340,198135,2,0,B|453:358|453:358|499:236,1,150,2|2,0:3|0:3,0:0:0:0:
389,157,198659,1,2,0:3:0:0:
421,158,198833,2,0,L|516:145,1,89.9999972534181,4|0,0:3|0:0,0:0:0:0:
366,66,199182,2,0,L|246:49,1,104.999996795654,8|2,0:0|0:0,0:0:0:0:
454,48,199531,2,0,B|481:19|481:19|420:29,1,75,2|8,0:3|0:3,0:0:0:0:
366,66,199880,2,0,B|349:65|349:65|338:69|338:69|326:64|326:64|307:69|307:69|290:64|290:64|274:69|274:69|259:65|259:65|246:68|246:68|231:65|231:65|215:68|215:68|180:66,1,179.999994506836,2|4,0:3|0:2,0:0:0:0:
150,64,200403,5,0,0:0:0:0:
108,53,200577,2,0,P|54:46|22:22,1,89.9999972534181,8|2,0:0|0:0,0:0:0:0:
106,147,200926,2,0,P|75:193|28:217,1,89.9999972534181,2|8,0:3|0:3,0:0:0:0:
8,328,201275,2,0,P|60:355|85:388,1,89.9999972534181,2|8,0:3|0:3,0:0:0:0:
176,313,201623,5,8,0:3:0:0:
97,269,201798,1,2,0:3:0:0:
185,221,201973,2,0,B|215:217|215:217|233:224|233:224|242:214|242:214|311:205,1,112.500004291535,2|8,0:3|0:3,0:0:0:0:
378,260,202321,1,2,0:3:0:0:
454,210,202496,1,8,0:3:0:0:
454,210,202583,1,8,3:3:0:0:
454,210,202670,1,2,0:3:0:0:
376,171,202845,1,2,0:3:0:0:
435,99,203019,6,0,B|474:77|474:77|349:94,1,150,4|2,0:0|0:0,0:0:0:0:
280,47,203542,2,0,L|186:38,2,89.9999972534181,0|2|0,0:0|0:3|0:0,0:0:0:0:
226,132,204066,2,0,L|332:126,1,104.999996795654,2|0,0:0|0:0,0:0:0:0:
172,209,204414,2,0,P|105:187|83:82,1,179.999994506836,4|2,0:3|0:0,0:0:0:0:
362,344,205112,2,0,L|444:333,1,60,2|0,0:3|0:0,0:0:0:0:
505,260,205461,2,0,L|422:275,1,60,2|0,0:0|0:0,0:0:0:0:
425,353,205810,2,0,L|304:369,1,120,4|2,0:2|0:0,0:0:0:0:
147,366,206333,2,0,P|112:329|47:338,1,89.9999972534181,0|2,0:0|0:3,0:0:0:0:
157,24,206856,2,0,P|105:50|58:37,1,89.9999972534181,2|0,0:0|0:0,0:0:0:0:
10,10,207205,6,0,B|16:50|16:50|30:68|30:68|24:78|24:78|38:97|38:97|26:203,1,179.999994506836,0|2,0:0|0:0,0:0:0:0:
41,217,207728,1,0,0:0:0:0:
83,236,207903,2,0,P|155:221|179:188,1,89.9999972534181,2|0,0:3|0:0,0:0:0:0:
259,231,208252,2,0,P|292:195|306:131,1,104.999996795654,2|2,0:0|0:0,0:0:0:0:
269,58,208600,2,0,P|226:134|243:207,1,150,4|2,0:0|0:0,0:0:0:0:
361,219,209124,1,0,0:0:0:0:
385,218,209298,2,0,L|493:214,1,89.9999972534181,2|0,0:3|0:0,0:0:0:0:
308,309,209647,2,0,L|185:315,1,104.999996795654,2|0,0:0|0:0,0:0:0:0:
63,371,209996,6,0,P|74:317|20:271,1,112.5,4|0,0:3|0:0,0:0:0:0:
39,276,210345,1,2,0:0:0:0:
105,220,210519,2,0,P|129:183|117:142,1,75,0|2,0:0|0:3,0:0:0:0:
353,9,211042,2,0,P|389:60|437:66,1,104.999996795654,2|0,0:0|0:0,0:0:0:0:
497,18,211391,6,0,P|454:66|448:137,1,120,4|2,0:2|0:0,0:0:0:0:
468,167,211914,1,0,0:0:0:0:
499,194,212089,2,0,L|418:252,1,89.9999972534181,2|8,0:3|0:3,0:0:0:0:
335,269,212438,2,0,L|224:329,1,89.9999972534181,2|2,0:3|0:3,0:0:0:0:
190,373,212787,1,2,0:3:0:0:
70,277,212961,1,2,0:3:0:0:
105,361,213135,2,0,B|55:360|55:360|97:338,1,75,8|0,0:3|0:0,0:0:0:0:
171,300,213484,2,0,L|286:272,1,89.9999972534181,2|8,0:3|0:3,0:0:0:0:
111,193,213833,2,0,L|-5:177,1,104.999996795654,2|2,0:3|0:3,0:0:0:0:
174,108,214182,6,0,B|189:82|189:82|195:79|195:79|194:66|194:66|234:-6,1,112.500004291535,4|0,0:0|0:0,0:0:0:0:
244,159,214531,2,0,B|261:191|261:191|274:201|274:201|276:213|276:213|305:264,1,89.9999972534181,2|0,0:0|0:0,0:0:0:0:
325,125,214880,2,0,B|342:97|342:97|352:92|352:92|353:80|353:80|372:33,1,75,2|0,0:3|0:0,0:0:0:0:
406,191,215228,2,0,L|505:208,1,89.9999972534181,2|0,0:0|0:0,0:0:0:0:
496,196,215577,2,0,L|332:213,1,150,4|2,0:3|0:0,0:0:0:0:
308,217,216100,1,0,0:0:0:0:
273,231,216275,6,0,P|243:258|238:324,1,104.999996795654,2|0,0:3|0:0,0:0:0:0:
321,376,216624,2,0,P|337:327|299:298,1,89.9999972534181,2|0,0:0|0:0,0:0:0:0:
152,295,216973,2,0,L|58:264,1,75,4|0,0:2|0:0,0:0:0:0:
12,196,217321,2,0,L|130:191,1,89.9999972534181,2|0,0:0|0:0,0:0:0:0:
210,155,217670,2,0,L|97:115,1,104.999996795654,2|0,0:3|0:0,0:0:0:0:
29,44,218019,2,0,L|159:38,1,112.500004291535,2|2,0:0|0:0,0:0:0:0:
294,80,218368,6,0,P|326:53|274:72,1,150,0|2,0:0|0:0,0:0:0:0:
361,139,218891,1,2,0:0:0:0:
398,131,219066,2,0,P|434:92|440:55,1,89.9999972534181,2|0,0:3|0:0,0:0:0:0:
289,164,219414,2,0,P|257:156|199:185,1,75,2|2,0:3|0:3,0:0:0:0:
377,232,219763,6,0,P|410:286|458:303,1,89.9999972534181,4|0,0:0|0:0,0:0:0:0:
505,197,220112,2,0,P|490:182|461:225,1,89.9999972534181,2|0,0:0|0:0,0:0:0:0:
337,320,220461,2,0,B|309:347|269:347|269:347|241:302|179:300,1,150,2|2,0:3|0:0,0:0:0:0:
164,320,220984,1,0,0:0:0:0:
119,344,221159,2,0,L|23:362,1,89.9999972534181,4|0,0:3|0:0,0:0:0:0:
88,241,221507,2,0,L|207:218,1,104.999996795654,2|0,0:0|0:0,0:0:0:0:
86,124,221856,2,0,L|-9:111,1,75,2|0,0:3|0:0,0:0:0:0:
149,53,222205,6,0,B|260:0|213:98|335:34,1,179.999994506836,2|4,0:0|0:2,0:0:0:0:
492,288,222903,1,2,0:0:0:0:
388,207,223077,1,2,0:0:0:0:
388,289,223252,2,0,L|263:307,1,89.9999972534181,2|8,0:3|0:3,0:0:0:0:
199,253,223600,2,0,B|181:226|181:226|258:248,1,89.9999972534181,2|8,0:3|0:3,0:0:0:0:
150,326,223949,6,0,L|57:375,1,89.9999972534181,8|2,0:3|0:3,0:0:0:0:
82,230,224298,2,0,L|-9:280,1,89.9999972534181,2|2,0:3|0:3,0:0:0:0:
18,129,224647,1,2,0:3:0:0:
109,151,224821,1,2,0:3:0:0:
109,151,224909,1,2,3:0:0:0:
109,151,224996,1,2,0:3:0:0:
52,58,225170,1,8,0:3:0:0:
140,74,225344,6,0,L|299:65,1,150,4|0,0:2|0:0,0:0:0:0:
372,44,225868,2,0,B|395:11|395:11|354:9,1,75,2|0,0:0|0:0,0:0:0:0:
176,302,226391,2,0,L|154:381,1,75,0|2,0:0|0:0,0:0:0:0:
79,345,226740,2,0,B|54:329|54:329|108:315,1,75,0|2,0:0|0:0,0:0:0:0:
461,301,227263,1,2,0:0:0:0:
163,178,227612,2,0,P|154:150|187:185,1,150,2|2,0:0|0:0,0:0:0:0:
81,193,228135,6,0,P|27:139|25:66,1,150,0|0,0:0|0:0,0:0:0:0:
97,15,228659,1,2,0:0:0:0:
440,137,229007,1,2,0:0:0:0:
179,335,229356,1,2,0:0:0:0:
243,282,229531,2,0,P|267:244|256:213,1,75,0|2,0:0|0:0,0:0:0:0:
348,275,229880,2,0,P|384:244|385:209,1,75,2|2,0:0|0:0,0:0:0:0:
315,129,230228,1,2,0:0:0:0:
290,52,230403,1,2,0:0:0:0:
357,4,230577,1,2,0:0:0:0:
379,86,230752,1,2,0:0:0:0:
315,129,230926,6,0,L|151:146,1,150,4|0,0:0|0:0,0:0:0:0:
74,111,231449,2,0,B|41:88|41:88|86:93,2,75,2|0|0,0:0|0:0|0:0,0:0:0:0:
34,186,231973,2,0,L|114:227,1,75,0|2,0:0|0:0,0:0:0:0:
149,304,232321,1,0,0:0:0:0:
177,300,232496,2,0,P|233:297|312:377,1,150,2|2,0:0|0:0,0:0:0:0:
487,64,233194,2,0,P|432:75|357:9,1,150,2|2,0:0|0:0,0:0:0:0:
482,11,233717,5,0,0:0:0:0:
99,157,234066,2,0,L|139:228,1,75,0|2,0:0|0:0,0:0:0:0:
240,184,234414,1,0,0:0:0:0:
270,171,234589,2,0,B|306:151|306:151|186:160,1,150,2|2,0:0|0:0,0:0:0:0:
19,108,235112,5,0,0:0:0:0:
13,29,235287,1,2,0:0:0:0:
84,63,235461,1,2,0:0:0:0:
91,144,235635,1,2,0:0:0:0:
25,188,235810,2,0,B|8:226|8:226|59:253,1,75,2|2,0:0|0:0,0:0:0:0:
110,271,236159,1,2,0:0:0:0:
159,208,236333,1,2,0:0:0:0:
