osu file format v14

[General]
AudioFilename: audio.mp3
AudioLeadIn: 0
PreviewTime: 67201
Countdown: 0
SampleSet: Soft
StackLeniency: 0.2
Mode: 0
LetterboxInBreaks: 0
WidescreenStoryboard: 1

[Editor]
Bookmarks: 2058,8915,17144,33601,50058,68572,85029,105601,122058,138515,157029,173487,194058,210515,231087,238287
DistanceSpacing: 1.8
BeatDivisor: 4
GridSize: 32
TimelineZoom: 2.2

[Metadata]
Title:Jin Li Chao
TitleUnicode:锦鲤抄
Artist:Yin Lin / Yun Zhi Qi
ArtistUnicode:银临 / 云の泣
Creator:-Waterlemon
Version:Red Lotus
Source:
Tags:古风 oriental pop ballad folk chinese mandarin c-pop cpop mandopop 慕清明 Mu Qing Ming 灰原穷 hui yuan qiong 弹棉花的gg tan mian hua de gg Koi Copy 桜の花が舞い落ちるとき Sakura no Hana ga Maiochiru Toki
BeatmapID:3750316
BeatmapSetID:1827378

[Difficulty]
HPDrainRate:5
CircleSize:5.5
OverallDifficulty:8.5
ApproachRate:8
SliderMultiplier:0.6
SliderTickRate:1

[Events]
//Background and Video events
0,0,"7030645.jpg",0,0
//Break Periods
//Storyboard Layer 0 (Background)
//Storyboard Layer 1 (Fail)
//Storyboard Layer 2 (Pass)
//Storyboard Layer 3 (Foreground)
//Storyboard Layer 4 (Overlay)
//Storyboard Sound Samples

[TimingPoints]
687,342.857142857143,3,2,2,40,1,0
687,-125,3,2,2,40,0,0
8915,-100,3,2,2,40,0,0
14744,-166.666666666667,3,2,2,40,0,0
16115,-166.666666666667,3,2,1,70,0,0
16629,-250,3,2,1,70,0,0
16972,-250,3,2,1,5,0,0
17144,-50,3,2,1,80,0,0
17744,-50,3,2,1,5,0,0
17829,-50,3,2,1,80,0,0
18172,-38.4615384615385,3,2,1,80,0,0
18772,-38.4615384615385,3,2,1,5,0,0
18858,-38.4615384615385,3,2,1,80,0,0
19201,-50,3,2,1,80,0,0
21858,-50,3,2,1,5,0,0
21944,-100,3,2,1,80,0,0
22201,-100,3,2,1,5,0,0
22287,-38.4615384615385,3,2,1,80,0,0
22887,-38.4615384615385,3,2,1,5,0,0
22972,-38.4615384615385,3,2,1,80,0,0
25372,-50,3,2,1,80,0,0
25972,-50,3,2,1,5,0,0
26058,-50,3,2,1,80,0,0
26401,-38.4615384615385,3,2,1,80,0,0
27001,-38.4615384615385,3,2,1,5,0,0
27087,-38.4615384615385,3,2,1,80,0,0
27429,-50,3,2,1,80,0,0
28801,-38.4615384615385,3,2,1,80,0,0
29058,-38.4615384615385,3,2,1,5,0,0
29144,-38.4615384615385,3,2,1,80,0,0
29487,-50,3,2,1,80,0,0
31201,-71.4285714285714,3,2,1,80,0,0
31544,-50,3,2,1,80,0,0
31801,-50,3,2,1,5,0,0
31887,-50,3,2,1,80,0,0
33601,-50,3,2,3,40,0,0
33944,-83.3333333333333,3,2,3,40,0,0
35915,-83.3333333333333,3,2,3,5,0,0
36001,-83.3333333333333,3,2,3,40,0,0
36858,-83.3333333333333,3,2,3,5,0,0
37029,-83.3333333333333,3,2,3,40,0,0
37287,-83.3333333333333,3,2,3,5,0,0
37372,-83.3333333333333,3,2,3,40,0,0
39687,-83.3333333333333,3,2,3,5,0,0
39772,-83.3333333333333,3,2,3,40,0,0
40201,-83.3333333333333,3,2,3,5,0,0
40287,-83.3333333333333,3,2,3,40,0,0
41401,-83.3333333333333,3,2,3,5,0,0
41487,-83.3333333333333,3,2,3,40,0,0
41829,-62.5,3,2,3,40,0,0
42429,-62.5,3,2,3,5,0,0
42515,-83.3333333333333,3,2,3,40,0,0
43629,-83.3333333333333,3,2,3,5,0,0
43715,-83.3333333333333,3,2,3,40,0,0
45515,-83.3333333333333,3,2,3,5,0,0
45601,-83.3333333333333,3,2,3,40,0,0
46372,-83.3333333333333,3,2,3,5,0,0
46458,-83.3333333333333,3,2,3,40,0,0
46972,-62.5,3,2,3,40,0,0
47229,-62.5,3,2,3,5,0,0
47315,-62.5,3,2,3,40,0,0
47486,-62.5,3,2,3,5,0,0
47658,-62.5,3,2,3,40,0,0
48001,-83.3333333333333,3,2,3,40,0,0
50058,-71.4285714285714,3,2,3,50,0,0
50315,-71.4285714285714,3,2,3,5,0,0
50401,-71.4285714285714,3,2,3,50,0,0
50658,-71.4285714285714,3,2,3,5,0,0
50744,-71.4285714285714,3,2,3,50,0,0
51001,-71.4285714285714,3,2,3,5,0,0
51087,-71.4285714285714,3,2,3,50,0,0
51429,-83.3333333333333,3,2,3,50,0,0
51858,-83.3333333333333,3,2,3,5,0,0
51944,-83.3333333333333,3,2,3,50,0,0
52029,-83.3333333333333,3,2,3,5,0,0
52115,-83.3333333333333,3,2,3,50,0,0
53744,-83.3333333333333,3,2,3,5,0,0
53829,-83.3333333333333,3,2,3,50,0,0
54172,-71.4285714285714,3,2,3,50,0,0
55201,-83.3333333333333,3,2,3,50,0,0
56658,-83.3333333333333,3,2,3,5,0,0
56744,-83.3333333333333,3,2,3,50,0,0
56829,-83.3333333333333,3,2,3,5,0,0
56915,-83.3333333333333,3,2,3,50,0,0
57172,-83.3333333333333,3,2,3,5,0,0
57258,-83.3333333333333,3,2,3,50,0,0
58287,-62.5,3,2,3,50,0,0
58544,-62.5,3,2,3,5,0,0
58629,-62.5,3,2,3,50,0,0
58887,-62.5,3,2,3,5,0,0
58972,-62.5,3,2,3,50,0,0
59229,-62.5,3,2,3,5,0,0
59315,-62.5,3,2,3,50,0,0
59572,-62.5,3,2,3,5,0,0
59658,-83.3333333333333,3,2,3,50,0,0
60087,-83.3333333333333,3,2,3,5,0,0
60172,-83.3333333333333,3,2,3,50,0,0
60258,-83.3333333333333,3,2,3,5,0,0
60344,-83.3333333333333,3,2,3,50,0,0
61972,-83.3333333333333,3,2,3,5,0,0
62058,-83.3333333333333,3,2,3,50,0,0
62829,-83.3333333333333,3,2,3,5,0,0
62915,-83.3333333333333,3,2,3,50,0,0
63429,-55.5555555555556,3,2,3,60,0,0
63687,-55.5555555555556,3,2,3,5,0,0
63772,-55.5555555555556,3,2,3,60,0,0
64029,-55.5555555555556,3,2,3,5,0,0
64115,-55.5555555555556,3,2,3,60,0,0
65058,-55.5555555555556,3,2,3,5,0,0
65144,-55.5555555555556,3,2,3,60,0,0
65487,-71.4285714285714,3,2,3,60,0,0
66172,-83.3333333333333,3,2,3,60,0,0
66429,-83.3333333333333,3,2,3,5,0,0
66515,-83.3333333333333,3,2,3,60,0,0
67544,-83.3333333333333,3,2,1,80,0,0
67887,-250,3,2,1,80,0,0
68401,-250,3,2,1,5,0,0
68572,-50,3,2,1,80,0,1
69172,-50,3,2,1,5,0,1
69258,-50,3,2,1,80,0,1
69858,-50,3,2,1,5,0,1
69944,-50,3,2,1,80,0,1
71915,-50,3,2,1,5,0,1
72001,-50,3,2,1,80,0,1
73115,-50,3,2,1,5,0,1
73201,-50,3,2,1,80,0,1
73715,-62.5,3,2,1,80,0,1
75772,-50,3,2,1,80,0,0
76801,-41.6666666666667,3,2,1,80,0,1
77401,-41.6666666666667,3,2,1,5,0,1
77487,-41.6666666666667,3,2,1,80,0,1
77829,-50,3,2,1,80,0,1
78087,-50,3,2,1,5,0,1
78172,-50,3,2,1,80,0,1
80229,-41.6666666666667,3,2,1,80,0,1
80487,-41.6666666666667,3,2,1,5,0,1
80572,-41.6666666666667,3,2,1,80,0,1
80915,-38.4615384615385,3,2,1,80,0,1
81515,-38.4615384615385,3,2,1,5,0,1
81601,-100,3,2,1,80,0,1
81858,-100,3,2,1,5,0,1
81944,-38.4615384615385,3,2,1,80,0,1
82201,-38.4615384615385,3,2,1,5,0,1
82287,-38.4615384615385,3,2,1,80,0,1
84001,-38.4615384615385,3,2,1,80,0,0
84772,-38.4615384615385,3,2,1,5,0,0
84858,-38.4615384615385,3,2,1,80,0,0
84944,-38.4615384615385,3,2,1,5,0,0
85029,-38.4615384615385,3,2,1,80,0,1
85287,-38.4615384615385,3,2,1,5,0,1
85372,-38.4615384615385,3,2,1,80,0,1
85458,-38.4615384615385,3,2,1,5,0,1
85544,-38.4615384615385,3,2,1,80,0,1
85629,-38.4615384615385,3,2,1,5,0,1
85715,-38.4615384615385,3,2,1,80,0,1
86058,-50,3,2,1,80,0,1
86315,-50,3,2,1,5,0,1
86401,-50,3,2,1,80,0,1
86658,-50,3,2,1,5,0,1
86744,-50,3,2,1,80,0,1
87087,-38.4615384615385,3,2,1,80,0,1
87687,-38.4615384615385,3,2,1,5,0,1
87772,-50,3,2,1,80,0,1
88029,-50,3,2,1,5,0,1
88115,-33.3333333333333,3,2,1,80,0,1
88801,-38.4615384615385,3,2,1,80,0,1
88887,-38.4615384615385,3,2,1,5,0,1
88972,-38.4615384615385,3,2,1,80,0,1
89058,-38.4615384615385,3,2,1,5,0,1
89144,-38.4615384615385,3,2,1,80,0,1
89401,-38.4615384615385,3,2,1,5,0,1
89487,-38.4615384615385,3,2,1,80,0,1
89572,-38.4615384615385,3,2,1,5,0,1
89659,-38.4615384615385,3,2,1,80,0,1
89744,-38.4615384615385,3,2,1,5,0,1
89830,-38.4615384615385,3,2,1,80,0,1
90172,-50,3,2,1,80,0,1
90429,-50,3,2,1,5,0,1
90515,-50,3,2,1,80,0,1
90772,-50,3,2,1,5,0,1
90858,-50,3,2,1,80,0,1
91201,-62.5,3,2,1,80,0,1
91801,-62.5,3,2,1,5,0,1
91887,-35.7142857142857,3,2,1,80,0,1
92144,-35.7142857142857,3,2,1,5,0,1
92229,-38.4615384615385,3,2,1,80,0,0
93001,-38.4615384615385,3,2,1,5,0,0
93087,-38.4615384615385,3,2,1,80,0,0
93172,-38.4615384615385,3,2,1,5,0,0
93258,-38.4615384615385,3,2,1,80,0,1
93687,-38.4615384615385,3,2,1,5,0,1
93772,-38.4615384615385,3,2,1,80,0,1
93858,-38.4615384615385,3,2,1,5,0,1
93944,-38.4615384615385,3,2,1,80,0,1
94287,-50,3,2,1,80,0,1
94544,-50,3,2,1,5,0,1
94629,-50,3,2,1,80,0,1
94887,-50,3,2,1,5,0,1
94972,-38.4615384615385,3,2,1,80,0,1
95572,-38.4615384615385,3,2,1,5,0,1
95658,-50,3,2,1,80,0,1
95915,-50,3,2,1,5,0,1
96001,-38.4615384615385,3,2,1,80,0,1
96258,-38.4615384615385,3,2,1,5,0,1
96344,-38.4615384615385,3,2,1,80,0,1
97029,-62.5,3,2,1,80,0,1
97287,-62.5,3,2,1,5,0,1
97372,-62.5,3,2,1,80,0,1
97801,-62.5,3,2,1,5,0,1
97887,-62.5,3,2,1,80,0,1
97972,-62.5,3,2,1,5,0,1
98058,-62.5,3,2,1,80,0,1
98401,-50,3,2,1,80,0,1
98658,-50,3,2,1,5,0,1
98744,-50,3,2,1,80,0,1
99001,-50,3,2,1,5,0,1
99087,-50,3,2,1,80,0,1
99687,-50,3,2,1,5,0,1
99772,-62.5,3,2,1,80,0,1
99858,-62.5,3,2,1,5,0,1
99944,-62.5,3,2,1,80,0,1
100029,-62.5,3,2,1,5,0,1
100115,-62.5,3,2,1,80,0,1
100458,-38.4615384615385,3,2,1,80,0,1
100715,-38.4615384615385,3,2,1,5,0,1
100801,-38.4615384615385,3,2,1,80,0,1
101058,-38.4615384615385,3,2,1,5,0,1
101144,-38.4615384615385,3,2,1,80,0,1
101487,-62.5,3,2,1,80,0,1
101744,-62.5,3,2,1,5,0,1
101829,-62.5,3,2,1,80,0,1
102087,-62.5,3,2,1,5,0,1
102172,-45.4545454545455,3,2,1,80,0,1
102429,-45.4545454545455,3,2,1,5,0,1
102515,-33.3333333333333,3,2,1,80,0,1
102772,-33.3333333333333,3,2,1,5,0,1
102858,-33.3333333333333,3,2,1,80,0,1
103115,-33.3333333333333,3,2,1,5,0,1
103201,-33.3333333333333,3,2,1,80,0,1
104915,-33.3333333333333,3,2,1,80,0,0
105601,-45.4545454545455,3,2,1,80,0,1
106201,-45.4545454545455,3,2,1,5,0,0
106287,-50,3,2,1,80,0,0
106629,-38.4615384615385,3,2,1,80,0,0
107229,-38.4615384615385,3,2,1,5,0,0
107315,-38.4615384615385,3,2,1,80,0,0
107658,-50,3,2,1,80,0,0
110315,-50,3,2,1,5,0,0
110401,-100,3,2,1,80,0,0
110658,-100,3,2,1,5,0,0
110744,-38.4615384615385,3,2,1,80,0,0
111344,-38.4615384615385,3,2,1,5,0,0
111429,-38.4615384615385,3,2,1,80,0,0
113829,-50,3,2,1,80,0,0
114429,-50,3,2,1,5,0,0
114515,-50,3,2,1,80,0,0
114858,-38.4615384615385,3,2,1,80,0,0
115458,-38.4615384615385,3,2,1,5,0,0
115544,-38.4615384615385,3,2,1,80,0,0
115887,-50,3,2,1,80,0,0
117258,-38.4615384615385,3,2,1,80,0,0
117515,-38.4615384615385,3,2,1,5,0,0
117601,-38.4615384615385,3,2,1,80,0,0
117944,-50,3,2,1,80,0,0
119658,-71.4285714285714,3,2,1,80,0,0
120001,-50,3,2,1,80,0,0
120258,-50,3,2,1,5,0,0
120344,-50,3,2,1,80,0,0
122058,-50,3,2,3,40,0,0
122401,-83.3333333333333,3,2,3,40,0,0
123858,-83.3333333333333,3,2,3,5,0,0
123944,-83.3333333333333,3,2,3,40,0,0
124372,-83.3333333333333,3,2,3,5,0,0
124458,-83.3333333333333,3,2,3,40,0,0
125058,-83.3333333333333,3,2,3,5,0,0
125144,-83.3333333333333,3,2,3,40,0,0
125744,-83.3333333333333,3,2,3,5,0,0
125829,-83.3333333333333,3,2,3,40,0,0
128144,-83.3333333333333,3,2,3,5,0,0
128229,-71.4285714285714,3,2,3,40,0,0
128915,-83.3333333333333,3,2,3,40,0,0
129172,-83.3333333333333,3,2,3,5,0,0
129258,-83.3333333333333,3,2,3,40,0,0
129858,-83.3333333333333,3,2,3,5,0,0
129944,-83.3333333333333,3,2,3,40,0,0
130287,-62.5,3,2,3,40,0,0
130887,-83.3333333333333,3,2,3,5,0,0
130972,-83.3333333333333,3,2,3,40,0,0
132087,-83.3333333333333,3,2,3,5,0,0
132172,-83.3333333333333,3,2,3,40,0,0
133372,-83.3333333333333,3,2,3,40,0,0
133972,-83.3333333333333,3,2,3,5,0,0
134058,-83.3333333333333,3,2,3,40,0,0
134829,-83.3333333333333,3,2,3,5,0,0
134915,-83.3333333333333,3,2,3,40,0,0
135429,-62.5,3,2,3,40,0,0
135687,-62.5,3,2,3,5,0,0
135772,-62.5,3,2,3,40,0,0
136115,-62.5,3,2,3,40,0,0
136372,-62.5,3,2,3,5,0,0
136458,-83.3333333333333,3,2,3,40,0,0
138515,-71.4285714285714,3,2,3,50,0,0
138772,-71.4285714285714,3,2,3,5,0,0
138858,-71.4285714285714,3,2,3,50,0,0
139115,-71.4285714285714,3,2,3,5,0,0
139201,-71.4285714285714,3,2,3,50,0,0
139458,-71.4285714285714,3,2,3,5,0,0
139544,-71.4285714285714,3,2,3,50,0,0
139887,-83.3333333333333,3,2,3,50,0,0
140315,-83.3333333333333,3,2,3,5,0,0
140401,-83.3333333333333,3,2,3,50,0,0
140487,-83.3333333333333,3,2,3,5,0,0
140572,-83.3333333333333,3,2,3,50,0,0
142201,-83.3333333333333,3,2,3,5,0,0
142287,-71.4285714285714,3,2,3,50,0,0
142544,-71.4285714285714,3,2,3,5,0,0
142629,-71.4285714285714,3,2,3,50,0,0
143658,-83.3333333333333,3,2,3,50,0,0
145115,-83.3333333333333,3,2,3,5,0,0
145201,-83.3333333333333,3,2,3,50,0,0
145287,-83.3333333333333,3,2,3,5,0,0
145372,-83.3333333333333,3,2,3,50,0,0
145629,-83.3333333333333,3,2,3,5,0,0
145715,-83.3333333333333,3,2,3,50,0,0
146744,-62.5,3,2,3,50,0,0
147001,-62.5,3,2,3,5,0,0
147087,-62.5,3,2,3,50,0,0
148115,-83.3333333333333,3,2,3,50,0,0
148544,-83.3333333333333,3,2,3,5,0,0
148629,-83.3333333333333,3,2,3,50,0,0
148715,-83.3333333333333,3,2,3,5,0,0
148801,-83.3333333333333,3,2,3,50,0,0
150429,-83.3333333333333,3,2,3,5,0,0
150515,-83.3333333333333,3,2,3,50,0,0
151887,-55.5555555555556,3,2,3,60,0,0
152144,-55.5555555555556,3,2,3,5,0,0
152229,-55.5555555555556,3,2,3,60,0,0
152487,-55.5555555555556,3,2,3,5,0,0
152572,-55.5555555555556,3,2,3,60,0,0
153515,-55.5555555555556,3,2,3,5,0,0
153601,-55.5555555555556,3,2,3,60,0,0
153944,-71.4285714285714,3,2,3,60,0,0
154629,-83.3333333333333,3,2,3,60,0,0
154887,-83.3333333333333,3,2,3,5,0,0
154972,-83.3333333333333,3,2,3,60,0,0
156001,-83.3333333333333,3,2,1,80,0,0
156515,-250,3,2,1,80,0,0
156858,-250,3,2,1,5,0,0
157029,-50,3,2,1,80,0,1
157629,-50,3,2,1,5,0,1
157715,-50,3,2,1,80,0,1
158315,-50,3,2,1,5,0,1
158401,-50,3,2,1,80,0,1
160372,-50,3,2,1,5,0,1
160458,-50,3,2,1,80,0,1
161572,-50,3,2,1,5,0,1
161658,-50,3,2,1,80,0,1
162172,-62.5,3,2,1,80,0,1
164229,-50,3,2,1,80,0,0
164487,-50,3,2,1,5,0,0
164572,-50,3,2,1,80,0,0
165258,-41.6666666666667,3,2,1,80,0,1
165858,-41.6666666666667,3,2,1,5,0,1
165944,-41.6666666666667,3,2,1,80,0,1
166287,-50,3,2,1,80,0,1
166544,-50,3,2,1,5,0,1
166629,-50,3,2,1,80,0,1
168687,-41.6666666666667,3,2,1,80,0,1
168944,-41.6666666666667,3,2,1,5,0,1
169029,-41.6666666666667,3,2,1,80,0,1
169372,-38.4615384615385,3,2,1,80,0,1
169972,-38.4615384615385,3,2,1,5,0,1
170058,-100,3,2,1,80,0,1
170315,-100,3,2,1,5,0,1
170401,-38.4615384615385,3,2,1,80,0,1
170658,-38.4615384615385,3,2,1,5,0,1
170744,-38.4615384615385,3,2,1,80,0,1
172458,-38.4615384615385,3,2,1,80,0,0
173229,-38.4615384615385,3,2,1,5,0,0
173315,-38.4615384615385,3,2,1,80,0,0
173401,-38.4615384615385,3,2,1,5,0,0
173487,-38.4615384615385,3,2,1,80,0,1
173744,-38.4615384615385,3,2,1,5,0,1
173829,-38.4615384615385,3,2,1,80,0,1
173915,-38.4615384615385,3,2,1,5,0,1
174001,-38.4615384615385,3,2,1,80,0,1
174086,-38.4615384615385,3,2,1,5,0,1
174172,-38.4615384615385,3,2,1,80,0,1
174515,-50,3,2,1,80,0,1
174772,-50,3,2,1,5,0,1
174858,-50,3,2,1,80,0,1
175115,-50,3,2,1,5,0,1
175201,-50,3,2,1,80,0,1
175544,-38.4615384615385,3,2,1,80,0,1
176144,-38.4615384615385,3,2,1,5,0,1
176229,-50,3,2,1,80,0,1
176486,-50,3,2,1,5,0,1
176572,-33.3333333333333,3,2,1,80,0,1
177258,-38.4615384615385,3,2,1,80,0,1
177344,-38.4615384615385,3,2,1,5,0,1
177429,-38.4615384615385,3,2,1,80,0,1
177515,-38.4615384615385,3,2,1,5,0,1
177601,-38.4615384615385,3,2,1,80,0,1
177858,-38.4615384615385,3,2,1,5,0,1
177944,-38.4615384615385,3,2,1,80,0,1
178029,-38.4615384615385,3,2,1,5,0,1
178116,-38.4615384615385,3,2,1,80,0,1
178201,-38.4615384615385,3,2,1,5,0,1
178287,-38.4615384615385,3,2,1,80,0,1
178629,-50,3,2,1,80,0,1
178886,-50,3,2,1,5,0,1
178972,-50,3,2,1,80,0,1
179229,-50,3,2,1,5,0,1
179315,-50,3,2,1,80,0,1
179658,-62.5,3,2,1,80,0,1
180258,-62.5,3,2,1,5,0,1
180344,-35.7142857142857,3,2,1,80,0,1
180601,-35.7142857142857,3,2,1,5,0,1
180687,-38.4615384615385,3,2,1,80,0,0
181458,-38.4615384615385,3,2,1,5,0,0
181544,-38.4615384615385,3,2,1,80,0,0
181629,-38.4615384615385,3,2,1,5,0,0
181715,-38.4615384615385,3,2,1,80,0,1
182144,-38.4615384615385,3,2,1,5,0,1
182229,-38.4615384615385,3,2,1,80,0,1
182315,-38.4615384615385,3,2,1,5,0,1
182401,-38.4615384615385,3,2,1,80,0,1
182744,-50,3,2,1,80,0,1
183001,-50,3,2,1,5,0,1
183087,-50,3,2,1,80,0,1
183344,-50,3,2,1,5,0,1
183429,-38.4615384615385,3,2,1,80,0,1
184029,-38.4615384615385,3,2,1,5,0,1
184115,-50,3,2,1,80,0,1
184372,-50,3,2,1,5,0,1
184458,-38.4615384615385,3,2,1,80,0,1
184715,-38.4615384615385,3,2,1,5,0,1
184801,-38.4615384615385,3,2,1,80,0,1
185486,-62.5,3,2,1,80,0,1
185744,-62.5,3,2,1,5,0,1
185829,-62.5,3,2,1,80,0,1
186258,-62.5,3,2,1,5,0,1
186344,-62.5,3,2,1,80,0,1
186429,-62.5,3,2,1,5,0,1
186515,-62.5,3,2,1,80,0,1
186600,-62.5,3,2,1,5,0,1
186687,-62.5,3,2,1,80,0,1
186772,-62.5,3,2,1,5,0,1
186858,-50,3,2,1,80,0,1
187115,-50,3,2,1,5,0,1
187201,-50,3,2,1,80,0,1
187458,-50,3,2,1,5,0,1
187544,-50,3,2,1,80,0,1
188144,-50,3,2,1,5,0,1
188229,-62.5,3,2,1,80,0,1
188315,-62.5,3,2,1,5,0,1
188401,-62.5,3,2,1,80,0,1
188486,-62.5,3,2,1,5,0,1
188572,-62.5,3,2,1,80,0,1
188657,-62.5,3,2,1,5,0,1
188744,-62.5,3,2,1,80,0,1
188829,-62.5,3,2,1,5,0,1
188915,-38.4615384615385,3,2,1,80,0,1
189172,-38.4615384615385,3,2,1,5,0,1
189258,-38.4615384615385,3,2,1,80,0,1
189515,-38.4615384615385,3,2,1,5,0,1
189601,-38.4615384615385,3,2,1,80,0,1
189944,-62.5,3,2,1,80,0,1
190201,-62.5,3,2,1,5,0,1
190287,-62.5,3,2,1,80,0,1
190544,-62.5,3,2,1,5,0,1
190629,-45.4545454545455,3,2,1,80,0,1
190886,-45.4545454545455,3,2,1,5,0,1
190972,-33.3333333333333,3,2,1,80,0,1
191229,-33.3333333333333,3,2,1,5,0,1
191315,-33.3333333333333,3,2,1,80,0,1
191572,-33.3333333333333,3,2,1,5,0,1
191658,-33.3333333333333,3,2,1,80,0,1
194058,-62.5,3,2,1,65,0,0
195001,-62.5,3,2,1,5,0,0
195087,-125,3,2,1,65,0,0
195687,-62.5,3,2,1,5,0,0
195772,-55.5555555555556,3,2,1,65,0,0
196029,-62.5,3,2,1,5,0,0
196115,-55.5555555555556,3,2,1,65,0,0
197058,-55.5555555555556,3,2,1,5,0,0
197144,-55.5555555555556,3,2,1,65,0,0
197744,-55.5555555555556,3,2,1,5,0,0
197829,-45.4545454545455,3,2,1,65,0,0
198087,-62.5,3,2,1,5,0,0
198172,-50,3,2,1,65,0,0
199115,-62.5,3,2,1,5,0,0
199201,-125,3,2,1,65,0,0
199801,-62.5,3,2,1,5,0,0
199887,-62.5,3,2,1,65,0,0
200229,-62.5,3,2,1,80,0,0
200315,-62.5,3,2,1,5,0,0
200401,-62.5,3,2,1,80,0,0
200487,-62.5,3,2,1,5,0,0
200572,-62.5,3,2,1,80,0,0
200658,-62.5,3,2,1,5,0,0
200744,-62.5,3,2,1,80,0,0
200829,-62.5,3,2,1,5,0,0
200915,-62.5,3,2,1,80,0,0
202287,-50,3,2,1,80,0,1
202544,-50,3,2,1,5,0,0
202629,-50,3,2,1,80,0,0
203572,-50,3,2,1,5,0,0
203658,-50,3,2,1,80,0,0
204001,-41.6666666666667,3,2,1,80,0,0
204258,-62.5,3,2,1,5,0,0
204344,-50,3,2,1,80,0,0
205972,-50,3,2,1,5,0,0
206058,-50,3,2,1,80,0,0
206401,-38.4615384615385,3,2,1,80,0,0
207429,-50,3,2,1,80,0,0
208029,-50,3,2,1,5,0,0
208115,-50,3,2,1,80,0,0
210172,-35.7142857142857,3,2,1,80,0,0
210258,-35.7142857142857,3,2,1,5,0,0
210344,-35.7142857142857,3,2,1,80,0,0
210429,-35.7142857142857,3,2,1,5,0,0
210515,-35.7142857142857,3,2,1,85,0,1
210772,-35.7142857142857,3,2,1,5,0,1
210858,-35.7142857142857,3,2,1,85,0,1
210944,-35.7142857142857,3,2,1,5,0,1
211029,-35.7142857142857,3,2,1,85,0,1
211115,-35.7142857142857,3,2,1,5,0,1
211201,-35.7142857142857,3,2,1,85,0,1
211543,-45.4545454545455,3,2,1,85,0,1
211801,-45.4545454545455,3,2,1,5,0,1
211887,-45.4545454545455,3,2,1,85,0,1
212144,-45.4545454545455,3,2,1,5,0,1
212229,-45.4545454545455,3,2,1,85,0,1
212572,-35.7142857142857,3,2,1,85,0,1
213172,-35.7142857142857,3,2,1,5,0,1
213257,-50,3,2,1,85,0,1
213515,-50,3,2,1,5,0,1
213600,-31.25,3,2,1,85,0,1
214286,-35.7142857142857,3,2,1,85,0,1
214372,-35.7142857142857,3,2,1,5,0,1
214458,-35.7142857142857,3,2,1,85,0,1
214544,-35.7142857142857,3,2,1,5,0,1
214629,-35.7142857142857,3,2,1,85,0,1
214887,-35.7142857142857,3,2,1,5,0,1
214972,-35.7142857142857,3,2,1,85,0,1
215058,-35.7142857142857,3,2,1,5,0,1
215143,-35.7142857142857,3,2,1,85,0,1
215229,-35.7142857142857,3,2,1,5,0,1
215315,-35.7142857142857,3,2,1,85,0,1
215657,-45.4545454545455,3,2,1,85,0,1
215915,-45.4545454545455,3,2,1,5,0,1
216001,-45.4545454545455,3,2,1,85,0,1
216258,-45.4545454545455,3,2,1,5,0,1
216344,-45.4545454545455,3,2,1,85,0,1
216686,-55.5555555555556,3,2,1,85,0,1
217287,-55.5555555555556,3,2,1,5,0,1
217372,-33.3333333333333,3,2,1,85,0,1
217629,-33.3333333333333,3,2,1,5,0,1
217715,-35.7142857142857,3,2,1,85,0,0
218487,-35.7142857142857,3,2,1,5,0,0
218572,-35.7142857142857,3,2,1,85,0,0
218658,-35.7142857142857,3,2,1,5,0,0
218744,-35.7142857142857,3,2,1,85,0,1
219172,-35.7142857142857,3,2,1,5,0,1
219258,-35.7142857142857,3,2,1,85,0,1
219344,-35.7142857142857,3,2,1,5,0,1
219429,-35.7142857142857,3,2,1,85,0,1
219772,-45.4545454545455,3,2,1,85,0,1
220029,-45.4545454545455,3,2,1,5,0,1
220115,-45.4545454545455,3,2,1,85,0,1
220372,-45.4545454545455,3,2,1,5,0,1
220457,-35.7142857142857,3,2,1,85,0,1
221058,-35.7142857142857,3,2,1,5,0,1
221143,-45.4545454545455,3,2,1,85,0,1
221401,-45.4545454545455,3,2,1,5,0,1
221486,-35.7142857142857,3,2,1,85,0,1
221744,-35.7142857142857,3,2,1,5,0,1
221829,-35.7142857142857,3,2,1,85,0,1
222858,-45.4545454545455,3,2,1,85,0,1
223115,-45.4545454545455,3,2,1,5,0,1
223201,-55.5555555555556,3,2,1,85,0,1
223287,-55.5555555555556,3,2,1,5,0,1
223372,-55.5555555555556,3,2,1,85,0,1
223458,-55.5555555555556,3,2,1,5,0,1
223544,-55.5555555555556,3,2,1,85,0,1
223629,-55.5555555555556,3,2,1,5,0,1
223715,-55.5555555555556,3,2,1,85,0,1
223801,-55.5555555555556,3,2,1,5,0,1
223886,-45.4545454545455,3,2,1,85,0,1
224144,-45.4545454545455,3,2,1,5,0,1
224229,-45.4545454545455,3,2,1,85,0,1
224487,-45.4545454545455,3,2,1,5,0,1
224572,-45.4545454545455,3,2,1,85,0,1
225172,-50,3,2,1,5,0,1
225173,-50,3,2,1,5,0,1
225257,-55.5555555555556,3,2,1,85,0,1
225344,-55.5555555555556,3,2,1,5,0,1
225429,-55.5555555555556,3,2,1,85,0,1
225515,-55.5555555555556,3,2,1,5,0,1
225601,-55.5555555555556,3,2,1,85,0,1
225687,-55.5555555555556,3,2,1,5,0,1
225772,-55.5555555555556,3,2,1,85,0,1
225858,-55.5555555555556,3,2,1,5,0,1
225943,-35.7142857142857,3,2,1,85,0,1
225944,-31.25,3,2,1,85,0,1
226201,-31.25,3,2,1,5,0,1
226287,-31.25,3,2,1,85,0,1
226544,-31.25,3,2,1,5,0,1
226629,-31.25,3,2,1,85,0,1
226972,-55.5555555555556,3,2,1,85,0,1
227229,-55.5555555555556,3,2,1,5,0,1
227315,-55.5555555555556,3,2,1,85,0,1
227572,-55.5555555555556,3,2,1,5,0,1
227658,-55.5555555555556,3,2,1,85,0,1
227915,-45.4545454545455,3,2,1,5,0,1
228000,-31.25,3,2,1,85,0,1
228258,-31.25,3,2,1,5,0,1
228344,-31.25,3,2,1,85,0,1
228601,-31.25,3,2,1,5,0,1
228687,-31.25,3,2,1,85,0,1
228944,-31.25,3,2,1,5,0,0
229029,-31.25,3,2,1,85,0,1
231087,-100,3,2,1,40,0,0
231172,-100,3,2,2,40,0,0
232801,-100,3,2,2,5,0,0
232972,-100,3,2,2,40,0,0
233144,-125,3,2,2,40,0,0
233487,-125,3,2,2,5,0,0
234172,-125,3,2,2,40,0,0
235544,-250,3,2,2,5,0,0
236229,-166.666666666667,3,2,2,40,0,0
236572,-250,3,2,2,5,0,0
236915,-250,3,2,2,40,0,0
237258,-250,3,2,2,40,0,0
237601,-250,3,2,2,5,0,0

[Colours]
Combo1 : 255,62,130
Combo2 : 130,192,255
Combo3 : 207,250,249
Combo4 : 255,252,117
Combo5 : 255,168,185
Combo6 : 0,128,255
Combo7 : 128,244,221
Combo8 : 255,199,66
SliderBorder : 255,221,217

[HitObjects]
0,120,687,86,0,L|55:117,1,48,2|0,0:2|0:2,0:0:0:0:
58,53,1201,2,0,L|11:55,1,48,2|0,0:2|0:2,0:0:0:0:
138,0,1715,1,2,0:2:0:0:
167,94,2058,1,2,0:2:0:0:
177,126,2401,1,2,0:2:0:0:
265,158,2744,54,0,P|287:159|319:149,1,48,2|0,0:2|0:2,0:0:0:0:
347,88,3258,2,0,P|325:81|301:82,1,48,2|0,0:2|0:2,0:0:0:0:
211,7,3772,1,2,0:2:0:0:
191,103,4115,1,2,0:2:0:0:
183,135,4458,1,2,0:2:0:0:
80,225,4801,54,0,B|105:222|105:222|127:230,1,48,2|0,0:2|0:2,0:0:0:0:
158,291,5315,2,0,B|181:298|181:298|205:296,1,48,2|0,0:2|0:2,0:0:0:0:
306,245,5829,1,2,0:2:0:0:
273,345,6172,1,2,0:2:0:0:
275,375,6515,1,2,0:2:0:0:
381,371,6858,54,0,P|409:372|435:375,1,48,2|0,0:2|0:2,0:0:0:0:
467,309,7372,2,0,P|439:308|413:305,1,48,2|0,0:2|0:2,0:0:0:0:
322,187,7887,1,2,0:2:0:0:
416,224,8229,1,2,0:2:0:0:
449,218,8572,2,0,L|443:250,1,24,2|0,0:2|0:2,0:0:0:0:
501,141,8915,54,0,L|513:79,1,60,2|2,0:2|0:2,0:0:0:0:
457,34,9429,1,2,0:2:0:0:
385,76,9601,1,2,0:2:0:0:
350,68,9772,1,0,0:2:0:0:
336,0,9944,2,0,L|348:58,2,60,2|2|2,0:2|0:2|0:2,0:0:0:0:
201,83,10972,54,0,P|172:84|145:72,1,60,2|2,0:2|0:2,0:0:0:0:
79,0,11487,1,2,0:2:0:0:
38,72,11658,1,2,0:2:0:0:
44,105,11829,1,0,0:2:0:0:
98,142,12001,2,0,P|63:129|32:135,2,60,2|2|2,0:2|0:2|0:2,0:0:0:0:
200,228,13029,54,0,B|190:256|190:256|194:286,1,60,2|2,0:2|0:2,0:0:0:0:
214,379,13544,1,2,0:2:0:0:
295,340,13715,1,2,0:2:0:0:
329,337,13887,1,0,0:2:0:0:
383,373,14058,2,0,B|393:345|393:345|390:314,1,60,2|2,0:2|0:2,0:0:0:0:
300,169,14744,54,0,L|304:145,1,17.9999994506836,2|2,0:2|0:2,0:0:0:0:
312,90,15087,37,2,0:2:0:0:
38,225,16115,69,0,1:2:0:0:
211,224,16458,53,0,3:2:0:0:
31,234,16629,2,0,L|-2:236,1,30,0|0,1:2|0:0,0:0:0:0:
224,88,17144,6,0,B|345:89|289:168|417:168,1,210,6|0,3:2|0:0,0:0:0:0:
469,140,17829,2,0,P|480:98|499:63,1,60,2|2,0:2|0:2,0:0:0:0:
281,372,18172,54,0,P|272:285|238:86,1,272.999987503052,2|0,1:2|0:0,0:0:0:0:
342,46,18858,2,0,P|344:86|359:151,1,77.9999964294435,2|2,0:2|0:2,0:0:0:0:
125,189,19201,54,0,P|154:186|180:198,1,60,2|0,3:2|0:0,0:0:0:0:
93,294,19544,2,0,P|76:269|73:239,1,60,0|0,0:2|3:2,0:0:0:0:
199,267,19887,2,0,P|187:294|163:310,1,60,0|0,0:2|0:2,0:0:0:0:
3,56,20229,53,0,1:2:0:0:
10,50,20572,1,2,0:2:0:0:
111,73,20744,1,0,0:2:0:0:
170,120,20915,1,2,0:2:0:0:
189,167,21087,1,0,0:2:0:0:
341,35,21258,54,0,P|272:110|288:210,1,210,2|0,3:2|0:0,0:0:0:0:
306,226,21944,2,0,L|258:218,1,45,2|0,0:2|0:0,0:0:0:0:
497,281,22287,54,0,B|435:248|384:291|384:291|350:286|350:286|291:328|235:289,1,272.999987503052,2|0,1:2|0:0,0:0:0:0:
219,274,22972,1,0,0:2:0:0:
355,356,23144,1,0,0:2:0:0:
401,163,23315,53,2,3:2:0:0:
408,171,23658,1,2,0:2:0:0:
450,180,23829,1,2,3:2:0:0:
506,152,24001,1,2,0:2:0:0:
512,83,24172,1,2,0:2:0:0:
354,14,24344,53,2,1:2:0:0:
405,102,24515,1,0,0:2:0:0:
214,91,24687,53,8,0:3:0:0:
344,175,24858,1,8,0:3:0:0:
76,272,25029,53,4,0:3:0:0:
338,306,25201,1,4,0:3:0:0:
200,110,25372,54,0,P|204:210|216:339,1,210,6|0,3:2|0:0,0:0:0:0:
229,379,26058,2,0,P|257:370|274:344,1,60,2|2,0:2|0:2,0:0:0:0:
0,125,26401,54,0,B|40:91|98:127|80:145|111:190|208:213|265:133,1,272.999987503052,2|0,1:2|0:0,0:0:0:0:
157,20,27087,2,0,P|147:57|163:98,1,77.9999964294435,2|2,0:2|0:2,0:0:0:0:
305,209,27429,54,0,L|231:240,1,60,2|0,3:2|0:0,0:0:0:0:
404,220,27772,2,0,L|468:267,1,60,0|0,0:2|3:2,0:0:0:0:
374,48,28115,1,0,0:2:0:0:
370,54,28458,53,0,1:2:0:0:
335,57,28544,1,2,0:0:0:0:
302,43,28629,1,2,0:0:0:0:
268,33,28715,1,2,0:0:0:0:
234,40,28801,54,0,P|197:83|205:160,1,116.999994644165,2|0,0:2|0:0,0:0:0:0:
232,261,29144,1,2,0:2:0:0:
92,163,29315,1,0,0:2:0:0:
322,191,29487,54,0,B|333:269|282:237|300:331,2,120,2|0|0,3:2|0:2|0:2,0:0:0:0:
263,103,30344,1,0,0:2:0:0:
485,59,30515,53,0,1:2:0:0:
489,68,30858,1,0,0:2:0:0:
413,143,31029,1,0,0:2:0:0:
469,223,31201,2,0,P|479:254|474:281,1,52.4999983978272,2|2,0:2|0:2,0:0:0:0:
306,382,31544,54,0,L|297:288,1,90,2|0,3:2|0:0,0:0:0:0:
307,275,31887,53,2,0:2:0:0:
365,243,32058,1,2,3:2:0:0:
393,171,32229,1,2,0:2:0:0:
351,59,32401,1,2,0:2:0:0:
161,9,32572,53,2,1:2:0:0:
203,118,32744,1,0,0:2:0:0:
383,33,32915,53,8,0:3:0:0:
320,179,33087,1,8,0:3:0:0:
77,141,33258,53,4,0:3:0:0:
223,374,33429,1,4,0:3:0:0:
256,227,33601,37,6,3:2:0:0:
250,233,33944,2,0,P|247:196|268:168,1,71.9999978027344,2|2,0:0|0:0,0:0:0:0:
329,145,34629,53,10,0:0:0:0:
228,75,34972,2,0,P|194:69|135:110,1,107.999996704102,2|2,0:0|0:0,0:0:0:0:
20,33,35658,54,0,P|29:68|34:99,1,53.9999983520508,10|0,0:0|0:0,0:0:0:0:
21,104,36001,1,0,0:0:0:0:
0,161,36172,1,0,0:0:0:0:
58,184,36344,1,0,0:0:0:0:
65,193,36687,54,0,L|22:189,1,35.9999989013672,2|0,1:2|0:0,0:0:0:0:
114,244,37029,2,0,P|111:273|96:304,1,53.9999983520508
102,322,37372,1,2,0:0:0:0:
171,308,37544,1,2,0:0:0:0:
270,364,37715,53,2,3:2:0:0:
316,319,38058,1,2,0:0:0:0:
379,327,38401,1,2,0:0:0:0:
455,225,38744,53,10,0:0:0:0:
448,231,38915,1,0,0:0:0:0:
377,240,39087,1,2,0:0:0:0:
373,233,39429,2,0,P|377:198|382:173,1,53.9999983520508,2|0,0:0|0:0,0:0:0:0:
457,96,39772,54,0,P|415:71|364:76,1,89.9999972534181,10|0,0:0|0:0,0:0:0:0:
356,80,40287,1,2,0:0:0:0:
293,130,40458,2,0,P|261:143|226:136,1,71.9999978027344,2|2,0:0|1:2,0:0:0:0:
118,2,41144,54,0,L|187:8,1,53.9999983520508,2|0,0:0|0:0,0:0:0:0:
212,74,41487,2,0,L|175:70,1,35.9999989013672,2|0,0:0|0:0,0:0:0:0:
75,218,41829,54,0,P|118:186|230:188,1,168,2|0,3:2|0:0,0:0:0:0:
249,206,42515,1,2,0:0:0:0:
359,102,42858,53,10,0:0:0:0:
354,131,43029,1,0,0:0:0:0:
403,186,43201,2,0,P|423:233|401:278,1,89.9999972534181,2|0,0:0|0:0,0:0:0:0:
392,287,43715,1,2,0:0:0:0:
261,283,43887,53,10,0:0:0:0:
264,290,44229,1,0,0:0:0:0:
248,327,44401,1,0,0:0:0:0:
162,319,44572,1,0,0:0:0:0:
176,354,44744,1,0,0:0:0:0:
194,241,44915,53,2,1:2:0:0:
200,233,45258,2,0,P|202:196|186:173,1,53.9999983520508
125,124,45601,1,2,0:0:0:0:
194,60,45772,1,2,0:0:0:0:
341,85,45944,54,0,P|403:81|433:53,1,89.9999972534181,2|0,3:2|0:0,0:0:0:0:
434,43,46458,1,0,0:0:0:0:
372,15,46629,1,0,0:0:0:0:
342,209,46972,54,0,P|321:171|327:133,1,71.9999978027344,10|0,0:0|0:0,0:0:0:0:
341,85,47315,2,0,P|344:110|328:142,1,48,2|0,0:0|0:0,0:0:0:0:
332,215,47658,1,2,0:0:0:0:
397,176,47829,1,2,0:0:0:0:
224,131,48001,54,0,L|75:138,1,143.999995605469,10|0,0:0|0:0,0:0:0:0:
71,133,48858,1,0,0:0:0:0:
21,227,49029,2,0,L|109:224,1,71.9999978027344,2|0,1:2|0:0,0:0:0:0:
101,228,49544,1,0,0:0:0:0:
144,321,49715,2,0,L|91:322,1,35.9999989013672,2|0,0:0|0:0,0:0:0:0:
332,349,50058,54,0,P|312:373|283:384,1,62.9999980773926,6|0,3:2|0:0,0:0:0:0:
271,258,50401,2,0,P|302:262|324:283,1,62.9999980773926,2|0,0:0|0:0,0:0:0:0:
222,353,50744,2,0,P|210:323|217:292,1,62.9999980773926,2|0,0:0|0:0,0:0:0:0:
203,191,51087,53,10,0:0:0:0:
212,194,51258,1,0,0:0:0:0:
268,160,51429,2,0,P|269:115|241:81,1,89.9999972534181,2|0,0:0|0:0,0:0:0:0:
216,88,51944,2,0,L|192:89,1,17.9999994506836,2|0,0:0|0:0,0:0:0:0:
320,22,52115,54,0,P|357:20|386:40,1,71.9999978027344,10|0,0:0|0:0,0:0:0:0:
391,47,52629,1,0,0:0:0:0:
511,7,52801,53,2,0:0:0:0:
501,46,52972,1,2,0:0:0:0:
480,125,53144,1,2,1:2:0:0:
483,132,53487,54,0,P|454:133|425:112,1,53.9999983520508
385,76,53829,1,2,0:0:0:0:
326,119,54001,1,2,0:0:0:0:
359,226,54172,54,0,L|326:195,1,41.9999987182618,2|0,3:2|0:0,0:0:0:0:
451,248,54515,2,0,L|495:233,1,41.9999987182618,2|0,0:0|0:0,0:0:0:0:
386,316,54858,2,0,L|377:361,1,41.9999987182618,2|0,0:0|0:0,0:0:0:0:
254,289,55201,54,0,L|293:260,1,35.9999989013672,10|0,0:0|0:0,0:0:0:0:
189,297,55544,2,0,L|146:277,1,35.9999989013672,2|0,0:0|0:0,0:0:0:0:
230,349,55887,2,0,L|236:396,1,35.9999989013672,2|0,0:0|0:0,0:0:0:0:
50,368,56229,54,0,P|58:318|86:287,1,89.9999972534181,10|0,0:0|0:0,0:0:0:0:
105,293,56744,2,0,L|127:291,1,17.9999994506836,2|0,0:0|0:0,0:0:0:0:
38,204,56915,2,0,P|16:180|-7:161,1,53.9999983520508,2|0,0:0|0:0,0:0:0:0:
79,99,57258,53,2,1:2:0:0:
75,108,57601,1,2,0:0:0:0:
104,137,57772,1,2,0:0:0:0:
165,152,57944,1,2,0:0:0:0:
242,135,58115,1,2,0:0:0:0:
319,12,58287,54,0,P|327:48|317:83,1,72,2|0,3:2|0:0,0:0:0:0:
427,63,58629,2,0,P|423:99|401:129,1,72,2|0,0:0|0:0,0:0:0:0:
512,147,58972,2,0,P|495:179|465:200,1,72,2|0,0:0|0:0,0:0:0:0:
387,237,59315,54,0,P|391:273|413:303,1,72,10|0,0:0|0:0,0:0:0:0:
427,309,59658,2,0,L|332:318,1,89.9999972534181,2|0,0:0|0:0,0:0:0:0:
320,333,60172,2,0,L|352:330,1,17.9999994506836,2|0,0:0|0:0,0:0:0:0:
242,247,60344,54,0,P|211:230|175:230,1,71.9999978027344,10|0,0:0|0:0,0:0:0:0:
165,238,60858,1,0,0:0:0:0:
84,294,61029,53,2,0:0:0:0:
93,252,61200,1,2,0:0:0:0:
56,181,61372,1,2,1:2:0:0:
49,186,61715,54,0,P|49:157|62:133,1,53.9999983520508
111,85,62058,1,2,0:0:0:0:
76,8,62229,1,2,0:0:0:0:
244,50,62401,54,0,P|236:89|230:141,1,89.9999972534181,2|0,3:2|0:0,0:0:0:0:
233,159,62915,1,0,0:0:0:0:
315,200,63087,1,0,0:0:0:0:
324,204,63429,54,0,P|342:165|336:128,1,80.9999975280763,10|0,0:0|0:0,0:0:0:0:
377,6,63772,2,0,P|413:23|431:59,1,80.9999975280763,2|0,0:0|0:0,0:0:0:0:
238,130,64115,1,2,0:0:0:0:
208,0,64287,1,2,0:0:0:0:
51,91,64458,54,0,B|176:112|121:46|248:70,1,188.999994232178,10|0,0:0|0:0,0:0:0:0:
312,43,65144,1,0,0:0:0:0:
294,201,65487,54,0,L|285:293,1,83.9999974365235,2|0,1:2|0:0,0:0:0:0:
291,294,66001,1,0,0:0:0:0:
186,324,66172,2,0,L|193:261,1,53.9999983520508,2|0,0:0|0:0,0:0:0:0:
197,225,66515,53,2,0:0:0:0:
97,12,67544,53,0,1:2:0:0:
289,37,67887,53,0,3:2:0:0:
91,21,68058,2,0,L|59:18,1,30,0|0,1:2|0:0,0:0:0:0:
356,115,68572,38,0,P|384:202|294:285,1,210,6|0,3:2|0:0,0:0:0:0:
247,292,69258,1,0,0:0:0:0:
63,168,69601,54,0,P|56:209|94:249,1,90,2|0,1:2|0:0,0:0:0:0:
143,275,69944,1,2,0:0:0:0:
146,191,70115,1,0,0:0:0:0:
61,307,70287,1,2,0:0:0:0:
163,363,70458,1,0,0:0:0:0:
279,282,70629,54,0,P|335:269|385:300,2,120,2|0|0,3:2|0:0|0:0,0:0:0:0:
200,174,71658,54,0,L|211:63,1,90,2|0,1:2|0:0,0:0:0:0:
216,16,72001,1,2,0:0:0:0:
273,89,72172,1,0,0:0:0:0:
139,119,72344,2,0,P|110:123|84:110,1,60,2|0,0:0|0:0,0:0:0:0:
296,98,72687,54,0,P|379:98|421:167,1,150,2|0,3:2|0:0,0:0:0:0:
409,178,73201,1,0,3:2:0:0:
507,64,73372,1,0,0:0:0:0:
512,75,73715,54,0,P|494:63|466:61,1,48,2|0,1:2|0:0,0:0:0:0:
445,1,74058,2,0,P|425:10|409:33,1,48,2|0,0:0|0:0,0:0:0:0:
347,22,74401,2,0,P|345:43|357:68,1,48,2|0,0:0|0:0,0:0:0:0:
408,116,74744,53,2,3:2:0:0:
410,123,75087,1,2,0:0:0:0:
358,157,75258,1,2,3:2:0:0:
267,147,75429,1,2,0:0:0:0:
176,63,75601,1,2,0:0:0:0:
98,208,75772,54,0,P|98:237|114:262,1,60,2|0,1:2|0:0,0:0:0:0:
243,72,76115,2,0,P|242:42|226:17,1,60,8|8,0:3|0:3,0:0:0:0:
8,158,76458,1,4,0:3:0:0:
169,73,76629,1,4,0:3:0:0:
238,318,76801,54,0,B|296:356|361:300|334:276|411:230|470:285,1,251.999992309571,6|0,3:2|0:0,0:0:0:0:
501,329,77487,1,0,0:0:0:0:
512,83,77829,54,0,P|471:58|420:71,1,90,2|0,1:2|0:0,0:0:0:0:
375,98,78172,1,2,0:0:0:0:
309,53,78344,1,0,0:0:0:0:
178,87,78515,1,2,0:0:0:0:
231,0,78687,1,0,0:0:0:0:
194,192,78858,54,0,P|147:224|82:208,2,120,2|0|0,3:2|0:0|0:0,0:0:0:0:
361,146,79887,53,2,1:2:0:0:
384,171,79972,1,2,0:0:0:0:
398,204,80058,1,2,0:0:0:0:
401,239,80144,1,2,0:0:0:0:
393,273,80229,2,0,P|329:308|293:299,1,107.999996704102,2|0,0:0|0:0,0:0:0:0:
195,244,80572,1,2,0:0:0:0:
391,363,80744,1,0,0:0:0:0:
484,129,80915,54,0,B|512:69|450:12|351:37|411:115|320:126|287:88,1,272.999987503052,2|0,3:2|0:0,0:0:0:0:
289,76,81601,2,0,L|293:24,1,45
371,180,81944,54,0,P|319:173|264:215,1,116.999994644165,2|0,1:2|0:0,0:0:0:0:
204,338,82287,2,0,P|239:364|273:364,1,77.9999964294435,2|0,0:0|0:0,0:0:0:0:
435,275,82629,53,2,0:0:0:0:
264,290,82801,1,0,0:0:0:0:
93,305,82972,1,2,3:2:0:0:
85,297,83315,53,2,0:0:0:0:
117,241,83487,1,2,3:2:0:0:
57,214,83658,1,2,0:0:0:0:
156,177,83829,1,2,0:0:0:0:
28,117,84001,53,2,1:2:0:0:
173,24,84172,1,0,0:0:0:0:
280,29,84344,1,8,0:3:0:0:
342,70,84515,1,8,0:3:0:0:
389,113,84687,70,0,P|408:120|427:118,1,38.9999982147218,4|0,0:3|0:0,0:0:0:0:
463,55,84858,2,0,P|444:48|425:50,1,38.9999982147218,4|0,0:3|0:0,0:0:0:0:
353,238,85029,86,0,P|301:264|244:258,1,116.999994644165,6|0,3:2|0:0,0:0:0:0:
151,228,85372,54,0,P|153:207|160:191,1,38.9999982147218
212,148,85544,2,0,P|210:127|202:111,1,38.9999982147218,2|0,3:2|0:0,0:0:0:0:
137,37,85715,1,2,0:0:0:0:
144,44,86058,54,0,P|205:21|235:34,1,90,2|0,1:2|0:0,0:0:0:0:
49,81,86401,2,0,P|50:15|73:-7,1,90,2|0,0:0|0:0,0:0:0:0:
95,168,86744,1,2,0:0:0:0:
0,232,86915,1,0,0:0:0:0:
179,325,87087,54,0,B|248:343|303:304|277:269|334:226|396:232|430:289,1,272.999987503052,2|0,3:2|0:2,0:0:0:0:
379,340,87772,2,0,P|352:304|358:261,1,90,2|0,0:0|0:0,0:0:0:0:
465,95,88115,54,0,B|479:80|505:72|505:72|446:71|374:110,1,180.000006866455,2|0,1:2|0:0,0:0:0:0:
374,117,88629,1,0,0:0:0:0:
246,81,88801,54,0,P|240:99|241:122,1,38.9999982147218,2|0,0:0|0:0,0:0:0:0:
301,155,88972,2,0,P|307:137|306:114,1,38.9999982147218,2|0,0:0|0:0,0:0:0:0:
126,11,89144,54,0,P|162:77|176:147,1,116.999994644165,2|0,3:2|0:0,0:0:0:0:
201,207,89487,54,0,P|181:208|163:216,1,38.9999982147218,2|0,0:0|0:0,0:0:0:0:
108,251,89659,2,0,P|87:249|71:241,1,38.9999982147218,2|0,3:2|0:0,0:0:0:0:
9,175,89830,1,2,0:0:0:0:
2,183,90172,54,0,P|39:205|57:246,1,90,2|0,1:2|0:0,0:0:0:0:
8,346,90515,2,0,P|8:301|35:266,1,90,2|0,0:0|0:0,0:0:0:0:
139,233,90858,1,2,0:0:0:0:
209,309,91029,1,0,0:0:0:0:
381,268,91201,54,0,P|436:262|500:349,1,168,2|0,3:2|0:0,0:0:0:0:
498,360,91887,2,0,P|465:327|466:240,1,125.999996154785,2|0,0:0|0:0,0:0:0:0:
504,24,92229,53,2,1:2:0:0:
512,33,92572,1,8,0:3:0:0:
409,148,92744,1,8,0:3:0:0:
304,4,92915,54,0,L|265:1,1,38.9999982147218,4|0,0:3|0:0,0:0:0:0:
472,111,93087,2,0,L|510:113,1,38.9999982147218,4|0,0:3|0:0,0:0:0:0:
249,173,93258,54,0,P|184:242|198:335,1,194.999991073609,6|0,3:2|0:0,0:0:0:0:
211,332,93772,2,0,L|263:326,1,38.9999982147218,2|0,3:2|0:0,0:0:0:0:
78,347,93944,1,2,0:0:0:0:
72,353,94287,54,0,L|56:240,1,90,2|0,1:2|0:0,0:0:0:0:
130,217,94629,2,0,L|142:127,1,90,2|0,0:0|0:0,0:0:0:0:
84,56,94972,1,2,0:0:0:0:
184,30,95144,1,0,0:0:0:0:
266,157,95315,54,0,P|316:184|372:171,1,116.999994644165,2|0,3:2|0:0,0:0:0:0:
411,115,95658,2,0,P|449:94|492:104,1,90,2|0,0:0|0:0,0:0:0:0:
510,219,96001,2,0,P|496:159|491:103,1,116.999994644165,2|0,0:0|0:0,0:0:0:0:
287,384,96344,54,0,P|361:359|436:341,1,155.999992858887,2|0,1:2|0:0,0:0:0:0:
329,270,96858,1,0,0:0:0:0:
255,323,97029,2,0,P|209:329|177:307,1,72,2|0,0:0|0:0,0:0:0:0:
157,291,97372,85,2,3:2:0:0:
22,253,97715,2,0,L|47:249,1,24,2|0,0:0|0:0,0:0:0:0:
94,206,97887,2,0,L|119:210,1,24,2|0,3:2|0:0,0:0:0:0:
191,226,98058,1,2,0:0:0:0:
199,220,98401,22,0,P|186:190|199:130,1,90,2|0,1:2|0:0,0:0:0:0:
312,221,98744,2,0,P|324:191|307:126,1,90
256,49,99087,1,0,0:0:0:0:
497,214,99429,22,0,P|486:257|488:302,1,90,2|0,3:2|0:0,0:0:0:0:
495,323,99772,2,0,L|470:319,1,24,2|0,0:0|0:0,0:0:0:0:
423,275,99944,2,0,L|398:279,1,24,2|0,3:2|0:0,0:0:0:0:
320,292,100115,1,2,0:0:0:0:
326,302,100458,22,0,P|383:288|411:216,1,116.999994644165,2|0,1:2|0:0,0:0:0:0:
186,302,100801,2,0,P|129:288|101:216,1,116.999994644165
256,49,101144,1,0,0:0:0:0:
186,302,101487,54,0,L|129:317,1,48,2|0,3:2|0:0,0:0:0:0:
326,302,101829,2,0,L|388:319,1,48,2|0,0:0|0:0,0:0:0:0:
256,271,102172,2,0,L|256:161,1,99.0000030212403,2|0,0:0|0:0,0:0:0:0:
154,36,102515,54,0,P|98:51|61:117,1,135.000005149841,2|0,1:2|0:0,0:0:0:0:
450,114,102858,2,0,P|420:56|358:36,1,135.000005149841,2|0,0:0|0:0,0:0:0:0:
108,291,103201,53,2,0:0:0:0:
403,291,103372,1,0,0:0:0:0:
256,37,103544,1,2,3:2:0:0:
256,37,103887,85,0,0:0:0:0:
256,117,104058,1,0,3:2:0:0:
256,197,104229,1,0,0:0:0:0:
256,278,104401,1,0,0:0:0:0:
256,361,104572,1,0,1:2:0:0:
256,361,104915,85,8,0:3:0:0:
86,192,105087,1,8,0:3:0:0:
256,22,105258,1,4,0:3:0:0:
425,192,105429,1,4,0:3:0:0:
256,192,105601,102,0,B|199:173|141:210|172:221|112:296|35:240,1,231.000007049561,6|0,3:2|0:0,0:0:0:0:
0,198,106287,2,0,P|21:222|33:260,1,60,2|2,0:2|0:2,0:0:0:0:
225,26,106629,54,0,P|199:138|166:325,1,272.999987503052,2|0,1:2|0:0,0:0:0:0:
73,350,107315,2,0,P|81:311|86:272,1,77.9999964294435,2|2,0:2|0:2,0:0:0:0:
315,285,107658,54,0,P|315:314|300:340,1,60,2|0,3:2|0:0,0:0:0:0:
305,204,108001,2,0,P|330:189|360:189,1,60,0|0,0:2|3:2,0:0:0:0:
241,253,108344,2,0,P|215:238|200:212,1,60,0|0,0:2|0:2,0:0:0:0:
435,41,108687,53,0,1:2:0:0:
431,49,109029,1,2,0:2:0:0:
308,32,109201,1,0,0:2:0:0:
235,66,109372,1,2,0:2:0:0:
207,123,109544,1,0,0:2:0:0:
53,0,109715,54,0,P|131:64|133:166,1,210,2|0,3:2|0:0,0:0:0:0:
115,165,110401,2,0,L|65:160,1,45,2|0,0:2|0:0,0:0:0:0:
248,330,110744,54,0,B|286:388|364:359|363:298|363:298|386:300|386:300|415:249|482:282,1,272.999987503052,2|0,1:2|0:0,0:0:0:0:
499,265,111429,1,0,0:2:0:0:
414,361,111601,1,0,0:2:0:0:
260,175,111772,53,2,3:2:0:0:
255,184,112115,1,2,0:2:0:0:
215,202,112287,1,2,3:2:0:0:
154,184,112458,1,2,0:2:0:0:
123,117,112629,1,2,0:2:0:0:
247,3,112801,53,2,1:2:0:0:
269,111,112972,1,0,0:2:0:0:
385,32,113144,53,8,0:3:0:0:
350,185,113315,1,8,0:3:0:0:
512,112,113487,53,4,0:3:0:0:
365,322,113658,1,4,0:3:0:0:
167,180,113829,54,0,B|274:184|391:204,1,210,6|0,3:2|0:0,0:0:0:0:
421,245,114515,2,0,P|388:248|363:264,1,60,2|2,0:2|0:2,0:0:0:0:
159,384,114858,54,0,B|209:326|147:247|105:288|51:196|121:124,1,272.999987503052,2|0,1:2|0:0,0:0:0:0:
160,60,115544,2,0,P|125:43|88:52,1,77.9999964294435,2|2,0:2|0:2,0:0:0:0:
337,137,115887,54,0,L|411:126,1,60,2|0,3:2|0:0,0:0:0:0:
386,1,116229,2,0,L|432:61,1,60,0|0,0:2|3:2,0:0:0:0:
213,16,116572,1,0,0:2:0:0:
204,13,116915,53,0,1:2:0:0:
171,29,117001,1,2,0:0:0:0:
151,59,117087,1,2,0:0:0:0:
151,102,117172,1,2,0:0:0:0:
169,133,117258,54,0,P|178:188|140:230,1,116.999994644165,2|0,0:2|0:0,0:0:0:0:
10,245,117601,1,2,0:2:0:0:
125,340,117772,1,0,0:2:0:0:
284,185,117944,54,0,B|350:169|335:217|403:201,2,120,2|0|0,3:2|0:2|0:2,0:0:0:0:
238,268,118801,1,0,0:2:0:0:
167,33,118972,53,0,1:2:0:0:
164,41,119315,1,0,0:2:0:0:
254,82,119487,1,0,0:2:0:0:
324,29,119658,2,0,P|349:18|375:21,1,52.4999983978272,2|2,0:2|0:2,0:0:0:0:
512,170,120001,54,0,L|402:162,1,90,2|0,3:2|0:0,0:0:0:0:
405,151,120344,1,2,0:2:0:0:
334,178,120515,1,2,3:2:0:0:
289,262,120686,1,2,0:2:0:0:
310,376,120858,1,2,0:2:0:0:
99,211,121029,53,2,1:2:0:0:
93,217,121372,53,8,0:3:0:0:
271,248,121544,1,8,0:3:0:0:
394,67,121715,53,4,0:3:0:0:
189,105,121887,1,4,0:3:0:0:
48,6,122058,101,6,3:2:0:0:
46,15,122401,2,0,P|79:42|115:35,1,71.9999978027344,2|2,0:0|0:0,0:0:0:0:
226,13,123087,53,10,0:0:0:0:
333,124,123429,2,0,P|326:79|318:35,1,89.9999972534181,2|0,0:0|0:0,0:0:0:0:
307,18,123944,1,2,0:0:0:0:
438,0,124115,54,0,P|420:19|416:52,1,53.9999983520508,10|0,0:0|0:0,0:0:0:0:
429,59,124458,1,0,0:0:0:0:
487,75,124629,1,0,0:0:0:0:
484,84,124801,2,0,L|491:143,1,53.9999983520508
500,226,125144,53,2,1:2:0:0:
492,233,125487,2,0,P|465:221|427:230,1,53.9999983520508
423,233,125829,1,2,0:0:0:0:
381,276,126001,1,2,0:0:0:0:
285,244,126172,54,0,L|251:232,1,35.9999989013672,2|0,3:2|0:0,0:0:0:0:
245,300,126515,2,0,L|209:297,1,35.9999989013672,2|0,0:0|0:0,0:0:0:0:
223,365,126858,2,0,L|187:372,1,35.9999989013672,2|0,0:0|0:0,0:0:0:0:
128,384,127201,53,10,0:0:0:0:
92,333,127372,1,0,0:0:0:0:
121,266,127544,1,2,0:0:0:0:
124,274,127887,2,0,P|97:267|63:263,1,53.9999983520508,2|0,0:0|0:0,0:0:0:0:
0,197,128229,54,0,P|79:185|138:181,1,125.999996154785,10|2,0:0|0:0,0:0:0:0:
168,84,128915,2,0,P|141:85|113:112,1,53.9999983520508,2|0,0:0|0:0,0:0:0:0:
111,118,129258,53,2,1:2:0:0:
8,46,129601,2,0,L|70:54,1,53.9999983520508,2|0,0:0|0:0,0:0:0:0:
154,0,129944,2,0,L|196:5,1,35.9999989013672,2|0,0:0|0:0,0:0:0:0:
306,154,130287,54,0,P|316:233|259:290,1,168,2|0,3:2|0:0,0:0:0:0:
239,283,130972,1,2,0:0:0:0:
136,217,131315,53,10,0:0:0:0:
139,225,131487,1,0,0:0:0:0:
113,285,131658,2,0,P|113:328|145:359,1,89.9999972534181,2|0,0:0|0:0,0:0:0:0:
170,345,132172,1,2,0:0:0:0:
287,295,132344,54,0,P|292:330|295:366,2,71.9999978027344,10|0|0,0:0|0:0|0:0,0:0:0:0:
294,289,133201,1,0,0:0:0:0:
402,305,133372,53,2,1:2:0:0:
395,311,133715,2,0,P|377:283|382:252,1,53.9999983520508
411,176,134058,1,2,0:0:0:0:
487,153,134229,1,2,0:0:0:0:
376,35,134401,54,0,P|332:28|293:48,1,89.9999972534181,2|0,3:2|0:0,0:0:0:0:
272,68,134915,1,0,0:0:0:0:
176,6,135087,1,0,0:0:0:0:
110,29,135258,1,0,0:0:0:0:
180,15,135429,54,0,P|170:60|166:99,1,72,10|0,0:0|0:0,0:0:0:0:
195,146,135772,2,0,P|191:123|177:103,1,48,2|0,0:0|0:0,0:0:0:0:
61,148,136115,2,0,P|66:183|90:209,1,72,2|0,0:0|0:0,0:0:0:0:
204,236,136458,54,0,L|209:150,2,71.9999978027344,10|0|0,0:0|0:0|0:0,0:0:0:0:
211,245,137315,1,0,0:0:0:0:
298,197,137487,2,0,L|303:111,1,71.9999978027344,2|0,1:2|0:0,0:0:0:0:
309,118,138001,1,0,0:0:0:0:
392,158,138172,2,0,L|395:114,1,35.9999989013672,2|0,0:0|0:0,0:0:0:0:
485,335,138515,54,0,P|485:303|469:277,1,62.9999980773926,6|0,3:2|0:0,0:0:0:0:
383,367,138858,2,0,P|410:383|441:382,1,62.9999980773926,2|0,0:0|0:0,0:0:0:0:
406,261,139201,2,0,P|378:276|363:303,1,62.9999980773926,2|0,0:0|0:0,0:0:0:0:
485,335,139544,53,10,0:0:0:0:
479,326,139887,2,0,P|487:283|500:234,1,89.9999972534181,2|0,0:0|0:0,0:0:0:0:
512,224,140401,2,0,L|504:252,1,17.9999994506836,2|0,0:0|0:0,0:0:0:0:
455,122,140572,54,0,P|425:102|382:108,1,71.9999978027344,10|0,0:0|0:0,0:0:0:0:
383,112,141087,1,0,0:0:0:0:
320,36,141258,53,2,0:0:0:0:
280,32,141429,1,2,0:0:0:0:
218,64,141601,1,2,1:2:0:0:
216,73,141944,54,0,P|193:91|167:89,1,53.9999983520508
105,15,142287,2,0,P|135:10|164:23,1,62.9999980773926,2|0,0:0|0:0,0:0:0:0:
149,153,142629,54,0,L|163:251,1,83.9999974365235,2|2,3:2|0:0,0:0:0:0:
163,244,143144,1,0,0:0:0:0:
242,302,143315,1,2,0:0:0:0:
237,310,143658,54,0,P|219:321|199:321,1,35.9999989013672,10|0,0:0|0:0,0:0:0:0:
173,378,144001,2,0,P|154:368|144:350,1,35.9999989013672,2|0,0:0|0:0,0:0:0:0:
82,360,144344,2,0,P|80:339|91:321,1,35.9999989013672,2|0,0:0|0:0,0:0:0:0:
115,236,144687,54,0,P|76:215|32:222,1,89.9999972534181,10|0,0:0|0:0,0:0:0:0:
19,237,145201,2,0,L|-9:244,1,17.9999994506836,2|0,0:0|0:0,0:0:0:0:
62,146,145372,2,0,P|91:136|124:128,1,53.9999983520508,2|0,0:0|0:0,0:0:0:0:
25,61,145715,53,2,1:2:0:0:
36,65,146058,1,2,0:0:0:0:
61,42,146229,1,2,0:0:0:0:
127,16,146401,1,2,0:0:0:0:
209,26,146572,1,2,0:0:0:0:
314,143,146744,54,0,P|344:160|379:157,1,72,2|0,3:2|0:0,0:0:0:0:
442,105,147087,2,0,P|411:122|402:195,1,96,2|2,0:0|0:0,0:0:0:0:
351,39,147772,53,10,0:0:0:0:
346,48,148115,2,0,L|250:54,1,89.9999972534181,2|0,0:0|0:0,0:0:0:0:
234,42,148629,2,0,L|256:40,1,17.9999994506836,2|0,0:0|0:0,0:0:0:0:
186,124,148801,54,0,P|180:167|204:199,1,71.9999978027344,10|0,0:0|0:0,0:0:0:0:
203,194,149315,1,0,0:0:0:0:
305,175,149487,53,2,0:0:0:0:
297,206,149658,1,2,0:0:0:0:
279,274,149829,1,2,1:2:0:0:
286,279,150172,54,0,P|309:295|340:292,1,53.9999983520508
394,272,150515,1,2,0:0:0:0:
477,327,150687,1,2,0:0:0:0:
512,164,150858,54,0,L|503:80,1,71.9999978027344,2|0,3:2|0:0,0:0:0:0:
503,82,151372,1,0,0:0:0:0:
382,28,151544,1,0,0:0:0:0:
389,20,151887,54,0,P|415:56|412:94,1,80.9999975280763,10|0,0:0|0:0,0:0:0:0:
232,61,152229,2,0,P|276:56|308:77,1,80.9999975280763,2|0,0:0|0:0,0:0:0:0:
244,271,152572,1,2,0:0:0:0:
257,137,152744,1,2,0:0:0:0:
101,224,152915,54,0,B|195:256|187:178|289:211,1,188.999994232178,10|0,0:0|0:0,0:0:0:0:
343,234,153601,1,0,0:0:0:0:
453,358,153944,54,0,L|446:271,1,83.9999974365235,2|0,1:2|0:0,0:0:0:0:
439,268,154458,1,0,0:0:0:0:
512,203,154629,2,0,L|506:140,1,53.9999983520508,2|0,0:0|0:0,0:0:0:0:
503,107,154972,53,2,0:0:0:0:
38,261,156001,53,0,1:2:0:0:
230,234,156344,53,0,3:2:0:0:
32,252,156515,2,0,L|0:255,1,30,0|0,1:2|0:0,0:0:0:0:
317,266,157029,38,0,B|329:150|256:191|269:69,1,210,6|0,3:2|0:0,0:0:0:0:
277,5,157715,1,0,0:0:0:0:
74,103,158058,54,0,L|67:210,1,90,2|0,1:2|0:0,0:0:0:0:
63,257,158401,1,2,0:0:0:0:
1,183,158572,1,0,0:0:0:0:
144,239,158744,1,2,0:0:0:0:
103,335,158915,1,0,0:0:0:0:
257,277,159087,54,0,P|321:273|363:313,2,120,2|0|0,3:2|0:0|0:0,0:0:0:0:
336,151,160115,54,0,P|372:125|416:128,1,90,2|0,1:2|0:0,0:0:0:0:
470,173,160458,1,2,0:0:0:0:
385,214,160629,1,0,0:0:0:0:
434,64,160801,2,0,P|431:34|415:9,1,60,2|0,0:0|0:0,0:0:0:0:
252,111,161144,54,0,B|177:128|191:57|114:74,1,150,2|0,3:2|0:0,0:0:0:0:
90,86,161658,1,0,3:2:0:0:
212,0,161829,1,0,0:0:0:0:
205,10,162172,54,0,L|212:65,1,48,2|0,1:2|0:0,0:0:0:0:
255,110,162515,2,0,L|248:165,1,48,2|0,0:0|0:0,0:0:0:0:
205,210,162858,2,0,L|212:265,1,48,2|0,0:0|0:0,0:0:0:0:
227,327,163201,53,2,3:2:0:0:
235,333,163544,1,2,0:0:0:0:
290,292,163715,1,2,3:2:0:0:
371,289,163887,1,2,0:0:0:0:
467,372,164058,1,2,0:0:0:0:
404,229,164229,54,0,P|396:198|443:135,1,90,2|0,1:2|0:0,0:0:0:0:
509,91,164572,1,8,0:3:0:0:
340,0,164744,1,8,0:3:0:0:
241,180,164915,1,4,0:3:0:0:
443,149,165087,1,4,0:3:0:0:
169,49,165258,54,0,P|215:132|231:290,1,251.999992309571,6|0,3:2|0:0,0:0:0:0:
215,351,165944,1,0,0:0:0:0:
6,265,166287,54,0,L|13:175,1,90,2|0,1:2|0:0,0:0:0:0:
20,111,166629,1,2,0:0:0:0:
107,84,166801,1,0,0:0:0:0:
181,230,166972,1,2,0:0:0:0:
95,201,167144,1,0,0:0:0:0:
256,106,167315,54,0,P|286:56|270:0,2,120,2|0|0,3:2|0:0|0:0,0:0:0:0:
285,246,168344,53,2,1:2:0:0:
310,269,168429,1,2,0:0:0:0:
343,283,168515,1,2,0:0:0:0:
378,286,168601,1,2,0:0:0:0:
412,278,168687,2,0,P|447:214|438:178,1,107.999996704102,2|0,0:0|0:0,0:0:0:0:
383,77,169029,1,2,0:0:0:0:
512,198,169201,1,0,0:0:0:0:
316,368,169372,54,0,B|254:407|177:341|233:328|158:251|71:308,1,272.999987503052,2|0,3:2|0:0,0:0:0:0:
78,317,170058,2,0,L|73:366,1,45
100,164,170401,54,0,P|67:112|-8:113,1,116.999994644165,2|0,1:2|0:0,0:0:0:0:
235,275,170744,2,0,P|255:235|227:187,1,77.9999964294435,2|0,0:0|0:0,0:0:0:0:
29,171,171087,53,2,0:0:0:0:
200,156,171258,1,0,0:0:0:0:
371,141,171430,1,2,3:2:0:0:
369,148,171772,53,2,0:0:0:0:
401,204,171944,1,2,3:2:0:0:
333,231,172115,1,2,0:0:0:0:
267,152,172286,1,2,0:0:0:0:
383,20,172458,53,2,1:2:0:0:
201,0,172629,1,0,0:0:0:0:
96,48,172801,1,8,0:3:0:0:
68,112,172972,1,8,0:3:0:0:
85,174,173144,70,0,P|97:189|115:197,1,38.9999982147218,4|0,0:3|0:0,0:0:0:0:
194,146,173315,2,0,P|181:130|163:122,1,38.9999982147218,4|0,0:3|0:0,0:0:0:0:
0,23,173487,86,0,P|59:10|115:4,1,116.999994644165,6|0,3:2|0:0,0:0:0:0:
209,61,173829,54,0,P|222:74|240:82,1,38.9999982147218
279,130,174001,2,0,P|298:130|316:122,1,38.9999982147218,2|0,3:2|0:0,0:0:0:0:
397,75,174172,1,2,0:0:0:0:
390,82,174515,54,0,P|386:38|413:3,1,90,2|0,1:2|0:0,0:0:0:0:
512,86,174858,2,0,P|515:129|488:164,1,90,2|0,0:0|0:0,0:0:0:0:
346,186,175201,1,2,0:0:0:0:
259,124,175372,1,0,0:0:0:0:
113,241,175544,54,0,P|191:343|316:313,1,272.999987503052,2|0,3:2|0:0,0:0:0:0:
348,258,176229,2,0,P|305:248|262:288,1,90,2|0,0:0|0:0,0:0:0:0:
492,172,176572,54,0,B|503:155|503:127|503:127|509:198|482:263,1,180.000006866455,2|0,1:2|0:0,0:0:0:0:
477,262,177087,1,0,0:0:0:0:
348,258,177258,54,0,P|339:240|338:221,1,38.9999982147218,2|0,0:0|0:0,0:0:0:0:
399,180,177429,2,0,P|407:197|408:216,1,38.9999982147218,2|0,0:0|0:0,0:0:0:0:
289,356,177601,54,0,P|234:334|176:328,1,116.999994644165,2|0,3:2|0:0,0:0:0:0:
84,351,177944,54,0,P|70:337|62:319,1,38.9999982147218,2|0,0:0|0:0,0:0:0:0:
15,281,178116,2,0,P|14:261|22:243,1,38.9999982147218,2|0,3:2|0:0,0:0:0:0:
70,163,178287,1,2,0:0:0:0:
77,169,178629,54,0,P|121:173|156:146,1,90,2|0,1:2|0:0,0:0:0:0:
84,41,178972,2,0,P|41:38|6:65,1,90,2|0,0:0|0:0,0:0:0:0:
102,107,179315,1,2,0:0:0:0:
192,49,179487,1,0,0:0:0:0:
272,207,179658,54,0,P|275:289|198:331,1,168,2|0,3:2|0:0,0:0:0:0:
189,327,180344,2,0,P|238:291|299:302,1,125.999996154785,2|0,0:0|0:0,0:0:0:0:
510,363,180687,53,2,1:2:0:0:
502,369,181029,1,8,0:3:0:0:
436,216,181201,1,8,0:3:0:0:
312,366,181372,54,0,L|253:372,1,38.9999982147218,4|0,0:3|0:0,0:0:0:0:
472,267,181544,2,0,L|511:263,1,38.9999982147218,4|0,0:3|0:0,0:0:0:0:
275,171,181715,54,0,P|239:85|299:15,1,194.999991073609,6|0,3:2|0:0,0:0:0:0:
315,20,182229,2,0,L|353:23,1,38.9999982147218,2|0,3:2|0:0,0:0:0:0:
173,3,182401,1,2,0:0:0:0:
166,10,182744,54,0,L|154:111,1,90,2|0,1:2|0:0,0:0:0:0:
82,153,183087,2,0,L|94:254,1,90,2|0,0:0|0:0,0:0:0:0:
107,359,183429,1,2,0:0:0:0:
26,308,183601,1,0,0:0:0:0:
189,222,183772,54,0,P|246:219|291:254,1,116.999994644165,2|0,3:2|0:0,0:0:0:0:
324,313,184115,2,0,P|368:314|403:287,1,90,2|0,0:0|0:0,0:0:0:0:
410,193,184458,2,0,P|418:135|432:78,1,116.999994644165,2|0,0:0|0:0,0:0:0:0:
512,369,184801,54,0,P|503:311|479:205,1,155.999992858887,2|0,1:2|0:0,0:0:0:0:
324,313,185315,1,0,0:0:0:0:
239,360,185487,2,0,P|204:365|172:349,1,72,2|0,0:0|0:0,0:0:0:0:
146,320,185829,85,2,3:2:0:0:
47,196,186172,2,0,L|29:176,1,24,2|0,0:0|0:0,0:0:0:0:
97,160,186344,2,0,L|84:136,1,24,2|0,3:2|0:0,0:0:0:0:
154,138,186515,2,0,L|148:111,1,24,2|0,0:0|0:0,0:0:0:0:
215,131,186687,2,0,L|216:104,1,24,2|0,0:0|0:0,0:0:0:0:
208,205,186858,22,0,P|198:174|150:137,1,90,2|0,1:2|0:0,0:0:0:0:
304,205,187201,2,0,P|313:174|361:137,1,90
256,49,187544,1,0,0:0:0:0:
480,176,187887,22,0,P|465:221|461:278,1,90,2|0,3:2|0:0,0:0:0:0:
465,282,188229,2,0,L|483:262,1,24,2|0,0:0|0:0,0:0:0:0:
415,246,188401,2,0,L|427:222,1,24,2|0,3:2|0:0,0:0:0:0:
358,224,188572,2,0,L|363:197,1,24,2|0,0:0|0:0,0:0:0:0:
297,217,188744,2,0,L|295:190,1,24,2|0,0:0|0:0,0:0:0:0:
322,299,188915,22,0,P|348:261|422:248,1,116.999994644165,2|0,1:2|0:0,0:0:0:0:
189,299,189258,2,0,P|163:261|89:248,1,116.999994644165
256,49,189601,1,0,0:0:0:0:
183,346,189944,54,0,L|190:288,1,48,2|0,3:2|0:0,0:0:0:0:
328,346,190287,2,0,L|321:297,1,48,2|0,0:0|0:0,0:0:0:0:
256,215,190629,2,0,L|256:315,1,99.0000030212403,2|0,0:0|0:0,0:0:0:0:
143,89,190972,54,0,P|95:55|21:69,1,135.000005149841,2|0,1:2|0:0,0:0:0:0:
369,89,191315,2,0,P|416:55|490:69,1,135.000005149841,2|0,0:0|0:0,0:0:0:0:
108,291,191658,53,2,0:0:0:0:
403,291,191829,1,0,0:0:0:0:
256,37,192001,1,2,3:2:0:0:
256,37,192344,85,0,0:0:0:0:
256,114,192515,1,0,3:2:0:0:
256,192,192687,1,0,0:0:0:0:
256,270,192858,1,0,0:0:0:0:
256,347,193029,1,0,1:2:0:0:
256,347,193372,85,8,0:3:0:0:
139,262,193544,1,8,0:3:0:0:
372,262,193715,1,4,0:3:0:0:
184,125,193887,1,4,0:3:0:0:
329,128,194058,22,0,B|262:68|181:121|217:165|129:200|81:137,1,264,6|0,3:2|0:0,0:0:0:0:
64,92,195087,2,0,P|103:82|142:107,1,84,2|0,0:0|0:0,0:0:0:0:
175,231,195772,2,0,P|180:281|145:314,1,80.9999975280763,2|0,0:0|0:0,0:0:0:0:
102,252,196115,54,0,B|164:213|239:248|216:333|331:344|376:289,1,296.99999093628,2|0,3:2|0:0,0:0:0:0:
457,146,197144,1,0,1:0:0:0:
463,154,197487,2,0,P|473:191|452:225,1,80.9999975280763,2|0,0:0|0:0,0:0:0:0:
400,50,197829,2,0,P|433:15|481:16,1,99.0000030212403,2|0,0:0|0:0,0:0:0:0:
270,122,198172,54,0,B|134:168|34:61|101:-37|190:-30|208:35|168:54,1,330,2|0,3:2|0:0,0:0:0:0:
130,121,199201,2,0,P|97:146|56:145,1,84,2|0,0:0|0:0,0:0:0:0:
25,129,199887,1,2,0:0:0:0:
119,321,200229,54,0,L|116:344,1,24,2|0,3:2|0:0,0:0:0:0:
181,322,200401,2,0,L|184:345,1,24,2|0,0:0|0:0,0:0:0:0:
247,305,200572,2,0,L|256:326,1,24,2|0,0:0|0:0,0:0:0:0:
314,262,200744,2,0,L|329:280,1,24,2|0,3:2|0:0,0:0:0:0:
251,178,200915,1,2,0:0:0:0:
381,105,201087,1,2,0:0:0:0:
150,6,201258,53,2,1:2:0:0:
190,107,201429,1,0,0:0:0:0:
335,61,201601,53,8,0:3:0:0:
271,189,201772,1,8,0:3:0:0:
61,150,201944,53,4,0:3:0:0:
183,363,202115,1,4,0:3:0:0:
325,225,202287,70,0,P|361:201|410:207,1,90,6|0,3:2|0:0,0:0:0:0:
463,258,202629,1,0,0:0:0:0:
336,305,202801,1,0,3:2:0:0:
393,130,202972,1,0,0:0:0:0:
388,123,203315,54,0,L|286:117,1,90,2|0,1:2|0:0,0:0:0:0:
229,113,203658,1,0,0:0:0:0:
169,33,203829,1,0,0:0:0:0:
28,122,204001,2,0,P|1:167|14:218,1,107.999996704102,2|0,0:0|0:0,0:0:0:0:
147,310,204344,54,0,P|158:276|176:240,1,60,2|0,3:2|0:0,0:0:0:0:
292,246,204686,2,0,P|257:253|216:255,1,60,0|0,0:0|3:2,0:0:0:0:
165,152,205029,2,0,P|188:178|211:212,1,60
271,327,205372,53,2,1:2:0:0:
302,344,205458,1,2,0:0:0:0:
338,345,205544,1,2,0:0:0:0:
371,331,205629,1,2,0:0:0:0:
392,301,205715,54,0,P|385:252|374:200,1,90,2|0,0:0|0:0,0:0:0:0:
420,86,206058,2,0,P|423:117|430:151,1,60,2|0,0:0|0:0,0:0:0:0:
512,322,206401,54,0,B|446:375|340:312|394:289|303:214|227:277,1,311.999985717774,2|0,3:2|0:0,0:0:0:0:
230,281,207258,1,0,0:0:0:0:
371,42,207429,53,2,1:2:0:0:
369,51,207772,2,0,P|333:77|280:65,1,90
174,18,208115,53,2,0:0:0:0:
203,187,208287,1,0,0:0:0:0:
232,356,208458,1,2,3:2:0:0:
227,363,208801,53,2,0:0:0:0:
262,301,208973,1,2,3:2:0:0:
196,272,209144,1,2,0:0:0:0:
305,231,209315,1,2,0:0:0:0:
143,129,209487,53,2,1:2:0:0:
309,72,209658,1,0,0:0:0:0:
417,96,209830,1,8,0:3:0:0:
472,148,210001,1,8,0:3:0:0:
485,214,210172,102,0,P|480:232|463:257,1,41.9999987182618,4|0,0:3|0:0,0:0:0:0:
362,203,210344,2,0,P|366:184|384:160,1,41.9999987182618,4|0,0:3|0:0,0:0:0:0:
512,17,210515,86,0,P|448:5|391:37,1,125.999996154785,6|0,3:2|0:0,0:0:0:0:
307,115,210858,54,0,P|290:125|260:127,1,41.9999987182618
211,164,211029,2,0,P|192:159|169:140,1,41.9999987182618,2|0,3:2|0:0,0:0:0:0:
120,74,211201,1,2,0:0:0:0:
112,79,211544,54,0,P|137:16|181:7,1,99.0000030212403,2|0,1:2|0:0,0:0:0:0:
40,177,211887,2,0,P|-3:123|14:77,1,99.0000030212403,2|0,0:0|0:0,0:0:0:0:
148,224,212229,1,2,0:0:0:0:
83,323,212401,1,0,0:0:0:0:
283,347,212572,54,0,B|441:367|483:200|349:181|321:245|348:272,1,293.999991027832,2|0,3:2|0:0,0:0:0:0:
365,321,213258,2,0,P|391:350|445:351,1,90,2|0,0:0|0:0,0:0:0:0:
485,132,213601,54,0,B|491:109|487:82|487:82|510:143|512:236,1,192,2|0,1:2|0:0,0:0:0:0:
506,226,214115,1,0,0:0:0:0:
362,191,214287,54,0,P|355:210|355:231,1,41.9999987182618,2|0,0:0|0:0,0:0:0:0:
424,263,214458,2,0,P|430:243|430:222,1,41.9999987182618,2|0,0:0|0:0,0:0:0:0:
305,67,214629,54,0,P|250:105|189:96,1,125.999996154785,2|0,3:2|0:0,0:0:0:0:
132,6,214972,54,0,P|142:23|144:53,1,41.9999987182618,2|0,0:0|0:0,0:0:0:0:
181,102,215143,2,0,P|176:121|157:144,1,41.9999987182618,2|0,3:2|0:0,0:0:0:0:
91,193,215315,1,2,0:0:0:0:
82,197,215658,54,0,P|43:167|48:106,1,99.0000030212403,2|0,1:2|0:0,0:0:0:0:
191,229,216001,2,0,P|229:258|225:320,1,99.0000030212403,2|0,0:0|0:0,0:0:0:0:
175,384,216344,1,2,0:0:0:0:
67,288,216515,1,0,0:0:0:0:
214,148,216687,54,0,P|233:59|165:0,1,188.999994232178,2|0,3:2|0:0,0:0:0:0:
137,13,217372,2,0,P|176:49|268:43,1,135.000005149841,2|0,0:0|0:0,0:0:0:0:
479,0,217715,53,2,1:2:0:0:
475,8,218058,1,8,0:3:0:0:
300,97,218229,1,8,0:3:0:0:
441,182,218401,54,0,L|482:184,1,41.9999987182618,4|0,0:3|0:0,0:0:0:0:
273,37,218572,2,0,L|231:34,1,41.9999987182618,4|0,0:3|0:0,0:0:0:0:
193,237,218744,54,0,P|118:305|19:283,1,209.999993591309,6|0,3:2|0:0,0:0:0:0:
12,264,219258,2,0,L|-4:211,1,41.9999987182618,2|0,3:2|0:0,0:0:0:0:
46,376,219429,1,2,0:0:0:0:
53,382,219772,54,0,L|171:368,1,99.0000030212403,2|0,1:2|0:0,0:0:0:0:
209,281,220115,2,0,L|327:294,1,99.0000030212403,2|0,0:0|0:0,0:0:0:0:
406,375,220458,1,2,0:0:0:0:
472,289,220629,1,0,0:0:0:0:
352,153,220801,54,0,P|332:95|367:46,1,125.999996154785,2|0,3:2|0:0,0:0:0:0:
432,68,221144,2,0,P|447:112|419:151,1,99.0000030212403,2|0,0:0|0:0,0:0:0:0:
266,122,221487,2,0,P|253:65|230:-9,1,125.999996154785,2|0,0:0|0:0,0:0:0:0:
72,332,221829,54,0,P|85:275|120:164,1,167.999994873047,2|0,1:2|0:0,0:0:0:0:
126,166,222344,1,0,0:0:0:0:
194,102,222515,1,2,0:0:0:0:
236,230,222687,1,0,0:0:0:0:
383,98,222858,86,0,P|431:105|479:118,1,99.0000030212403,2|0,3:2|0:0,0:0:0:0:
495,136,223201,2,0,L|512:156,1,26.9999991760254,2|0,0:0|0:0,0:0:0:0:
420,212,223372,2,0,L|443:225,1,26.9999991760254,2|0,3:2|0:0,0:0:0:0:
408,292,223544,2,0,L|434:297,1,26.9999991760254,2|0,0:0|0:0,0:0:0:0:
437,362,223715,2,0,L|463:357,1,26.9999991760254,2|0,0:0|0:0,0:0:0:0:
340,334,223887,22,0,P|302:303|290:256,1,99.0000030212403,2|0,1:2|0:0,0:0:0:0:
172,334,224229,2,0,P|210:303|222:256,1,99.0000030212403
256,49,224572,1,0,0:0:0:0:
29,291,224915,22,0,P|76:278|125:270,1,99.0000030212403,2|0,3:2|0:0,0:0:0:0:
152,268,225258,2,0,L|126:258,1,26.9999991760254,2|0,0:0|0:0,0:0:0:0:
178,164,225429,2,0,L|151:163,1,26.9999991760254,2|0,3:2|0:0,0:0:0:0:
149,89,225601,2,0,L|123:97,1,26.9999991760254,2|0,0:0|0:0,0:0:0:0:
89,43,225772,2,0,L|68:60,1,26.9999991760254,2|0,0:0|0:0,0:0:0:0:
53,191,225944,22,0,P|121:206|177:164,1,144,2|0,1:2|0:0,0:0:0:0:
459,191,226287,2,0,P|391:206|335:164,1,144
256,19,226629,1,0,0:0:0:0:
256,19,226972,54,0,L|256:100,1,80.9999975280763,2|0,3:2|0:0,0:0:0:0:
331,237,227315,2,0,L|405:280,1,80.9999975280763,2|0,0:0|0:0,0:0:0:0:
179,237,227658,2,0,L|105:280,1,80.9999975280763,2|0,0:0|0:0,0:0:0:0:
371,8,228001,54,0,P|373:88|308:141,1,144,2|0,1:2|0:0,0:0:0:0:
39,183,228344,2,0,P|107:141|186:171,1,144,2|0,0:0|0:0,0:0:0:0:
355,384,228687,2,0,P|285:346|272:263,1,144,2|0,0:0|0:0,0:0:0:0:
256,192,229029,1,6,3:2:0:0:
256,192,229372,53,0,0:0:0:0:
189,246,229544,1,0,3:2:0:0:
336,223,229715,1,0,0:0:0:0:
244,108,229887,1,0,0:0:0:0:
280,361,230058,1,0,1:2:0:0:
233,24,230401,53,8,0:3:0:0:
414,256,230573,1,8,0:3:0:0:
98,128,230744,1,4,0:3:0:0:
390,87,230916,1,4,0:3:0:0:
122,297,231087,1,6,3:2:0:0:
126,302,231429,22,0,L|119:369,1,60,2|2,2:2|2:2,0:0:0:0:
32,383,232115,1,2,2:2:0:0:
9,326,232458,2,0,P|3:281|12:237,1,90,2|0,2:2|2:2,0:0:0:0:
21,233,233144,54,0,B|99:207|87:270|164:246,1,144,2|2,2:2|2:2,0:0:0:0:
219,207,234515,1,2,2:2:0:0:
223,220,234687,1,0,0:0:0:0:
288,272,234858,1,2,2:2:0:0:
269,331,235029,1,2,2:2:0:0:
327,379,235201,54,0,L|375:375,1,48,2|0,2:2|0:0,0:0:0:0:
405,320,236229,2,0,L|441:317,1,35.9999989013672,2|0,2:2|0:0,0:0:0:0:
496,283,236915,1,2,2:2:0:0:
472,218,237258,54,0,P|453:189|462:222,1,96,0|0,0:2|0:0,0:0:0:0:
