osu file format v14

[General]
AudioFilename: audio.mp3
AudioLeadIn: 0
PreviewTime: 67201
Countdown: 0
SampleSet: Soft
StackLeniency: 0.4
Mode: 0
LetterboxInBreaks: 0
WidescreenStoryboard: 1

[Editor]
Bookmarks: 2058,8915,17144,33601,50058,68572,85029,105601,122058,138515,157029,173487,194058,210515,231087,238287
DistanceSpacing: 1
BeatDivisor: 8
GridSize: 32
TimelineZoom: 2.3

[Metadata]
Title:Jin Li Chao
TitleUnicode:锦鲤抄
Artist:Yin Lin / Yun Zhi Qi
ArtistUnicode:银临 / 云の泣
Creator:-Waterlemon
Version:Normal
Source:
Tags:古风 oriental pop ballad folk chinese mandarin c-pop cpop mandopop 慕清明 Mu Qing Ming 灰原穷 hui yuan qiong 弹棉花的gg tan mian hua de gg Koi Copy 桜の花が舞い落ちるとき Sakura no Hana ga Maiochiru Toki
BeatmapID:3767134
BeatmapSetID:1827378

[Difficulty]
HPDrainRate:3
CircleSize:4.5
OverallDifficulty:4
ApproachRate:4.5
SliderMultiplier:0.6
SliderTickRate:1

[Events]
//Background and Video events
0,0,"7030645.jpg",0,0
//Break Periods
2,194258,198969
//Storyboard Layer 0 (Background)
//Storyboard Layer 1 (Fail)
//Storyboard Layer 2 (Pass)
//Storyboard Layer 3 (Foreground)
//Storyboard Layer 4 (Overlay)
//Storyboard Sound Samples

[TimingPoints]
687,342.857142857143,3,2,2,40,1,0
16115,-71.4285714285714,3,2,1,70,0,0
17144,-71.4285714285714,3,2,1,80,0,0
33601,-90.9090909090909,3,2,3,40,0,0
50058,-90.9090909090909,3,2,3,50,0,0
63429,-90.9090909090909,3,2,3,60,0,0
67544,-71.4285714285714,3,2,1,80,0,0
68572,-71.4285714285714,3,2,1,80,0,1
75772,-71.4285714285714,3,2,1,80,0,0
76801,-71.4285714285714,3,2,1,80,0,1
84001,-71.4285714285714,3,2,1,80,0,0
85029,-71.4285714285714,3,2,1,80,0,1
92229,-71.4285714285714,3,2,1,80,0,0
93258,-71.4285714285714,3,2,1,80,0,1
104572,-71.4285714285714,3,2,1,80,0,0
105601,-71.4285714285714,3,2,1,80,0,1
106287,-71.4285714285714,3,2,1,80,0,0
122058,-90.9090909090909,3,2,3,40,0,0
138515,-90.9090909090909,3,2,3,50,0,0
151887,-90.9090909090909,3,2,3,60,0,0
156001,-71.4285714285714,3,2,1,80,0,0
157029,-71.4285714285714,3,2,1,80,0,1
164229,-71.4285714285714,3,2,1,80,0,0
165258,-71.4285714285714,3,2,1,80,0,1
172458,-71.4285714285714,3,2,1,80,0,0
173487,-71.4285714285714,3,2,1,80,0,1
180687,-71.4285714285714,3,2,1,80,0,0
181715,-71.4285714285714,3,2,1,80,0,1
194058,-71.4285714285714,3,2,1,65,0,0
200229,-76.9230769230769,3,2,1,80,0,0
202287,-71.4285714285714,3,2,1,80,0,0
210515,-66.6666666666667,3,2,1,85,0,1
217715,-66.6666666666667,3,2,1,85,0,0
218744,-66.6666666666667,3,2,1,85,0,1
231087,-90.9090909090909,3,2,1,40,0,0
231172,-90.9090909090909,3,2,2,40,0,0
232458,-100,3,2,2,40,0,0
232801,-100,3,2,2,5,0,0
232972,-100,3,2,2,40,0,0
233487,-100,3,2,2,5,0,0
234172,-100,3,2,2,40,0,0
237601,-100,3,2,2,5,0,0

[Colours]
Combo1 : 255,62,130
Combo2 : 130,192,255
Combo3 : 207,250,249
Combo4 : 255,252,117
Combo5 : 255,168,185
Combo6 : 0,128,255
Combo7 : 128,244,221
Combo8 : 255,199,66
SliderBorder : 255,221,217

[HitObjects]
291,373,16115,37,0,1:2:0:0:
254,303,16458,1,0,3:2:0:0:
254,303,16629,1,0,1:2:0:0:
309,240,16972,1,0,0:0:0:0:
309,240,17144,54,0,P|350:198|326:83,1,167.999994873047,6|2,3:2|0:2,0:0:0:0:
287,29,18172,2,0,P|246:71|270:186,1,167.999994873047,2|2,1:2|0:2,0:0:0:0:
236,211,19029,1,2,0:2:0:0:
236,211,19201,2,0,B|172:170|100:226|130:238|62:280|4:236,1,251.999992309571,2|0,3:2|1:2,0:0:0:0:
57,171,20572,1,2,0:2:0:0:
39,97,20915,1,2,0:2:0:0:
39,97,21087,1,0,0:2:0:0:
39,97,21258,54,0,P|109:104|212:124,1,167.999994873047,2|2,3:2|0:2,0:0:0:0:
276,77,22287,2,0,P|333:-6|362:91,1,251.999992309571,2|2,1:2|3:2,0:0:0:0:
413,169,23658,1,2,0:2:0:0:
413,169,23829,1,2,3:2:0:0:
413,169,24001,1,2,0:2:0:0:
494,191,24344,1,2,1:2:0:0:
460,268,24687,2,0,L|344:282,1,83.9999974365235,8|4,0:3|0:3,0:0:0:0:
334,283,25201,1,4,0:3:0:0:
292,288,25372,54,0,P|250:329|135:305,1,167.999994873047,6|2,3:2|0:2,0:0:0:0:
84,261,26401,2,0,P|126:220|241:244,1,167.999994873047,2|2,1:2|0:2,0:0:0:0:
269,217,27258,1,2,0:2:0:0:
269,217,27429,2,0,B|232:156|287:94|300:118|355:51|305:-13,1,251.999992309571,2|0,3:2|1:2,0:0:0:0:
224,32,28801,1,2,0:2:0:0:
133,12,29144,1,2,0:2:0:0:
83,90,29487,54,0,P|118:210|144:334,1,251.999992309571,2|0,3:2|1:2,0:0:0:0:
220,369,30858,1,0,0:2:0:0:
281,312,31201,2,0,P|291:286|310:269,1,52.4999983978272,2|2,0:2|0:2,0:0:0:0:
339,260,31544,2,0,L|351:159,2,83.9999974365235,2|2|2,3:2|0:2|0:2,0:0:0:0:
379,271,32401,1,2,0:2:0:0:
419,282,32572,1,2,1:2:0:0:
487,231,32915,2,0,L|481:188,1,41.9999987182618,8|8,0:3|0:3,0:0:0:0:
453,158,33258,2,0,L|458:115,1,41.9999987182618,4|4,0:3|0:3,0:0:0:0:
463,83,33601,101,6,3:2:0:0:
404,40,33944,2,0,P|371:35|341:48,1,66.0000020141602,2|2,0:0|0:0,0:0:0:0:
293,102,34629,1,10,0:0:0:0:
232,61,34972,2,0,L|114:46,1,99.0000030212403,2|2,0:0|0:0,0:0:0:0:
97,43,35658,2,0,P|36:100|113:132,1,198.000006042481,10|2,0:0|1:2,0:0:0:0:
187,257,37372,2,0,L|180:307,1,33.0000010070801,2|2,0:0|0:0,0:0:0:0:
171,324,37715,53,2,3:2:0:0:
242,331,38058,1,2,0:0:0:0:
314,339,38401,1,2,0:0:0:0:
364,286,38744,1,10,0:0:0:0:
435,278,39087,1,2,0:0:0:0:
507,270,39429,1,2,0:0:0:0:
498,198,39772,2,0,P|462:165|413:163,1,99.0000030212403,10|2,0:0|0:0,0:0:0:0:
380,176,40458,1,2,0:0:0:0:
316,141,40801,1,2,1:2:0:0:
245,269,41487,1,2,0:0:0:0:
178,297,41829,54,0,P|183:329|190:361,2,66.0000020141602,2|2|2,3:2|0:0|0:0,0:0:0:0:
127,244,42858,1,10,0:0:0:0:
56,226,43201,2,0,P|29:185|38:137,1,99.0000030212403,2|2,0:0|0:0,0:0:0:0:
62,110,43887,2,0,B|162:68|155:165|252:124,1,198.000006042481,10|2,0:0|1:2,0:0:0:0:
338,8,45601,1,2,0:0:0:0:
396,50,45944,54,0,P|378:113|369:178,1,132.00000402832,2|0,3:2|0:0,0:0:0:0:
442,207,46972,1,10,0:0:0:0:
456,284,47315,1,2,0:0:0:0:
394,333,47658,1,2,0:0:0:0:
320,303,48001,2,0,L|101:325,1,198.000006042481,10|2,0:0|1:2,0:0:0:0:
6,236,49715,1,2,0:0:0:0:
30,167,50058,54,0,P|29:135|-9:91,2,66.0000020141602,6|2|2,3:2|0:0|0:0,0:0:0:0:
101,180,51087,1,10,0:0:0:0:
149,126,51429,2,0,L|264:113,1,99.0000030212403,2|2,0:0|0:0,0:0:0:0:
265,84,52115,2,0,P|321:22|353:100,1,198.000006042481,10|2,0:0|1:2,0:0:0:0:
437,215,53829,2,0,L|442:253,1,33.0000010070801,2|2,0:0|0:0,0:0:0:0:
453,281,54172,53,2,3:2:0:0:
381,289,54515,1,2,0:0:0:0:
309,297,54858,1,2,0:0:0:0:
256,346,55201,1,10,0:0:0:0:
184,340,55544,1,2,0:0:0:0:
112,335,55887,1,2,0:0:0:0:
47,367,56229,2,0,P|22:325|32:278,1,99.0000030212403,10|2,0:0|0:0,0:0:0:0:
57,252,56915,1,2,0:0:0:0:
129,243,57258,1,2,1:2:0:0:
189,110,57944,1,2,0:0:0:0:
153,106,58115,1,2,0:0:0:0:
116,101,58287,54,0,P|108:68|97:37,2,66.0000020141602,2|2|2,3:2|0:0|0:0,0:0:0:0:
49,131,59315,1,10,0:0:0:0:
8,191,59658,2,0,P|-1:238|22:280,1,99.0000030212403,2|2,0:0|0:0,0:0:0:0:
57,271,60344,2,0,B|163:239|141:335|253:301,1,198.000006042481,10|2,0:0|1:2,0:0:0:0:
392,280,62058,1,2,0:0:0:0:
392,280,62229,1,2,0:0:0:0:
392,280,62401,2,0,P|377:217|414:165,1,132.00000402832,2|0,3:2|0:0,0:0:0:0:
490,142,63429,1,10,0:0:0:0:
507,64,63772,1,2,0:0:0:0:
445,13,64115,1,2,0:0:0:0:
406,20,64287,1,2,0:0:0:0:
366,25,64458,54,0,L|166:46,1,198.000006042481,10|2,0:0|1:2,0:0:0:0:
84,163,66172,1,2,0:0:0:0:
11,153,66515,1,2,0:0:0:0:
134,345,67544,101,0,1:2:0:0:
211,308,67887,1,0,3:2:0:0:
211,308,68058,1,0,1:2:0:0:
275,368,68401,1,0,0:0:0:0:
275,368,68572,54,0,B|365:387|345:320|436:343,1,167.999994873047,6|0,3:2|0:0,0:0:0:0:
511,306,69601,1,2,1:2:0:0:
456,242,69944,1,2,0:0:0:0:
498,172,70287,1,2,0:0:0:0:
498,172,70458,1,0,0:0:0:0:
498,172,70629,54,0,P|486:101|459:-4,1,167.999994873047,2|0,3:2|0:0,0:0:0:0:
378,0,71658,1,2,1:2:0:0:
366,88,72001,1,2,0:0:0:0:
366,88,72172,1,0,0:0:0:0:
366,88,72344,1,2,0:0:0:0:
291,127,72687,54,0,P|248:195|270:278,1,167.999994873047,2|0,3:2|0:0,0:0:0:0:
312,337,73715,1,2,1:2:0:0:
252,383,74058,1,2,0:0:0:0:
178,365,74401,1,2,0:0:0:0:
147,295,74744,54,0,P|105:290|68:308,2,83.9999974365235,2|2|2,3:2|0:0|0:0,0:0:0:0:
207,237,75772,1,2,1:2:0:0:
147,178,76115,2,0,L|137:103,1,41.9999987182618,8|8,0:3|0:3,0:0:0:0:
108,110,76458,2,0,L|117:35,1,41.9999987182618,4|4,0:3|0:3,0:0:0:0:
130,30,76801,54,0,L|323:9,1,167.999994873047,6|0,3:2|0:0,0:0:0:0:
358,69,77829,1,2,1:2:0:0:
440,52,78172,1,2,0:0:0:0:
503,120,78515,1,2,0:0:0:0:
503,120,78687,1,0,0:0:0:0:
503,120,78858,54,0,P|455:188|485:273,1,167.999994873047,2|0,3:2|0:0,0:0:0:0:
510,342,79887,1,2,1:2:0:0:
425,379,80229,1,2,0:0:0:0:
354,319,80572,1,2,0:0:0:0:
370,228,80915,54,0,P|288:213|188:204,1,167.999994873047,2|0,3:2|0:0,0:0:0:0:
152,127,81944,1,2,1:2:0:0:
225,70,82287,1,2,0:0:0:0:
307,112,82629,1,2,0:0:0:0:
353,117,82801,1,0,0:0:0:0:
398,122,82972,54,0,P|445:114|474:69,2,83.9999974365235,2|2|2,3:2|0:0|0:0,0:0:0:0:
424,210,84001,1,2,1:2:0:0:
366,282,84344,2,0,L|296:290,1,41.9999987182618,8|8,0:3|0:3,0:0:0:0:
278,292,84687,1,4,0:3:0:0:
242,321,84858,1,4,0:3:0:0:
205,349,85029,102,0,P|145:364|93:332,1,125.999996154785,6|2,3:2|3:2,0:0:0:0:
75,294,85715,1,2,0:0:0:0:
114,219,86058,1,2,1:2:0:0:
38,182,86401,1,2,0:0:0:0:
29,140,86572,1,0,0:0:0:0:
21,98,86744,1,2,0:0:0:0:
74,33,87087,54,0,P|160:16|231:55,1,167.999994873047,2|2,3:2|0:0,0:0:0:0:
280,119,88115,2,0,L|403:103,1,83.9999974365235,2|0,1:2|0:0,0:0:0:0:
407,36,88801,1,2,0:0:0:0:
452,42,88972,1,2,0:0:0:0:
497,49,89144,54,0,P|529:100|513:159,1,125.999996154785,2|2,3:2|3:2,0:0:0:0:
477,184,89829,1,2,0:0:0:0:
400,219,90172,1,2,1:2:0:0:
337,162,90515,1,2,0:0:0:0:
265,199,90858,1,2,0:0:0:0:
265,199,91029,1,0,0:0:0:0:
265,199,91201,54,0,P|212:149|182:214,1,167.999994873047,2|2,3:2|0:0,0:0:0:0:
203,295,92229,1,2,1:2:0:0:
286,305,92572,2,0,L|336:311,1,41.9999987182618,8|8,0:3|0:3,0:0:0:0:
362,334,92915,1,4,0:3:0:0:
407,325,93087,1,4,0:3:0:0:
452,316,93258,54,0,P|485:265|467:206,1,125.999996154785,6|2,3:2|3:2,0:0:0:0:
435,178,93944,1,2,0:0:0:0:
351,170,94287,1,2,1:2:0:0:
317,92,94629,1,2,0:0:0:0:
375,32,94972,1,2,0:0:0:0:
375,32,95144,1,0,0:0:0:0:
375,32,95315,54,0,P|411:51|452:45,2,83.9999974365235,2|2|2,3:2|0:0|0:0,0:0:0:0:
296,1,96344,1,2,1:2:0:0:
253,75,96687,1,0,0:0:0:0:
253,75,96858,1,0,0:0:0:0:
253,75,97029,1,2,0:0:0:0:
170,92,97372,85,2,3:2:0:0:
156,166,97715,1,2,0:0:0:0:
141,240,98058,1,2,0:0:0:0:
69,283,98401,2,0,L|83:400,2,83.9999974365235,2|0|0,1:2|0:0|0:0,0:0:0:0:
27,210,99429,53,2,3:2:0:0:
102,199,99772,1,2,0:0:0:0:
177,187,100115,1,2,0:0:0:0:
236,246,100458,2,0,L|353:260,2,83.9999974365235,2|0|0,1:2|0:0|0:0,0:0:0:0:
205,324,101487,85,2,3:2:0:0:
265,381,101829,1,2,0:0:0:0:
347,367,102172,1,2,0:0:0:0:
398,280,102515,53,2,1:2:0:0:
495,292,102858,1,2,0:0:0:0:
460,198,103201,1,2,0:0:0:0:
421,172,103372,1,0,0:0:0:0:
382,146,103544,54,0,P|374:105|396:71,2,83.9999974365235,2|0|0,3:2|0:0|0:0,0:0:0:0:
312,205,104572,1,0,1:2:0:0:
226,170,104915,2,0,L|172:176,1,41.9999987182618,8|8,0:3|0:3,0:0:0:0:
152,210,105258,2,0,L|98:203,1,41.9999987182618,4|4,0:3|0:3,0:0:0:0:
64,201,105601,38,0,P|18:133|41:55,1,167.999994873047,6|2,3:2|0:2,0:0:0:0:
106,3,106629,2,0,P|173:48|251:25,1,167.999994873047,2|2,1:2|0:2,0:0:0:0:
289,4,107487,1,2,0:2:0:0:
289,4,107658,2,0,B|337:68|282:132|270:112|214:170|251:231,1,251.999992309571,2|0,3:2|1:2,0:0:0:0:
298,300,109029,1,2,0:2:0:0:
386,288,109372,1,2,0:2:0:0:
386,288,109544,1,0,0:2:0:0:
386,288,109715,54,0,P|434:223|409:146,1,167.999994873047,2|2,3:2|0:2,0:0:0:0:
348,88,110744,2,0,P|208:70|83:61,1,251.999992309571,2|2,1:2|3:2,0:0:0:0:
28,104,112115,1,2,0:2:0:0:
28,104,112287,1,2,3:2:0:0:
28,104,112458,1,2,0:2:0:0:
41,186,112801,1,2,1:2:0:0:
124,176,113144,2,0,L|238:163,1,83.9999974365235,8|4,0:3|0:3,0:0:0:0:
246,183,113658,1,4,0:3:0:0:
284,200,113829,54,0,P|261:278|307:345,1,167.999994873047,6|2,3:2|0:2,0:0:0:0:
384,377,114858,2,0,P|407:299|361:232,1,167.999994873047,2|2,1:2|0:2,0:0:0:0:
370,194,115715,1,2,0:2:0:0:
370,194,115887,2,0,P|454:136|359:99,1,251.999992309571,2|0,3:2|1:2,0:0:0:0:
303,25,117258,1,2,0:2:0:0:
212,7,117601,1,2,0:2:0:0:
163,85,117944,54,0,P|179:209|203:336,1,251.999992309571,2|0,3:2|1:2,0:0:0:0:
135,383,119315,1,0,0:2:0:0:
61,342,119658,2,0,P|58:314|69:287,1,52.4999983978272,2|2,0:2|0:2,0:0:0:0:
82,264,120001,2,0,L|-11:252,2,83.9999974365235,2|2|2,3:2|0:2|0:2,0:0:0:0:
75,222,120858,1,2,0:2:0:0:
68,180,121029,1,2,1:2:0:0:
150,154,121372,2,0,L|155:112,1,41.9999987182618,8|8,0:3|0:3,0:0:0:0:
190,88,121715,2,0,L|184:46,1,41.9999987182618,4|4,0:3|0:3,0:0:0:0:
180,4,122058,101,6,3:2:0:0:
251,18,122401,2,0,P|283:20|312:6,1,66.0000020141602,2|2,0:0|0:0,0:0:0:0:
383,24,123087,1,10,0:0:0:0:
393,95,123429,2,0,L|408:213,1,99.0000030212403,2|2,0:0|0:0,0:0:0:0:
410,229,124115,2,0,B|313:272|316:178|220:224,1,198.000006042481,10|2,0:0|1:2,0:0:0:0:
99,301,125829,2,0,L|106:351,1,33.0000010070801,2|2,0:0|0:0,0:0:0:0:
128,360,126172,53,2,3:2:0:0:
200,368,126515,1,2,0:0:0:0:
272,375,126858,1,2,0:0:0:0:
315,317,127201,1,10,0:0:0:0:
387,310,127544,1,2,0:0:0:0:
460,304,127887,1,2,0:0:0:0:
445,232,128229,2,0,P|442:183|472:144,1,99.0000030212403,10|2,0:0|0:0,0:0:0:0:
505,128,128915,1,2,0:0:0:0:
464,67,129258,1,2,1:2:0:0:
320,90,129944,1,2,0:0:0:0:
274,33,130287,54,0,P|243:20|211:23,2,66.0000020141602,2|2|2,3:2|0:0|0:0,0:0:0:0:
233,93,131315,1,10,0:0:0:0:
191,152,131658,2,0,L|205:268,1,99.0000030212403,2|2,0:0|0:0,0:0:0:0:
223,280,132344,2,0,P|190:357|134:296,1,198.000006042481,10|2,0:0|1:2,0:0:0:0:
27,196,134058,1,2,0:0:0:0:
71,138,134401,54,0,P|136:126|208:119,1,132.00000402832,2|0,3:2|0:0,0:0:0:0:
182,42,135429,1,10,0:0:0:0:
250,2,135772,1,2,0:0:0:0:
311,51,136115,1,2,0:0:0:0:
282,125,136458,2,0,L|304:344,1,198.000006042481,10|2,0:0|1:2,0:0:0:0:
433,382,138172,1,2,0:0:0:0:
451,311,138515,54,0,P|478:293|516:293,2,66.0000020141602,6|2|2,3:2|0:0|0:0,0:0:0:0:
383,282,139544,1,10,0:0:0:0:
351,216,139887,2,0,P|312:187|261:190,1,99.0000030212403,2|2,0:0|0:0,0:0:0:0:
230,203,140572,2,0,B|187:106|281:109|235:13,1,198.000006042481,10|2,0:0|1:2,0:0:0:0:
308,0,141944,1,0,0:0:0:0:
363,47,142287,2,0,L|401:52,1,33.0000010070801,2|2,0:0|0:0,0:0:0:0:
430,42,142629,53,2,3:2:0:0:
440,113,142972,1,2,0:0:0:0:
449,185,143315,1,2,0:0:0:0:
383,215,143658,1,10,0:0:0:0:
373,286,144001,1,2,0:0:0:0:
364,358,144344,1,2,0:0:0:0:
292,343,144687,2,0,P|281:296|267:247,1,99.0000030212403,10|2,0:0|0:0,0:0:0:0:
236,227,145372,1,2,0:0:0:0:
165,245,145715,1,2,1:2:0:0:
44,163,146401,1,2,0:0:0:0:
53,128,146572,1,2,0:0:0:0:
61,92,146744,54,0,P|32:76|-5:79,2,66.0000020141602,2|2|2,3:2|0:0|0:0,0:0:0:0:
131,110,147772,1,10,0:0:0:0:
170,48,148115,2,0,P|218:37|276:33,1,99.0000030212403,2|2,0:0|0:0,0:0:0:0:
300,18,148801,2,0,P|361:74|284:106,1,198.000006042481,10|2,0:0|1:2,0:0:0:0:
250,170,150172,1,0,0:0:0:0:
309,227,150515,1,2,0:0:0:0:
309,227,150687,1,2,0:0:0:0:
309,227,150858,2,0,P|372:212|424:249,1,132.00000402832,2|0,3:2|0:0,0:0:0:0:
460,318,151887,1,10,0:0:0:0:
405,375,152229,1,2,0:0:0:0:
337,333,152572,1,2,0:0:0:0:
298,328,152744,1,2,0:0:0:0:
258,324,152915,54,0,L|57:309,1,198.000006042481,10|2,0:0|1:2,0:0:0:0:
1,177,154629,1,2,0:0:0:0:
73,167,154972,1,2,0:0:0:0:
262,1,156001,101,0,1:2:0:0:
301,80,156344,1,0,3:2:0:0:
301,80,156515,1,0,1:2:0:0:
226,114,156858,1,0,0:0:0:0:
226,114,157029,54,0,P|184:153|215:267,1,167.999994873047,6|0,3:2|0:0,0:0:0:0:
280,229,158058,1,2,1:2:0:0:
343,284,158401,1,2,0:0:0:0:
325,371,158744,1,2,0:0:0:0:
325,371,158915,1,0,0:0:0:0:
325,371,159087,54,0,P|242:355|158:347,1,167.999994873047,2|0,3:2|0:0,0:0:0:0:
83,384,160115,1,2,1:2:0:0:
38,324,160458,1,2,0:0:0:0:
38,324,160629,1,0,0:0:0:0:
38,324,160801,1,2,0:0:0:0:
64,243,161144,54,0,B|154:224|136:289|225:268,1,167.999994873047,2|0,3:2|0:0,0:0:0:0:
295,242,162172,1,2,1:2:0:0:
263,173,162515,1,2,0:0:0:0:
334,149,162858,1,2,0:0:0:0:
302,80,163201,54,0,P|297:38|318:-1,2,83.9999974365235,2|2|2,3:2|0:0|0:0,0:0:0:0:
382,54,164229,1,2,1:2:0:0:
450,102,164572,2,0,L|460:177,1,41.9999987182618,8|8,0:3|0:3,0:0:0:0:
483,174,164915,2,0,L|477:215,1,41.9999987182618,4|4,0:3|0:3,0:0:0:0:
469,257,165258,54,0,P|405:302|321:273,1,167.999994873047,6|0,3:2|0:0,0:0:0:0:
267,215,166287,1,2,1:2:0:0:
186,238,166629,1,2,0:0:0:0:
147,174,166972,1,2,0:0:0:0:
147,174,167144,1,0,0:0:0:0:
147,174,167315,54,0,P|163:91|171:7,1,167.999994873047,2|0,3:2|0:0,0:0:0:0:
92,38,168344,1,2,1:2:0:0:
0,26,168687,1,2,0:0:0:0:
35,111,169029,1,2,0:0:0:0:
0,196,169372,54,0,P|31:260|83:210,1,167.999994873047,2|0,3:2|0:0,0:0:0:0:
159,157,170401,1,2,1:2:0:0:
236,206,170744,1,2,0:0:0:0:
304,144,171087,1,2,0:0:0:0:
350,139,171258,1,0,0:0:0:0:
395,134,171429,54,0,P|400:100|413:46,2,83.9999974365235,2|2|2,3:2|0:0|0:0,0:0:0:0:
469,189,172458,1,2,1:2:0:0:
426,271,172801,2,0,L|434:341,1,41.9999987182618,8|8,0:3|0:3,0:0:0:0:
419,357,173144,1,4,0:3:0:0:
370,362,173315,1,4,0:3:0:0:
325,368,173487,102,0,B|256:376|274:329|207:338,1,125.999996154785,6|2,3:2|3:2,0:0:0:0:
165,346,174172,1,2,0:0:0:0:
112,279,174515,1,2,1:2:0:0:
28,285,174858,1,2,0:0:0:0:
34,243,175029,1,0,0:0:0:0:
39,201,175201,1,2,0:0:0:0:
11,121,175544,54,0,P|79:76|156:100,1,167.999994873047,2|2,3:2|0:0,0:0:0:0:
226,147,176572,2,0,L|236:63,1,83.9999974365235,2|0,1:2|0:0,0:0:0:0:
313,27,177258,1,2,0:0:0:0:
358,22,177429,1,2,0:0:0:0:
404,16,177601,54,0,P|440:64|429:124,1,125.999996154785,2|2,3:2|3:2,0:0:0:0:
386,144,178287,1,2,0:0:0:0:
401,226,178629,1,2,1:2:0:0:
484,214,178972,1,2,0:0:0:0:
493,304,179315,1,2,0:0:0:0:
493,304,179487,1,0,0:0:0:0:
493,304,179658,54,0,P|461:368|409:318,1,167.999994873047,2|2,3:2|0:0,0:0:0:0:
334,281,180687,1,2,1:2:0:0:
258,243,181029,2,0,L|264:193,1,41.9999987182618,8|8,0:3|0:3,0:0:0:0:
282,164,181372,1,4,0:3:0:0:
276,117,181544,1,4,0:3:0:0:
269,71,181715,54,0,B|202:51|212:100|147:80,1,125.999996154785,6|2,3:2|3:2,0:0:0:0:
109,62,182401,1,2,0:0:0:0:
35,103,182744,1,2,1:2:0:0:
67,180,183087,1,2,0:0:0:0:
156,202,183429,1,2,0:0:0:0:
156,202,183601,1,0,0:0:0:0:
156,202,183772,54,0,P|175:238|169:279,2,83.9999974365235,2|2|2,3:2|0:0|0:0,0:0:0:0:
89,254,184801,1,2,1:2:0:0:
28,311,185144,1,0,0:0:0:0:
28,311,185315,1,0,0:0:0:0:
28,311,185487,1,2,0:0:0:0:
90,367,185829,85,2,3:2:0:0:
164,360,186172,1,2,0:0:0:0:
239,351,186515,1,2,0:0:0:0:
291,285,186858,2,0,B|333:275|333:275|374:294,2,83.9999974365235,2|0|0,1:2|0:0|0:0,0:0:0:0:
279,201,187887,53,2,3:2:0:0:
205,194,188229,1,2,0:0:0:0:
130,185,188572,1,2,0:0:0:0:
78,119,188915,2,0,B|36:109|36:109|-5:128,2,83.9999974365235,2|0|0,1:2|0:0|0:0,0:0:0:0:
131,53,189944,85,2,3:2:0:0:
214,46,190287,1,2,0:0:0:0:
297,37,190629,1,2,0:0:0:0:
334,130,190972,53,2,1:2:0:0:
431,142,191315,1,2,0:0:0:0:
374,225,191658,1,2,0:0:0:0:
324,232,191829,1,0,0:0:0:0:
273,238,192001,54,0,P|255:275|268:314,2,83.9999974365235,2|0|0,3:2|0:0|0:0,0:0:0:0:
210,170,193029,1,0,1:2:0:0:
118,182,193372,2,0,L|112:236,1,41.9999987182618,8|8,0:3|0:3,0:0:0:0:
78,256,193715,2,0,L|85:310,1,41.9999987182618,4|4,0:3|0:3,0:0:0:0:
89,343,194058,85,6,3:2:0:0:
287,306,200229,118,0,L|280:385,2,77.9999964294435,2|2|2,3:2|0:0|0:0,0:0:0:0:
259,278,201087,1,2,0:0:0:0:
254,239,201258,1,2,1:2:0:0:
183,208,201601,2,0,L|127:214,1,38.9999982147218,8|8,0:3|0:3,0:0:0:0:
119,243,201944,2,0,L|63:236,1,38.9999982147218,4|4,0:3|0:3,0:0:0:0:
39,232,202287,70,0,P|-5:181|27:84,1,167.999994873047,6|0,3:2|0:0,0:0:0:0:
89,46,203315,2,0,P|166:72|231:24,1,167.999994873047,2|2,1:2|0:0,0:0:0:0:
288,85,204344,2,0,B|352:126|425:70|395:58|463:16|520:60,1,251.999992309571,2|2,3:2|1:2,0:0:0:0:
468,136,205715,1,2,0:0:0:0:
481,227,206058,1,2,0:0:0:0:
389,219,206401,54,0,P|307:276|404:304,1,251.999992309571,2|2,3:2|1:2,0:0:0:0:
226,252,208115,1,2,0:0:0:0:
181,257,208287,1,0,0:0:0:0:
136,262,208458,2,0,P|96:253|70:218,2,83.9999974365235,2|2|2,3:2|0:0|0:0,0:0:0:0:
149,170,209487,1,2,1:2:0:0:
86,102,209829,2,0,L|93:46,1,41.9999987182618,8|8,0:3|0:3,0:0:0:0:
124,27,210172,1,4,0:3:0:0:
171,21,210344,1,4,0:3:0:0:
210,52,210515,70,0,P|273:72|329:39,1,135.000005149841,6|2,3:2|3:2,0:0:0:0:
352,1,211201,1,2,0:0:0:0:
437,32,211544,1,2,1:2:0:0:
384,104,211887,1,2,0:0:0:0:
378,149,212058,1,0,0:0:0:0:
373,194,212229,1,2,0:0:0:0:
455,232,212572,54,0,P|477:318|420:383,1,180.000006866455,2|2,3:2|0:0,0:0:0:0:
351,344,213601,2,0,L|248:331,1,90.0000034332277,2|0,1:2|0:0,0:0:0:0:
211,259,214287,1,2,0:0:0:0:
206,209,214458,1,2,0:0:0:0:
239,171,214629,54,0,B|257:100|203:113|219:42,1,135.000005149841,2|2,3:2|3:2,0:0:0:0:
235,0,215315,1,2,0:0:0:0:
146,10,215658,1,2,1:2:0:0:
125,97,216001,1,2,0:0:0:0:
30,117,216344,1,2,0:0:0:0:
30,117,216515,1,0,0:0:0:0:
30,117,216687,54,0,P|-23:165|51:203,1,180.000006866455,2|2,3:2|0:0,0:0:0:0:
136,190,217715,1,2,1:2:0:0:
203,251,218058,2,0,L|209:295,1,45.0000017166138,8|8,0:3|0:3,0:0:0:0:
215,340,218401,1,4,0:3:0:0:
264,351,218572,1,4,0:3:0:0:
304,321,218744,54,0,P|367:300|423:333,1,135.000005149841,6|2,3:2|3:2,0:0:0:0:
448,370,219429,1,2,0:0:0:0:
509,303,219772,1,2,1:2:0:0:
439,246,220115,1,2,0:0:0:0:
496,178,220458,1,2,0:0:0:0:
496,178,220629,1,0,0:0:0:0:
496,178,220801,54,0,P|518:140|511:94,2,90.0000034332277,2|2|2,3:2|0:0|0:0,0:0:0:0:
428,118,221829,1,2,1:2:0:0:
399,42,222172,1,0,0:0:0:0:
399,42,222344,1,0,0:0:0:0:
399,42,222515,1,2,0:0:0:0:
315,73,222858,85,2,3:2:0:0:
235,64,223201,1,2,0:0:0:0:
155,55,223544,1,2,0:0:0:0:
102,127,223887,2,0,B|75:162|75:162|39:134,2,90.0000034332277,2|0|0,1:2|0:0|0:0,0:0:0:0:
147,205,224915,53,2,3:2:0:0:
227,196,225258,1,2,0:0:0:0:
307,187,225601,1,2,0:0:0:0:
360,259,225944,2,0,B|388:294|388:294|424:266,2,90.0000034332277,2|0|0,1:2|0:0|0:0,0:0:0:0:
318,338,226972,85,2,3:2:0:0:
229,330,227315,1,2,0:0:0:0:
140,322,227658,1,2,0:0:0:0:
76,235,228001,53,2,1:2:0:0:
184,223,228344,1,2,0:0:0:0:
120,136,228687,1,2,0:0:0:0:
157,95,228858,1,0,0:0:0:0:
211,104,229029,54,0,P|249:125|292:115,2,90.0000034332277,6|0|0,3:2|0:0|0:0,0:0:0:0:
262,19,230058,1,0,1:2:0:0:
360,0,230401,2,0,L|366:54,1,45.0000017166138,8|8,0:3|0:3,0:0:0:0:
408,71,230744,2,0,L|401:125,1,45.0000017166138,4|4,0:3|0:3,0:0:0:0:
395,164,231087,85,6,3:2:0:0:
333,202,231429,2,0,P|302:213|270:204,1,66.0000020141602,2|2,2:2|2:2,0:0:0:0:
206,170,232115,1,2,2:2:0:0:
165,229,232458,2,0,L|178:337,1,90,2|0,2:2|2:2,0:0:0:0:
207,335,233144,2,0,B|294:297|296:383|381:353,1,180,2|2,2:2|2:2,0:0:0:0:
481,292,234858,1,2,2:2:0:0:
450,227,235201,53,2,2:2:0:0:
272,254,236229,1,2,2:2:0:0:
179,177,236915,1,2,2:2:0:0:
111,199,237258,2,0,P|19:177|98:127,1,240,0|0,0:2|0:0,0:0:0:0:
