osu file format v14

[General]
AudioFilename: audio.mp3
AudioLeadIn: 0
PreviewTime: 67201
Countdown: 0
SampleSet: Soft
StackLeniency: 0.4
Mode: 0
LetterboxInBreaks: 0
WidescreenStoryboard: 1

[Editor]
Bookmarks: 2058,8915,17144,33601,50058,68572,85029,105601,122058,138515,157029,173487,194058,210515,231087,238287
DistanceSpacing: 1.3
BeatDivisor: 8
GridSize: 32
TimelineZoom: 2.3

[Metadata]
Title:Jin Li Chao
TitleUnicode:锦鲤抄
Artist:Yin Lin / Yun Zhi Qi
ArtistUnicode:银临 / 云の泣
Creator:-Waterlemon
Version:Hard
Source:
Tags:古风 oriental pop ballad folk chinese mandarin c-pop cpop mandopop 慕清明 Mu Qing Ming 灰原穷 hui yuan qiong 弹棉花的gg tan mian hua de gg Koi Copy 桜の花が舞い落ちるとき Sakura no Hana ga Maiochiru Toki
BeatmapID:3760480
BeatmapSetID:1827378

[Difficulty]
HPDrainRate:4
CircleSize:5
OverallDifficulty:6
ApproachRate:6.5
SliderMultiplier:0.6
SliderTickRate:1

[Events]
//Background and Video events
0,0,"7030645.jpg",0,0
//Break Periods
2,194258,199254
//Storyboard Layer 0 (Background)
//Storyboard Layer 1 (Fail)
//Storyboard Layer 2 (Pass)
//Storyboard Layer 3 (Foreground)
//Storyboard Layer 4 (Overlay)
//Storyboard Sound Samples

[TimingPoints]
687,342.857142857143,3,2,2,40,1,0
16115,-62.5,3,2,1,70,0,0
17144,-62.5,3,2,1,80,0,0
33601,-62.5,3,2,3,40,0,0
33944,-100,3,2,3,40,0,0
50058,-100,3,2,3,50,0,0
63429,-100,3,2,3,60,0,0
67544,-62.5,3,2,1,80,0,0
68572,-62.5,3,2,1,80,0,1
75772,-62.5,3,2,1,80,0,0
76801,-62.5,3,2,1,80,0,1
84001,-62.5,3,2,1,80,0,0
85029,-62.5,3,2,1,80,0,1
92229,-62.5,3,2,1,80,0,0
93258,-62.5,3,2,1,80,0,1
104572,-62.5,3,2,1,80,0,0
105601,-62.5,3,2,1,80,0,1
106115,-62.5,3,2,1,80,0,0
122058,-100,3,2,3,40,0,0
138515,-100,3,2,3,50,0,0
151887,-100,3,2,3,60,0,0
156001,-62.5,3,2,1,80,0,0
157029,-62.5,3,2,1,80,0,1
164229,-62.5,3,2,1,80,0,0
165258,-62.5,3,2,1,80,0,1
172458,-62.5,3,2,1,80,0,0
173487,-62.5,3,2,1,80,0,1
180687,-62.5,3,2,1,80,0,0
181715,-62.5,3,2,1,80,0,1
194058,-62.5,3,2,1,65,0,0
200229,-71.4285714285714,3,2,1,80,0,0
202287,-62.5,3,2,1,80,0,0
210515,-55.5555555555556,3,2,1,85,0,1
212572,-58.8235294117647,3,2,1,85,0,1
214629,-55.5555555555556,3,2,1,85,0,1
216687,-58.8235294117647,3,2,1,85,0,1
217715,-58.8235294117647,3,2,1,85,0,0
218744,-55.5555555555556,3,2,1,85,0,1
220801,-58.8235294117647,3,2,1,85,0,1
228001,-55.5555555555556,3,2,1,85,0,1
231087,-125,3,2,1,40,0,0
231172,-125,3,2,2,40,0,0
232801,-125,3,2,2,5,0,0
232972,-125,3,2,2,40,0,0
233487,-125,3,2,2,5,0,0
234172,-125,3,2,2,40,0,0
237258,-250,3,2,2,40,0,0
237601,-166.666666666667,3,2,2,5,0,0

[Colours]
Combo1 : 255,62,130
Combo2 : 130,192,255
Combo3 : 207,250,249
Combo4 : 255,252,117
Combo5 : 255,168,185
Combo6 : 0,128,255
Combo7 : 128,244,221
Combo8 : 255,199,66
SliderBorder : 255,221,217

[HitObjects]
293,373,16115,101,0,1:2:0:0:
293,373,16458,53,0,3:2:0:0:
226,381,16629,1,0,1:2:0:0:
172,257,16972,53,0,0:0:0:0:
238,265,17144,2,0,P|277:232|279:130,1,144,6|0,3:2|3:2,0:0:0:0:
241,93,17829,2,0,P|225:110|219:133,1,48,2|2,0:2|0:2,0:0:0:0:
161,184,18172,54,0,P|80:162|19:153,1,144,2|0,1:2|0:2,0:0:0:0:
3,78,18858,2,0,P|26:74|50:72,1,48,2|2,0:2|0:2,0:0:0:0:
99,12,19201,53,2,3:2:0:0:
204,23,19544,1,0,0:2:0:0:
308,34,19887,1,0,0:2:0:0:
234,167,20229,53,0,1:2:0:0:
234,167,20572,2,0,P|256:160|280:161,1,48,2|0,0:2|0:2,0:0:0:0:
328,209,20915,2,0,P|350:216|374:215,1,48,2|0,0:2|0:2,0:0:0:0:
448,193,21258,54,0,P|487:249|468:329,1,144,2|0,3:2|3:2,0:0:0:0:
423,364,21944,2,0,P|409:344|406:320,1,48,2|0,0:2|0:2,0:0:0:0:
336,286,22287,54,0,P|264:291|192:300,1,144,2|0,1:2|0:2,0:0:0:0:
149,351,22972,1,0,0:2:0:0:
81,343,23144,1,0,0:2:0:0:
46,285,23315,54,0,P|58:242|63:190,1,96,2|2,3:2|0:2,0:0:0:0:
127,170,23829,2,0,P|115:127|109:75,1,96,2|2,3:2|0:2,0:0:0:0:
89,6,24344,53,2,1:2:0:0:
89,6,24687,2,0,L|136:10,1,48,8|8,0:3|0:3,0:0:0:0:
212,19,25029,1,4,0:3:0:0:
258,80,25201,1,4,0:3:0:0:
332,63,25372,54,0,P|391:60|453:115,1,144,6|0,3:2|3:2,0:0:0:0:
428,176,26058,2,0,P|407:167|392:146,1,48,2|2,0:2|0:2,0:0:0:0:
327,188,26401,54,0,P|340:258|348:330,1,144,2|0,1:2|0:2,0:0:0:0:
416,367,27087,2,0,P|419:338|426:306,1,48,2|2,0:2|0:2,0:0:0:0:
463,254,27429,53,2,3:2:0:0:
357,263,27772,1,0,0:2:0:0:
251,272,28115,1,0,0:2:0:0:
178,136,28458,54,0,L|139:131,3,24,0|2|2|2,1:2|0:0|0:0|0:0,0:0:0:0:
137,98,28801,2,0,P|128:75|129:51,1,48,2|0,0:2|0:2,0:0:0:0:
194,11,29144,2,0,P|202:33|201:57,1,48,2|0,0:2|0:2,0:0:0:0:
272,88,29487,54,0,P|315:77|366:72,2,96,2|0|0,3:2|0:2|0:2,0:0:0:0:
201,203,30515,54,0,P|205:249|245:282,1,96,0|0,1:2|0:2,0:0:0:0:
304,301,31029,1,0,0:2:0:0:
264,355,31201,54,0,P|233:349|197:348,1,60,2|2,0:2|0:2,0:0:0:0:
158,364,31544,1,2,3:2:0:0:
158,364,31887,54,0,P|137:374|113:375,1,48,2|2,0:2|3:2,0:0:0:0:
67,327,32229,2,0,P|43:325|21:315,1,48,2|2,0:2|0:2,0:0:0:0:
16,247,32572,1,2,1:2:0:0:
16,247,32915,53,8,0:3:0:0:
85,214,33087,1,8,0:3:0:0:
120,146,33258,1,4,0:3:0:0:
105,70,33429,1,4,0:3:0:0:
45,26,33601,101,6,3:2:0:0:
45,26,33944,2,0,P|37:64|35:86,1,60,2|2,0:0|0:0,0:0:0:0:
3,144,34629,1,10,0:0:0:0:
3,144,34972,2,0,P|39:172|84:168,1,90,2|2,0:0|0:0,0:0:0:0:
108,150,35658,54,0,B|151:106|228:137|188:176|245:186|276:174,1,180,10|2,0:0|1:2,0:0:0:0:
332,158,37029,1,0,0:0:0:0:
301,99,37372,2,0,L|303:67,1,30,2|2,0:0|0:0,0:0:0:0:
327,38,37715,53,2,3:2:0:0:
392,44,38058,1,2,0:0:0:0:
457,51,38401,1,2,0:0:0:0:
433,125,38744,53,10,0:0:0:0:
439,190,39087,1,2,0:0:0:0:
446,255,39430,1,2,0:0:0:0:
510,297,39772,54,0,P|484:324|431:330,1,90,10|2,0:0|0:0,0:0:0:0:
403,314,40458,2,0,P|377:301|347:304,1,60,2|2,0:0|1:2,0:0:0:0:
283,349,41144,1,2,0:0:0:0:
259,274,41487,1,2,0:0:0:0:
235,199,41829,54,0,P|243:161|252:136,2,60,2|2|2,3:2|0:0|0:0,0:0:0:0:
171,218,42858,1,10,0:0:0:0:
120,174,43201,2,0,P|87:164|28:192,1,90,2|2,0:0|0:0,0:0:0:0:
14,209,43887,54,0,B|-8:309|72:282|47:382,1,180,10|2,0:0|1:2,0:0:0:0:
115,372,45258,1,0,0:0:0:0:
163,311,45601,2,0,L|204:314,1,30,2|2,0:0|0:0,0:0:0:0:
231,317,45944,53,2,3:2:0:0:
364,171,46972,53,10,0:0:0:0:
298,180,47315,1,2,0:0:0:0:
232,189,47658,1,2,0:0:0:0:
176,134,48001,54,0,L|186:4,1,120,10|0,0:0|0:0,0:0:0:0:
112,41,49029,2,0,L|107:100,1,60,2|0,1:2|0:0,0:0:0:0:
99,178,49715,1,2,0:0:0:0:
44,234,50058,54,0,P|23:204|23:167,1,60,6|2,3:2|0:0,0:0:0:0:
37,116,50744,1,2,0:0:0:0:
98,92,51087,1,10,0:0:0:0:
153,127,51429,2,0,P|196:135|238:115,1,90,2|2,0:0|0:0,0:0:0:0:
251,87,52115,54,0,P|309:71|361:107,1,120,10|2,0:0|0:0,0:0:0:0:
377,133,52972,1,2,0:0:0:0:
377,133,53144,1,2,1:2:0:0:
353,194,53487,1,0,0:0:0:0:
411,224,53829,2,0,L|451:221,1,30,2|2,0:0|0:0,0:0:0:0:
478,211,54172,53,2,3:2:0:0:
486,277,54515,1,2,0:0:0:0:
495,343,54858,1,2,0:0:0:0:
424,377,55201,53,10,0:0:0:0:
358,369,55544,1,2,0:0:0:0:
292,360,55887,1,2,0:0:0:0:
256,290,56229,54,0,P|247:257|276:205,1,90,10|2,0:0|0:0,0:0:0:0:
246,179,56915,2,0,L|177:185,1,60,2|2,0:0|1:2,0:0:0:0:
113,155,57601,2,0,L|116:119,1,30,2|2,0:0|0:0,0:0:0:0:
91,94,57944,2,0,L|88:58,1,30,2|2,0:0|0:0,0:0:0:0:
108,30,58287,53,2,3:2:0:0:
175,25,58630,1,2,0:0:0:0:
241,18,58973,1,2,0:0:0:0:
270,90,59315,53,10,0:0:0:0:
335,100,59658,2,0,P|379:106|424:109,1,90,2|2,0:0|0:0,0:0:0:0:
455,99,60344,54,0,P|486:130|480:206,1,120,10|2,0:0|0:0,0:0:0:0:
467,231,61201,1,2,0:0:0:0:
467,231,61372,1,2,1:2:0:0:
336,210,62058,54,0,L|341:253,1,30,2|2,0:0|0:0,0:0:0:0:
343,278,62401,2,0,P|282:311|234:297,1,120,2|0,3:2|0:0,0:0:0:0:
182,243,63429,53,10,0:0:0:0:
75,258,63772,1,2,0:0:0:0:
141,343,64115,1,2,0:0:0:0:
182,243,64458,54,0,P|171:175|224:118,1,150,10|0,0:0|0:0,0:0:0:0:
258,111,65487,2,0,L|252:45,1,60,2|0,1:2|0:0,0:0:0:0:
313,1,66172,1,2,0:0:0:0:
374,20,66515,1,2,0:0:0:0:
512,206,67544,101,0,1:2:0:0:
512,206,67887,53,0,3:2:0:0:
445,194,68058,1,0,1:2:0:0:
451,328,68401,53,0,0:0:0:0:
391,359,68572,2,0,P|302:371|221:313,1,192,6|0,3:2|0:0,0:0:0:0:
283,194,69601,53,2,1:2:0:0:
183,157,69944,1,2,0:0:0:0:
264,89,70287,2,0,P|294:80|318:88,1,48,2|0,0:0|0:0,0:0:0:0:
362,125,70629,2,0,P|408:131|445:102,2,96,2|0|0,3:2|0:0|0:0,0:0:0:0:
298,6,71658,53,2,1:2:0:0:
210,80,72001,2,0,P|179:81|153:65,1,48,2|0,0:0|0:0,0:0:0:0:
149,8,72344,2,0,P|180:7|206:23,1,48,2|0,0:0|0:0,0:0:0:0:
210,80,72687,2,0,L|203:185,2,96,2|0|0,3:2|0:0|0:0,0:0:0:0:
77,100,73715,53,2,1:2:0:0:
2,159,74058,1,2,0:0:0:0:
15,253,74401,1,2,0:0:0:0:
106,292,74744,1,2,3:2:0:0:
106,292,75087,54,0,L|114:238,2,48,2|2|2,0:0|3:2|0:0,0:0:0:0:
155,338,75601,1,2,0:0:0:0:
221,333,75772,54,0,L|285:328,1,48,2|0,1:2|0:0,0:0:0:0:
308,263,76115,2,0,L|244:258,1,48,8|8,0:3|0:3,0:0:0:0:
229,188,76458,1,4,0:3:0:0:
284,135,76629,1,4,0:3:0:0:
228,81,76801,54,0,B|128:44|139:135|45:101,1,192,6|0,3:2|0:0,0:0:0:0:
0,229,77829,53,2,1:2:0:0:
104,240,78172,1,2,0:0:0:0:
208,251,78515,2,0,P|232:269|238:301,1,48,2|0,0:0|0:0,0:0:0:0:
232,353,78858,2,0,P|184:360|143:339,2,96,2|0|0,3:2|0:0|0:0,0:0:0:0:
336,267,79887,54,0,L|341:229,3,24,2|2|2|2,1:2|0:0|0:0|0:0,0:0:0:0:
353,273,80229,2,0,P|395:294|441:286,1,96,2|2,0:0|0:0,0:0:0:0:
487,223,80744,1,0,0:0:0:0:
475,147,80915,54,0,P|430:96|296:103,1,192,2|0,3:2|0:0,0:0:0:0:
200,198,81944,54,0,P|213:168|202:134,1,48,2|0,1:2|0:0,0:0:0:0:
145,114,82287,2,0,P|133:93|133:69,1,48,2|0,0:0|0:0,0:0:0:0:
175,5,82629,1,2,0:0:0:0:
246,32,82801,1,0,0:0:0:0:
318,8,82972,54,0,P|363:4|405:46,1,96,2|2,3:2|0:0,0:0:0:0:
412,112,83487,2,0,P|366:108|324:150,1,96,2|2,3:2|0:0,0:0:0:0:
343,215,84001,54,0,L|354:269,1,48,2|0,1:2|0:0,0:0:0:0:
419,265,84344,2,0,L|408:319,1,48,8|8,0:3|0:3,0:0:0:0:
349,360,84687,69,4,0:3:0:0:
275,339,84858,1,4,0:3:0:0:
211,382,85029,86,0,P|199:311|183:239,1,144,6|2,3:2|3:2,0:0:0:0:
157,172,85715,1,2,0:0:0:0:
157,172,86058,53,2,1:2:0:0:
207,79,86401,1,2,0:0:0:0:
156,64,86572,1,0,0:0:0:0:
105,49,86744,1,2,0:0:0:0:
20,153,87087,54,0,P|39:219|105:243,1,144,2|0,3:2|3:2,0:0:0:0:
157,202,87772,2,0,P|178:192|202:193,1,48,2|0,0:0|0:0,0:0:0:0:
276,214,88115,2,0,P|263:160|257:115,1,96,2|0,1:2|0:0,0:0:0:0:
380,74,88801,53,2,0:0:0:0:
446,64,88972,1,2,0:0:0:0:
492,113,89144,54,0,P|471:194|461:269,1,144,2|2,3:2|3:2,0:0:0:0:
462,323,89829,1,2,0:0:0:0:
462,323,90172,53,2,1:2:0:0:
373,379,90515,1,2,0:0:0:0:
271,290,90858,2,0,P|289:279|332:285,1,48,2|0,0:0|0:0,0:0:0:0:
310,345,91201,54,0,P|255:357|202:280,1,144,2|0,3:2|3:2,0:0:0:0:
150,252,91887,2,0,L|96:257,1,48,2|0,0:0|0:0,0:0:0:0:
31,266,92229,1,2,1:2:0:0:
31,266,92572,54,0,L|24:211,1,48,8|8,0:3|0:3,0:0:0:0:
2,144,92915,1,4,0:3:0:0:
73,115,93087,1,4,0:3:0:0:
58,39,93258,54,0,P|117:2|184:21,1,144,6|2,3:2|3:2,0:0:0:0:
230,77,93944,1,2,0:0:0:0:
230,77,94287,53,2,1:2:0:0:
302,0,94629,1,2,0:0:0:0:
398,44,94972,1,2,0:0:0:0:
462,25,95144,1,0,0:0:0:0:
503,77,95315,54,0,P|484:140|466:225,1,144,2|0,3:2|3:2,0:0:0:0:
408,248,96001,2,0,P|401:224|398:200,1,48,2|0,0:0|0:0,0:0:0:0:
361,145,96344,1,2,1:2:0:0:
361,145,96687,54,0,L|375:87,2,48,0|0|2,0:0|0:0|0:0,0:0:0:0:
305,182,97201,1,0,0:0:0:0:
239,165,97372,85,2,3:2:0:0:
200,66,97715,1,2,0:0:0:0:
147,74,97887,1,2,3:2:0:0:
95,83,98058,1,2,0:0:0:0:
36,170,98401,2,0,P|76:192|123:183,2,96,2|0|0,1:2|0:0|0:0,0:0:0:0:
0,299,99429,53,2,3:2:0:0:
109,263,99772,1,2,0:0:0:0:
124,318,99944,1,2,3:2:0:0:
139,373,100115,1,2,0:0:0:0:
243,324,100458,2,0,P|283:301|330:310,2,96,2|0|0,1:2|0:0|0:0,0:0:0:0:
364,382,101487,85,2,3:2:0:0:
443,299,101829,1,2,0:0:0:0:
336,217,102172,1,2,0:0:0:0:
375,58,102515,54,0,P|340:62|314:83,1,48,2|0,1:2|0:0,0:0:0:0:
255,21,102858,2,0,P|243:41|240:65,1,48,2|0,0:0|0:0,0:0:0:0:
162,106,103201,2,0,P|174:126|193:140,1,48,2|0,0:0|0:0,0:0:0:0:
280,136,103544,54,0,L|268:244,1,96,2|0,3:2|0:0,0:0:0:0:
340,261,104058,2,0,L|350:165,1,96,0|0,3:2|0:0,0:0:0:0:
414,122,104572,1,0,1:2:0:0:
414,122,104915,53,8,0:3:0:0:
383,51,105087,1,8,0:3:0:0:
315,15,105258,1,4,0:3:0:0:
238,22,105429,1,4,0:3:0:0:
177,69,105601,102,0,P|107:103|40:84,1,144,6|0,3:2|3:2,0:0:0:0:
0,38,106287,2,0,P|21:23|43:20,1,48,2|2,0:2|0:2,0:0:0:0:
119,26,106629,54,0,P|111:64|97:184,1,144,2|0,1:2|0:2,0:0:0:0:
165,205,107315,2,0,P|170:170|171:146,1,48,2|2,0:2|0:2,0:0:0:0:
240,124,107658,53,2,3:2:0:0:
259,227,108001,1,0,0:2:0:0:
279,330,108344,1,0,0:2:0:0:
410,247,108687,53,0,1:2:0:0:
410,247,109029,2,0,P|428:262|439:283,1,48,2|0,0:2|0:2,0:0:0:0:
504,297,109372,2,0,P|500:320|487:340,1,48,2|0,0:2|0:2,0:0:0:0:
414,367,109715,54,0,P|350:359|252:352,1,144,2|0,3:2|3:2,0:0:0:0:
257,286,110401,2,0,P|280:285|304:287,1,48,2|0,0:2|0:2,0:0:0:0:
303,210,110744,54,0,P|293:153|272:54,1,144,2|0,1:2|0:2,0:0:0:0:
245,8,111429,1,0,0:2:0:0:
178,19,111601,1,0,0:2:0:0:
146,78,111772,54,0,P|107:110|45:104,1,96,2|2,3:2|0:2,0:0:0:0:
40,175,112287,2,0,P|78:207|140:201,1,96,2|2,3:2|0:2,0:0:0:0:
189,193,112801,1,2,1:2:0:0:
189,193,113144,54,0,L|193:240,1,48,8|8,0:3|0:3,0:0:0:0:
201,317,113487,1,4,0:3:0:0:
130,346,113658,1,4,0:3:0:0:
58,374,113829,54,0,P|16:317|26:248,1,144,6|0,3:2|3:2,0:0:0:0:
68,195,114515,2,0,P|93:225|93:248,1,48,2|2,0:2|0:2,0:0:0:0:
169,247,114858,54,0,P|183:178|194:87,1,144,2|0,1:2|0:2,0:0:0:0:
266,83,115544,2,0,P|263:121|259:146,1,48,2|2,0:2|0:2,0:0:0:0:
301,196,115887,53,2,3:2:0:0:
405,206,116230,1,0,0:2:0:0:
509,217,116573,1,0,0:2:0:0:
461,91,116915,54,0,L|456:53,3,24,0|2|2|2,1:2|0:0|0:0|0:0,0:0:0:0:
419,61,117258,2,0,P|397:51|373:50,1,48,2|0,0:2|0:2,0:0:0:0:
330,113,117601,2,0,P|352:122|376:123,1,48,2|0,0:2|0:2,0:0:0:0:
425,182,117944,54,0,P|438:232|445:285,2,96,2|0|0,3:2|0:2|0:2,0:0:0:0:
359,199,118801,1,0,0:2:0:0:
328,258,118972,54,0,P|286:279|241:267,1,96,0|0,1:2|0:2,0:0:0:0:
183,231,119487,1,0,0:2:0:0:
133,275,119658,54,0,P|120:304|121:331,1,60,2|2,0:2|0:2,0:0:0:0:
162,365,120001,1,2,3:2:0:0:
162,365,120344,54,0,L|226:360,1,48,2|2,0:2|3:2,0:0:0:0:
260,316,120687,2,0,L|324:311,1,48,2|2,0:2|0:2,0:0:0:0:
368,281,121029,1,2,1:2:0:0:
368,281,121372,53,8,0:3:0:0:
377,209,121544,1,8,0:3:0:0:
442,178,121715,1,4,0:3:0:0:
433,107,121887,1,4,0:3:0:0:
383,61,122058,101,6,3:2:0:0:
383,61,122401,2,0,P|354:46|318:52,1,60,2|2,0:0|0:0,0:0:0:0:
262,67,123087,1,10,0:0:0:0:
262,67,123429,2,0,P|271:116|277:165,1,90,2|2,0:0|0:0,0:0:0:0:
272,188,124115,54,0,B|175:174|204:245|104:229,1,180,10|2,0:0|1:2,0:0:0:0:
40,209,125487,1,0,0:0:0:0:
66,148,125829,2,0,L|62:109,1,30,2|2,0:0|0:0,0:0:0:0:
48,81,126172,53,2,3:2:0:0:
113,69,126515,1,2,0:0:0:0:
178,57,126858,1,2,0:0:0:0:
233,1,127201,53,10,0:0:0:0:
297,6,127544,1,2,0:0:0:0:
362,11,127887,1,2,0:0:0:0:
348,87,128229,54,0,P|360:138|394:156,1,90,10|2,0:0|0:0,0:0:0:0:
423,161,128915,2,0,L|432:227,1,60,2|2,0:0|1:2,0:0:0:0:
484,277,129601,1,2,0:0:0:0:
421,324,129944,1,2,0:0:0:0:
351,289,130287,54,0,P|319:285|294:298,2,60,2|2|2,3:2|0:0|0:0,0:0:0:0:
332,352,131315,1,10,0:0:0:0:
270,376,131658,2,0,L|172:369,1,90,2|2,0:0|0:0,0:0:0:0:
145,364,132344,54,0,B|109:278|190:277|153:189,1,180,10|2,0:0|1:2,0:0:0:0:
119,135,133715,1,0,0:0:0:0:
48,102,134058,2,0,L|44:140,1,30,2|2,0:0|0:0,0:0:0:0:
25,165,134401,53,2,3:2:0:0:
192,0,135429,53,10,0:0:0:0:
206,63,135772,1,2,0:0:0:0:
220,127,136115,1,2,0:0:0:0:
289,91,136458,54,0,L|418:82,1,120,10|0,0:0|0:0,0:0:0:0:
451,148,137487,2,0,L|384:152,1,60,2|0,1:2|0:0,0:0:0:0:
339,210,138172,1,2,0:0:0:0:
286,267,138515,54,0,P|256:270|228:258,1,60,6|2,3:2|0:0,0:0:0:0:
189,206,139201,1,2,0:0:0:0:
126,227,139544,1,10,0:0:0:0:
155,285,139887,2,0,P|145:331|139:376,1,90,2|2,0:0|0:0,0:0:0:0:
107,382,140572,54,0,P|65:367|36:289,1,120,10|2,0:0|0:0,0:0:0:0:
43,275,141429,1,2,0:0:0:0:
43,275,141601,1,2,1:2:0:0:
117,251,141944,53,0,0:0:0:0:
175,302,142287,2,0,L|215:299,1,30,2|2,0:0|0:0,0:0:0:0:
240,284,142629,53,2,3:2:0:0:
255,219,142972,1,2,0:0:0:0:
269,154,143315,1,2,0:0:0:0:
340,186,143658,53,10,0:0:0:0:
351,251,144001,1,2,0:0:0:0:
362,317,144344,1,2,0:0:0:0:
438,334,144687,54,0,P|463:331|496:272,1,90,10|2,0:0|0:0,0:0:0:0:
493,248,145372,2,0,L|427:243,1,60,2|2,0:0|1:2,0:0:0:0:
391,177,146058,2,0,L|394:140,1,30,2|2,0:0|0:0,0:0:0:0:
414,114,146401,2,0,L|411:77,1,30,2|2,0:0|0:0,0:0:0:0:
392,49,146744,53,2,3:2:0:0:
329,2,147087,2,0,P|307:22|302:51,1,60,2|2,0:0|0:0,0:0:0:0:
312,116,147772,1,10,0:0:0:0:
247,103,148115,2,0,P|202:98|157:101,1,90,2|2,0:0|0:0,0:0:0:0:
129,119,148801,54,0,P|84:103|69:30,1,120,10|2,0:0|0:0,0:0:0:0:
84,10,149658,1,2,0:0:0:0:
84,10,149829,1,2,1:2:0:0:
153,44,150172,53,0,0:0:0:0:
229,28,150515,2,0,L|235:58,1,30,2|2,0:0|0:0,0:0:0:0:
265,81,150858,54,0,L|254:208,1,120,2|0,3:2|0:0,0:0:0:0:
329,251,151887,53,10,0:0:0:0:
397,168,152229,1,2,0:0:0:0:
435,270,152572,1,2,0:0:0:0:
329,251,152915,54,0,P|256:255|179:269,1,150,10|0,0:0|0:0,0:0:0:0:
144,283,153944,2,0,L|135:219,1,60,2|0,1:2|0:0,0:0:0:0:
79,169,154629,1,2,0:0:0:0:
19,198,154972,1,2,0:0:0:0:
198,11,156001,37,0,1:2:0:0:
198,11,156344,53,0,3:2:0:0:
263,23,156515,1,0,1:2:0:0:
325,142,156858,53,0,0:0:0:0:
390,128,157029,2,0,P|461:134|512:237,1,192,6|0,3:2|0:0,0:0:0:0:
435,343,158058,53,2,1:2:0:0:
364,264,158401,1,2,0:0:0:0:
331,364,158744,2,0,P|313:378|289:381,1,48,2|0,0:0|0:0,0:0:0:0:
235,340,159087,2,0,P|197:314|146:320,2,96,2|0|0,3:2|0:0|0:0,0:0:0:0:
307,226,160115,53,2,1:2:0:0:
220,150,160458,2,0,P|210:128|213:104,1,48,2|0,0:0|0:0,0:0:0:0:
273,74,160801,2,0,P|282:95|279:119,1,48,2|0,0:0|0:0,0:0:0:0:
220,150,161144,2,0,P|156:153|111:162,2,96,2|0|0,3:2|0:0|0:0,0:0:0:0:
161,28,162172,53,2,1:2:0:0:
55,16,162515,1,2,0:0:0:0:
44,121,162858,1,2,0:0:0:0:
153,136,163201,1,2,3:2:0:0:
153,136,163544,54,0,L|200:130,2,48,2|2|2,0:0|3:2|0:0,0:0:0:0:
115,191,164058,1,2,0:0:0:0:
167,232,164229,54,0,P|176:254|176:277,1,48,2|0,1:2|0:0,0:0:0:0:
107,312,164572,2,0,P|97:334|97:357,1,48,8|8,0:3|0:3,0:0:0:0:
169,384,164915,1,4,0:3:0:0:
245,377,165087,1,4,0:3:0:0:
321,368,165258,54,0,B|343:263|267:291|288:184,1,192,6|0,3:2|0:0,0:0:0:0:
397,107,166287,53,2,1:2:0:0:
471,181,166629,1,2,0:0:0:0:
369,209,166972,2,0,L|318:206,1,48,2|0,0:0|0:0,0:0:0:0:
305,271,167315,2,0,L|411:278,2,96,2|0|0,3:2|0:0|0:0,0:0:0:0:
225,161,168344,54,0,L|222:123,3,24,2|2|2|2,1:2|0:0|0:0|0:0,0:0:0:0:
194,119,168687,2,0,P|147:111|105:135,1,96,2|2,0:0|0:0,0:0:0:0:
41,92,169201,1,0,0:0:0:0:
70,21,169372,54,0,P|150:26|266:41,1,192,2|0,3:2|0:0,0:0:0:0:
349,166,170401,54,0,P|348:189|338:211,1,48,2|0,1:2|0:0,0:0:0:0:
270,245,170744,2,0,P|270:268|280:290,1,48,2|0,0:0|0:0,0:0:0:0:
325,353,171087,1,2,0:0:0:0:
253,381,171258,1,0,0:0:0:0:
192,334,171429,54,0,L|184:232,1,96,2|2,3:2|0:0,0:0:0:0:
111,213,171944,2,0,L|118:308,1,96,2|2,3:2|0:0,0:0:0:0:
63,363,172458,54,0,P|47:345|42:322,1,48,2|0,1:2|0:0,0:0:0:0:
2,267,172801,2,0,P|9:244|27:228,1,48,8|8,0:3|0:3,0:0:0:0:
97,199,173144,69,4,0:3:0:0:
55,134,173315,1,4,0:3:0:0:
100,71,173487,86,0,P|161:36|231:51,1,144,6|2,3:2|3:2,0:0:0:0:
291,97,174172,1,2,0:0:0:0:
291,97,174515,53,2,1:2:0:0:
353,11,174858,1,2,0:0:0:0:
405,17,175029,1,0,0:0:0:0:
457,23,175201,1,2,0:0:0:0:
509,146,175544,54,0,P|448:154|360:175,1,144,2|0,3:2|3:2,0:0:0:0:
336,231,176229,2,0,P|312:225|286:222,1,48,2|0,0:0|0:0,0:0:0:0:
217,212,176572,2,0,P|221:162|183:127,1,96,2|0,1:2|0:0,0:0:0:0:
68,75,177258,53,2,0:0:0:0:
8,106,177429,1,2,0:0:0:0:
52,157,177601,54,0,P|65:220|75:302,1,144,2|2,3:2|3:2,0:0:0:0:
65,373,178287,1,2,0:0:0:0:
65,373,178629,53,2,1:2:0:0:
147,306,178972,1,2,0:0:0:0:
266,341,179315,2,0,P|289:342|314:330,1,48,2|0,0:0|0:0,0:0:0:0:
274,274,179658,54,0,P|248:216|299:153,1,144,2|0,3:2|3:2,0:0:0:0:
319,94,180344,2,0,L|258:88,1,48,2|0,0:0|0:0,0:0:0:0:
202,84,180687,1,2,1:2:0:0:
202,84,181029,54,0,L|195:26,1,48,8|8,0:3|0:3,0:0:0:0:
128,1,181372,1,4,0:3:0:0:
66,47,181544,1,4,0:3:0:0:
108,110,181715,54,0,P|126:177|85:233,1,144,6|2,3:2|3:2,0:0:0:0:
18,254,182401,1,2,0:0:0:0:
18,254,182744,53,2,1:2:0:0:
88,342,183087,1,2,0:0:0:0:
190,291,183429,1,2,0:0:0:0:
255,278,183601,1,0,0:0:0:0:
306,321,183772,54,0,P|347:358|437:340,1,144,2|0,3:2|3:2,0:0:0:0:
445,280,184458,2,0,P|434:258|435:234,1,48,2|0,0:0|0:0,0:0:0:0:
461,167,184801,1,2,1:2:0:0:
461,167,185144,54,0,L|518:160,2,48,0|0|2,0:0|0:0|0:0,0:0:0:0:
400,136,185658,1,0,0:0:0:0:
416,71,185829,85,2,3:2:0:0:
333,5,186172,1,2,0:0:0:0:
280,12,186344,1,2,3:2:0:0:
227,19,186515,1,2,0:0:0:0:
170,108,186858,2,0,P|237:117|271:126,2,96,2|0|0,1:2|0:0|0:0,0:0:0:0:
234,226,187887,53,2,3:2:0:0:
332,166,188229,1,2,0:0:0:0:
389,174,188401,1,2,3:2:0:0:
445,182,188572,1,2,0:0:0:0:
500,283,188915,2,0,P|433:292|399:301,2,96,2|0|0,1:2|0:0|0:0,0:0:0:0:
398,380,189944,85,2,3:2:0:0:
318,296,190287,1,2,0:0:0:0:
189,335,190629,1,2,0:0:0:0:
76,216,190972,54,0,P|55:196|48:165,1,48,2|0,1:2|0:0,0:0:0:0:
119,129,191315,2,0,P|125:101|149:79,1,48,2|0,0:0|0:0,0:0:0:0:
216,123,191658,2,0,P|238:114|261:118,1,48,2|0,0:0|0:0,0:0:0:0:
271,204,192001,54,0,P|304:215|364:185,1,96,2|0,3:2|0:0,0:0:0:0:
383,120,192515,2,0,P|416:108|476:138,1,96,0|0,3:2|0:0,0:0:0:0:
507,202,193029,1,0,1:2:0:0:
507,202,193372,53,8,0:3:0:0:
480,274,193544,1,8,0:3:0:0:
410,306,193715,1,4,0:3:0:0:
336,281,193887,1,4,0:3:0:0:
266,313,194058,21,6,3:2:0:0:
242,343,200229,118,0,L|247:397,2,41.9999987182618,2|2|2,3:2|0:0|0:0,0:0:0:0:
184,307,200744,1,2,3:2:0:0:
217,249,200915,2,0,L|220:207,1,41.9999987182618,2|2,0:0|0:0,0:0:0:0:
230,138,201258,1,2,1:2:0:0:
230,138,201601,53,8,0:3:0:0:
220,62,201772,1,8,0:3:0:0:
145,71,201944,1,4,0:3:0:0:
154,146,202115,1,4,0:3:0:0:
94,194,202287,6,0,P|27:128|43:37,1,192,6|0,3:2|0:0,0:0:0:0:
171,1,203315,2,0,P|242:7|320:17,1,144,2|0,1:2|0:0,0:0:0:0:
389,2,204001,2,0,P|383:25|381:49,1,48,2|0,0:0|0:0,0:0:0:0:
407,111,204344,2,0,P|452:135|498:120,2,96,2|0|0,3:2|0:0|0:0,0:0:0:0:
259,154,205372,54,0,L|222:149,3,24,2|2|2|2,1:2|0:0|0:0|0:0,0:0:0:0:
200,167,205715,2,0,L|205:220,1,48,2|0,0:0|0:0,0:0:0:0:
141,259,206058,2,0,L|136:312,1,48,2|0,0:0|0:0,0:0:0:0:
200,349,206401,54,0,B|299:309|294:386|385:346,1,192,2|0,3:2|0:0,0:0:0:0:
456,210,207429,2,0,P|384:178|354:237,1,144,2|0,1:2|0:0,0:0:0:0:
291,248,208115,2,0,P|287:224|277:191,1,48,2|0,0:0|0:0,0:0:0:0:
252,129,208458,1,2,3:2:0:0:
252,129,208801,53,2,0:0:0:0:
179,153,208972,2,0,P|140:160|88:130,1,96,2|2,3:2|0:0,0:0:0:0:
50,69,209487,54,0,L|57:3,1,48,2|0,1:2|0:0,0:0:0:0:
128,1,209829,2,0,L|122:48,1,48,8|8,0:3|0:3,0:0:0:0:
206,73,210172,37,4,0:3:0:0:
278,25,210344,1,4,0:3:0:0:
349,73,210515,86,0,P|416:92|495:44,1,161.999995056153,6|2,3:2|3:2,0:0:0:0:
414,11,211201,1,2,0:0:0:0:
414,11,211544,54,0,L|427:88,1,53.9999983520508,2|0,1:2|0:0,0:0:0:0:
479,114,211887,1,2,0:0:0:0:
468,172,212058,1,0,0:0:0:0:
457,230,212229,1,2,0:0:0:0:
316,201,212572,54,0,P|244:179|181:218,1,153.000002918243,2|0,3:2|3:2,0:0:0:0:
133,272,213258,2,0,P|153:286|182:289,1,51.0000009727478,2|0,0:0|0:0,0:0:0:0:
258,269,213601,2,0,P|244:340|238:387,1,102.000001945496,2|0,1:2|0:0,0:0:0:0:
83,325,214287,53,2,0:0:0:0:
26,282,214458,1,2,0:0:0:0:
77,226,214629,54,0,P|109:154|75:83,1,161.999995056153,2|2,3:2|3:2,0:0:0:0:
6,41,215315,1,2,0:0:0:0:
6,41,215658,53,2,1:2:0:0:
119,4,216001,1,2,0:0:0:0:
179,137,216344,2,0,P|202:149|231:150,1,53.9999983520508,2|0,0:0|0:0,0:0:0:0:
278,98,216687,54,0,P|339:56|411:73,1,153.000002918243,2|0,3:2|3:2,0:0:0:0:
472,121,217372,2,0,P|478:88|486:62,1,51.0000009727478,2|0,0:0|0:0,0:0:0:0:
512,0,217715,1,2,1:2:0:0:
512,0,218058,53,8,0:3:0:0:
435,5,218229,1,8,0:3:0:0:
377,55,218401,1,4,0:3:0:0:
366,130,218572,1,4,0:3:0:0:
406,200,218744,54,0,P|317:211|246:224,1,161.999995056153,6|2,3:2|3:2,0:0:0:0:
231,298,219429,2,0,P|267:290|301:284,1,53.9999983520508,2|0,0:0|0:0,0:0:0:0:
334,342,219772,53,2,1:2:0:0:
206,367,220115,1,2,0:0:0:0:
134,258,220458,1,2,0:0:0:0:
77,299,220629,1,0,0:0:0:0:
11,289,220801,54,0,P|23:230|48:137,1,153.000002918243,2|0,3:2|3:2,0:0:0:0:
75,74,221487,2,0,P|106:96|115:128,1,51.0000009727478,2|0,0:0|0:0,0:0:0:0:
175,155,221829,1,2,1:2:0:0:
175,155,222172,54,0,L|179:205,2,51.0000009727478,0|0|2,0:0|0:0|0:0,0:0:0:0:
224,102,222687,1,0,0:0:0:0:
294,112,222858,85,2,3:2:0:0:
349,14,223201,1,2,0:0:0:0:
403,2,223372,1,2,3:2:0:0:
455,22,223544,1,2,0:0:0:0:
483,70,223715,1,2,0:0:0:0:
479,126,223887,2,0,P|464:174|451:234,2,102.000001945496,2|0|0,1:2|0:0|0:0,0:0:0:0:
368,103,224915,53,2,3:2:0:0:
328,218,225258,1,2,0:0:0:0:
282,258,225429,1,2,3:2:0:0:
220,263,225601,1,2,0:0:0:0:
166,233,225772,1,2,0:0:0:0:
141,176,225944,2,0,P|105:145|43:153,2,102.000001945496,2|0|0,1:2|0:0|0:0,0:0:0:0:
73,302,226972,85,2,3:2:0:0:
201,363,227315,1,2,0:0:0:0:
311,272,227658,1,2,0:0:0:0:
200,125,228001,54,0,P|179:107|168:83,1,53.9999983520508,2|0,1:2|0:0,0:0:0:0:
257,49,228344,2,0,P|262:21|277:0,1,53.9999983520508,2|0,0:0|0:0,0:0:0:0:
354,59,228687,2,0,P|379:48|404:51,1,53.9999983520508,2|0,0:0|0:0,0:0:0:0:
391,149,229029,54,0,L|279:161,1,107.999996704102,6|0,3:2|0:0,0:0:0:0:
232,230,229544,2,0,L|125:242,1,107.999996704102,0|0,3:2|0:0,0:0:0:0:
64,188,230058,1,0,1:2:0:0:
64,188,230401,53,8,0:3:0:0:
0,128,230572,1,8,0:3:0:0:
37,49,230744,1,4,0:3:0:0:
123,59,230915,1,4,0:3:0:0:
144,148,231087,21,6,3:2:0:0:
144,148,231429,2,0,P|167:142|191:139,2,48,2|2|2,2:2|2:2|2:2,0:0:0:0:
114,208,232458,2,0,P|113:244|133:271,1,72,2|0,2:2|2:2,0:0:0:0:
167,264,233144,2,0,B|240:241|236:298|305:278,1,144,2|2,2:2|2:2,0:0:0:0:
305,278,234515,1,2,2:2:0:0:
293,211,234858,1,2,2:2:0:0:
342,166,235201,53,2,2:2:0:0:
461,215,236229,1,2,2:2:0:0:
418,290,236915,1,2,2:2:0:0:
438,306,237258,2,0,P|440:339|427:308,1,96,0|0,0:2|0:0,0:0:0:0:
