osu file format v14

[General]
AudioFilename: audio.mp3
AudioLeadIn: 0
PreviewTime: 54015
Countdown: 0
SampleSet: Normal
StackLeniency: 0.7
Mode: 1
LetterboxInBreaks: 0
WidescreenStoryboard: 0

[Editor]
DistanceSpacing: 3
BeatDivisor: 4
GridSize: 32
TimelineZoom: 4.499999

[Metadata]
Title:Alfheim
TitleUnicode:Alfheim
Artist:Yesod
ArtistUnicode:Yesod
Creator:Star Stream
Version:Inner Oni
Source:Lanota
Tags:overrapid overrapid/lanota over rapid x lanota collaboration collab electronic instrumental video game rhythm vgm music videogame A. Ki litmus* litmus Rabbit House noxy games noxygames inc. incorporation arcstar ideal idealism
BeatmapID:3473620
BeatmapSetID:1699975

[Difficulty]
HPDrainRate:5.5
CircleSize:5
OverallDifficulty:6.5
ApproachRate:5
SliderMultiplier:1.4
SliderTickRate:1

[Events]
//Background and Video events
0,0,"bg.jpg",0,40
//Break Periods
//Storyboard Layer 0 (Background)
//Storyboard Layer 1 (Fail)
//Storyboard Layer 2 (Pass)
//Storyboard Layer 3 (Foreground)
//Storyboard Layer 4 (Overlay)
//Storyboard Sound Samples

[TimingPoints]
72,333.333333333333,3,1,0,40,1,0
11233,-98.360655737705,3,1,0,40,0,0
11316,-97.560975609756,3,1,0,43,0,0
11400,-96.774193548387,3,1,0,46,0,0
11566,-95.238095238095,3,1,0,52,0,0
11650,-94.488188976378,3,1,0,55,0,0
11733,-93.75,3,1,0,58,0,0
11816,-93.023255813953,3,1,0,61,0,0
11900,-92.307692307692,3,1,0,64,0,0
11983,-91.603053435115,3,1,0,67,0,0
12066,-90.909090909091,3,1,0,70,0,0
17900,-90.604026845638,3,1,0,70,0,0
17983,-90.301003344482,3,1,0,70,0,0
18066,-90,3,1,0,70,0,0
18150,-89.700996677741,3,1,0,70,0,0
18233,-89.403973509934,3,1,0,71,0,0
18316,-89.108910891089,3,1,0,71,0,0
18400,-88.815789473684,3,1,0,72,0,0
18483,-88.524590163934,3,1,0,72,0,0
18566,-88.235294117647,3,1,0,73,0,0
18650,-87.947882736156,3,1,0,73,0,0
18733,-87.662337662338,3,1,0,73,0,0
18816,-87.378640776699,3,1,0,74,0,0
18900,-87.096774193548,3,1,0,74,0,0
18983,-86.816720257235,3,1,0,75,0,0
19066,-86.538461538462,3,1,0,75,0,0
19233,-85.987261146497,3,1,0,76,0,0
19316,-85.714285714286,3,1,0,76,0,0
19400,-85.443037974684,3,1,0,77,0,0
19483,-85.173501577287,3,1,0,77,0,0
19566,-84.905660377359,3,1,0,77,0,0
19650,-84.639498432602,3,1,0,78,0,0
19733,-84.375,3,1,0,78,0,0
19816,-84.11214953271,3,1,0,79,0,0
19900,-83.850931677019,3,1,0,79,0,0
19983,-83.59133126935,3,1,0,80,0,0
20066,-83.333333333333,3,1,0,80,0,0
20233,-85.714285714286,3,1,0,73,0,0
20316,-86.95652173913,3,1,0,70,0,0
20400,-88.235294117647,3,1,0,67,0,0
20566,-90.909090909091,3,1,0,60,0,0
20733,-93.75,3,1,0,53,0,0
20816,-95.238095238095,3,1,0,50,0,0
20900,-96.774193548387,3,1,0,47,0,0
21066,-100,3,1,0,40,0,0
21233,-98.360655737705,3,1,0,40,0,0
21316,-97.560975609756,3,1,0,43,0,0
21400,-96.774193548387,3,1,0,46,0,0
21483,-96,3,1,0,49,0,0
21566,-95.238095238095,3,1,0,52,0,0
21650,-94.488188976378,3,1,0,55,0,0
21733,-93.75,3,1,0,58,0,0
21816,-93.023255813953,3,1,0,61,0,0
21900,-92.307692307692,3,1,0,64,0,0
21983,-91.603053435115,3,1,0,67,0,0
22071,333.333333333333,4,1,0,70,1,0
22071,-90.909090909091,3,1,0,70,0,0
31399,-91.644204851752,3,1,0,70,0,0
31482,-92.391304347826,3,1,0,70,0,0
31565,-93.150684931507,3,1,0,70,0,0
31649,-93.922651933702,3,1,0,70,0,0
31732,-94.707520891365,3,1,0,70,0,0
31815,-95.505617977528,3,1,0,70,0,0
31899,-96.317280453258,3,1,0,70,0,0
31982,-97.142857142857,3,1,0,70,0,0
32065,-97.982708933718,3,1,0,70,0,0
32149,-98.837209302326,3,1,0,70,0,0
32232,-99.706744868035,3,1,0,70,0,0
32315,-100.591715976331,3,1,0,70,0,0
32399,-101.492537313433,3,1,0,70,0,0
32482,-102.409638554217,3,1,0,70,0,0
32565,-103.343465045593,3,1,0,70,0,0
32649,-104.294478527607,3,1,0,70,0,0
32732,-105.263157894737,3,1,0,70,0,0
32899,-90.909090909091,3,1,0,70,0,0
42065,-90.185676392573,3,1,0,70,0,0
42149,-89.473684210526,3,1,0,70,0,0
42232,-88.772845953003,3,1,0,70,0,0
42315,-88.082901554404,3,1,0,70,0,0
42399,-87.403598971722,3,1,0,70,0,0
42482,-86.734693877551,3,1,0,70,0,0
42565,-86.075949367089,3,1,0,70,0,0
42649,-85.427135678392,3,1,0,70,0,0
42732,-84.788029925187,3,1,0,70,0,0
42815,-84.158415841584,3,1,0,70,0,0
42899,-83.538083538083,3,1,0,70,0,0
42982,-82.926829268293,3,1,0,70,0,0
43065,-82.324455205811,3,1,0,70,0,0
43149,-81.730769230769,3,1,0,70,0,0
43232,-81.145584725537,3,1,0,70,0,0
43315,-80.568720379147,3,1,0,70,0,0
43399,-80,3,1,0,70,0,0
43565,-90.909090909091,3,1,0,70,0,0
48732,-90.739008419083,3,1,0,70,0,0
48899,-89.731729879741,3,1,0,71,0,0
48982,-89.236430542778,3,1,0,71,0,0
49065,-88.746569075938,3,1,0,71,0,0
49149,-88.262056414923,3,1,0,72,0,0
49232,-87.782805429864,3,1,0,72,0,0
49399,-86.839749328559,3,1,0,72,0,0
49565,-85.916740478299,3,1,0,73,0,0
49649,-85.462555066079,3,1,0,73,0,0
49732,-85.01314636284,3,1,0,74,0,0
49815,-84.568439407149,3,1,0,74,0,0
49899,-84.128360797919,3,1,0,74,0,0
50065,-83.261802575107,3,1,0,75,0,0
50232,-82.412914188615,3,1,0,76,0,0
50315,-81.994928148774,3,1,0,76,0,0
50399,-81.581160639193,3,1,0,76,0,0
50482,-81.171548117155,3,1,0,77,0,0
50565,-80.766028309742,3,1,0,77,0,0
50732,-79.967023907667,3,1,0,78,0,0
50899,-79.183673469388,3,1,0,78,0,0
51065,-78.415521422797,3,1,0,79,0,0
51121,-78.162771958098,3,1,0,79,0,0
51177,-77.911646586345,3,1,0,79,0,0
51232,-77.662129703763,3,1,0,79,0,0
51399,-76.923076923077,3,1,0,80,0,0
52732,-77.165354330709,3,1,0,78,0,0
52815,-77.901430842607,3,1,0,79,0,0
52899,-78.651685393258,3,1,0,80,0,0
52982,-79.416531604538,3,1,0,81,0,0
53065,-80.196399345335,3,1,0,81,0,0
53149,-80.99173553719,3,1,0,82,0,0
53232,-81.803005008347,3,1,0,83,0,0
53315,-82.630691399663,3,1,0,84,0,0
53376,-83.333333333333,4,1,0,84,0,0
53432,-83.910797530553,4,1,0,84,0,0
53487,-84.507042253521,4,1,0,85,0,0
53543,-85.100945566062,4,1,0,85,0,0
53633,-86.024283130974,4,1,0,86,0,0
53709,-86.95652173913,4,1,0,87,0,0
53765,-87.597001183743,4,1,0,88,0,0
53820,-88.235294117647,4,1,0,88,0,0
53876,-88.894821142552,4,1,0,89,0,0
53966,-89.890673505196,4,1,0,90,0,0
54070,-90.909090909091,4,1,0,100,0,1
54404,-76.923076923077,3,1,0,80,0,0
54482,-78.43137254902,3,1,0,80,0,0
54565,-80,3,1,0,80,0,0
54649,-81.632653061225,3,1,0,80,0,0
54732,-83.333333333333,3,1,0,80,0,0
54899,-86.95652173913,3,1,0,80,0,0
54982,-88.888888888889,3,1,0,80,0,0
55065,-90.909090909091,3,1,0,80,0,0
55237,-66.666666666667,3,1,0,100,0,1
55399,-71.942446043166,3,1,0,100,0,1
55570,-77.844311377246,3,1,0,80,0,0
55732,-79.754601226994,3,1,0,80,0,0
55815,-80.745341614907,3,1,0,80,0,0
55899,-81.761006289308,3,1,0,80,0,0
55982,-82.802547770701,3,1,0,80,0,0
56065,-83.870967741936,3,1,0,80,0,0
56232,-86.092715231788,3,1,0,80,0,0
56315,-87.248322147651,3,1,0,80,0,0
56399,-88.43537414966,3,1,0,80,0,0
56482,-89.655172413793,3,1,0,80,0,0
56565,-90.909090909091,3,1,0,80,0,0
56737,-76.923076923077,3,1,0,80,0,1
57070,-76.923076923077,3,1,0,80,0,0
57904,-66.666666666667,3,1,0,100,0,1
58065,-71.428571428571,3,1,0,100,0,1
58237,-76.923076923077,3,1,0,80,0,0
59404,-66.666666666667,3,1,0,100,0,1
59737,-77.399380804954,3,1,0,80,0,0
59899,-80.385852090032,3,1,0,80,0,0
59982,-81.967213114754,3,1,0,80,0,0
60065,-83.612040133779,3,1,0,80,0,0
60149,-85.324232081911,3,1,0,80,0,0
60232,-87.108013937282,3,1,0,80,0,0
60288,-88.339222614841,3,1,0,80,0,0
60343,-89.605734767025,3,1,0,80,0,0
60399,-90.909090909091,3,1,0,80,0,0
60570,-66.666666666667,3,1,0,100,0,1
60732,-71.942446043166,3,1,0,100,0,1
60904,-77.844311377246,3,1,0,80,0,0
60982,-78.787878787879,3,1,0,80,0,0
61065,-79.754601226994,3,1,0,80,0,0
61149,-80.745341614907,3,1,0,80,0,0
61232,-81.761006289308,3,1,0,80,0,0
61315,-82.802547770701,3,1,0,80,0,0
61399,-83.870967741936,3,1,0,80,0,0
61565,-86.092715231788,3,1,0,80,0,0
61649,-87.248322147651,3,1,0,80,0,0
61732,-88.43537414966,3,1,0,80,0,0
61815,-89.655172413793,3,1,0,80,0,0
61899,-90.909090909091,3,1,0,80,0,0
62070,-76.923076923077,3,1,0,80,0,1
64404,-76.923076923077,3,1,0,80,0,0
64737,-66.666666666667,3,1,0,100,0,1
65070,-78.260869565217,3,1,0,80,0,0
65149,-79.646017699115,3,1,0,80,0,0
65232,-81.081081081081,3,1,0,80,0,0
65315,-82.56880733945,3,1,0,80,0,0
65399,-84.11214953271,3,1,0,80,0,0
65565,-87.378640776699,3,1,0,80,0,0
65649,-89.108910891089,3,1,0,80,0,0
65732,-90.909090909091,3,1,0,80,0,0
65904,-66.666666666667,3,1,0,100,0,1
66065,-71.428571428571,3,1,0,100,0,1
66237,-76.923076923077,3,1,0,80,0,0
66315,-78.224101479915,3,1,0,80,0,0
66399,-79.229122055674,3,1,0,80,0,0
66482,-80.260303687636,3,1,0,80,0,0
66565,-81.318681318681,3,1,0,80,0,0
66649,-82.405345211581,3,1,0,80,0,0
66732,-83.52144469526,3,1,0,80,0,0
66899,-85.84686774942,3,1,0,80,0,0
66954,-86.651053864169,3,1,0,80,0,0
67010,-87.470449172577,3,1,0,80,0,0
67065,-88.305489260143,3,1,0,80,0,0
67149,-89.588377723971,3,1,0,80,0,0
67232,-90.909090909091,3,1,0,80,0,0
67404,-89.108910891089,3,1,0,40,0,1
67482,-87.378640776699,3,1,0,45,0,1
67565,-85.714285714286,3,1,0,50,0,1
67649,-84.11214953271,3,1,0,55,0,1
67732,-82.56880733945,3,1,0,60,0,1
67815,-81.081081081081,3,1,0,65,0,1
67899,-79.646017699115,3,1,0,70,0,1
67982,-78.260869565217,3,1,0,75,0,1
68070,-76.923076923077,3,1,0,80,0,0
68570,-66.666666666667,3,1,0,100,0,1
68732,-71.428571428571,3,1,0,100,0,1
68904,-76.923076923077,3,1,0,80,0,0
70070,-66.666666666667,3,1,0,100,0,1
71737,-68.702290076336,3,1,0,80,0,0
71815,-70.866141732283,3,1,0,80,0,0
71899,-73.170731707317,3,1,0,80,0,0
71982,-75.63025210084,3,1,0,80,0,0
72065,-78.260869565217,3,1,0,80,0,0
72149,-81.081081081081,3,1,0,80,0,0
72232,-84.11214953271,3,1,0,80,0,0
72315,-87.378640776699,3,1,0,80,0,0
72399,-90.909090909091,3,1,0,100,0,0
72737,-76.923076923077,3,1,0,80,0,1
76732,-77.981651376147,3,1,0,80,0,1
76815,-79.069767441861,3,1,0,80,0,1
76899,-80.188679245283,3,1,0,80,0,1
76982,-81.33971291866,3,1,0,80,0,1
77065,-82.52427184466,3,1,0,80,0,1
77149,-83.743842364532,3,1,0,80,0,1
77232,-85,3,1,0,80,0,1
77315,-86.294416243655,3,1,0,80,0,1
77399,-87.628865979381,3,1,0,80,0,1
77482,-89.005235602094,3,1,0,80,0,1
77565,-90.425531914894,3,1,0,80,0,1
77649,-91.891891891892,3,1,0,80,0,1
77732,-93.406593406593,3,1,0,80,0,1
77815,-94.972067039106,3,1,0,80,0,1
77899,-96.590909090909,3,1,0,80,0,1
77982,-98.265895953757,3,1,0,80,0,1
78070,-100,3,1,0,80,0,0
78565,-100,3,1,0,60,0,0
87565,-100.671140939597,3,1,0,60,0,0
87732,-102.040816326531,3,1,0,57,0,0
87899,-103.448275862069,3,1,0,54,0,0
88065,-104.895104895105,3,1,0,51,0,0
88232,-106.382978723404,3,1,0,49,0,0
88399,-107.913669064748,3,1,0,46,0,0
88565,-109.489051094891,3,1,0,43,0,0
88732,-111.111111111111,3,1,0,40,0,0
97399,-110.132158590308,3,1,0,40,0,0
97649,-107.296137339056,3,1,0,43,0,0
97899,-104.602510460251,3,1,0,45,0,0
98149,-102.040816326531,3,1,0,48,0,0
98399,-99.601593625498,3,1,0,51,0,0
98649,-97.27626459144,3,1,0,54,0,0
98899,-95.057034220532,3,1,0,56,0,0
99065,-93.632958801498,3,1,0,58,0,0
99232,-92.250922509225,3,1,0,60,0,0
99399,-90.909090909091,3,1,0,80,0,0
99565,-90.909090909091,3,1,0,70,0,0
104899,-90.858416945373,3,1,0,70,0,0
104982,-90.70673344463,3,1,0,70,0,0
105065,-90.555555555556,3,1,0,71,0,0
105232,-90.254706533776,3,1,0,72,0,0
105399,-89.955849889625,3,1,0,72,0,0
105482,-89.807162534435,3,1,0,73,0,0
105565,-89.65896589659,3,1,0,73,0,0
105732,-89.364035087719,3,1,0,74,0,0
105899,-89.071038251366,3,1,0,75,0,0
105982,-88.925259138025,3,1,0,75,0,0
106065,-88.779956427015,3,1,0,75,0,0
106232,-88.490770901194,3,1,0,76,0,0
106399,-88.203463203463,3,1,0,77,0,0
106482,-88.060507833603,3,1,0,77,0,0
106565,-87.918015102481,3,1,0,78,0,0
106649,-87.775982767905,3,1,0,78,0,0
106732,-87.634408602151,3,1,0,78,0,0
106899,-87.352625937835,3,1,0,79,0,0
106982,-87.21241305511,3,1,0,79,0,0
107065,-87.07264957265,3,1,0,80,0,0
107149,-86.933333333333,3,1,0,80,0,0
107232,-86.794462193823,3,1,0,81,0,0
107315,-86.656034024455,3,1,0,81,0,0
107399,-86.518046709129,3,1,0,81,0,0
107565,-86.243386243386,3,1,0,82,0,0
107732,-85.970464135021,3,1,0,83,0,0
107815,-85.834649815693,3,1,0,83,0,0
107899,-85.699263932702,3,1,0,84,0,0
107982,-85.564304461942,3,1,0,84,0,0
108065,-85.429769392034,3,1,0,84,0,0
108232,-85.161964472309,3,1,0,85,0,0
108399,-84.895833333333,3,1,0,86,0,0
108482,-84.763390535621,3,1,0,86,0,0
108565,-84.631360332295,3,1,0,87,0,0
108649,-84.499740798341,3,1,0,87,0,0
108732,-84.368530020704,3,1,0,87,0,0
108788,-84.281282316443,3,1,0,88,0,0
108843,-84.194214876033,3,1,0,88,0,0
108899,-84.107327141383,3,1,0,88,0,0
108982,-83.97733127254,3,1,0,88,0,0
109065,-83.847736625514,3,1,0,89,0,0
109121,-83.761562178828,3,1,0,89,0,0
109177,-83.675564681725,3,1,0,89,0,0
109232,-83.589743589744,3,1,0,90,0,0
109315,-83.461341525858,3,1,0,90,0,0
109399,-83.333333333333,3,1,0,100,0,0
110399,-83.333333333333,3,1,0,80,0,0
111232,-83.333333333333,3,1,0,100,0,0
111565,-83.333333333333,3,1,0,80,0,0
112399,-83.333333333333,3,1,0,100,0,0
112899,-83.333333333333,3,1,0,80,0,0
113899,-83.333333333333,3,1,0,100,0,0
114232,-83.333333333333,3,1,0,80,0,0
115399,-83.333333333333,3,1,0,100,0,0
115565,-83.333333333333,3,1,0,80,0,0
116565,-83.333333333333,3,1,0,100,0,0
116899,-83.333333333333,3,1,0,80,0,0
117732,-83.333333333333,3,1,0,100,0,0
118232,-83.333333333333,3,1,0,80,0,0
118565,-83.333333333333,3,1,0,100,0,0
118732,-83.333333333333,3,1,0,80,0,0
119232,-83.333333333333,3,1,0,100,0,0
119565,-81.818181818182,3,1,0,80,0,0
119732,-81.081081081081,3,1,0,80,0,0
119899,-80.357142857143,3,1,0,80,0,0
119982,-80,3,1,0,81,0,0
120065,-79.646017699115,3,1,0,82,0,0
120149,-79.295154185022,3,1,0,83,0,0
120232,-78.947368421053,3,1,0,84,0,0
120315,-78.602620087336,3,1,0,85,0,0
120399,-78.260869565217,3,1,0,86,0,0
120482,-77.922077922078,3,1,0,87,0,0
120565,-77.586206896552,3,1,0,88,0,0
120649,-77.25321888412,3,1,0,89,0,0
120737,-76.923076923077,3,1,0,90,0,1
128732,-76.923076923077,3,1,0,100,0,1
128899,-76.923076923077,3,1,0,90,0,1
129899,-76.923076923077,3,1,0,100,0,1
130065,-76.923076923077,3,1,0,90,0,1
131404,-76.923076923077,3,1,0,100,0,0
132732,-86.95652173913,3,1,0,80,0,0
133732,-100,3,1,0,40,0,0
134070,333.333333333333,3,1,0,40,1,0
134070,-100,4,1,0,40,0,0
134403,-100.886540474419,4,1,0,40,0,0
134570,-101.337086558761,4,1,0,40,0,0
134736,-101.7889406316,4,1,0,40,0,0
135070,-102.710413694722,4,1,0,40,0,0
135403,-103.64588806532,4,1,0,40,0,0
135736,-104.598559445395,4,1,0,40,0,0
136070,351.906158357771,3,1,0,40,1,0
136421,370.37037037037,3,1,0,40,1,8
136606,-97.815169696168,4,1,0,40,0,0
136791,-98.692046731359,4,1,0,40,0,0
136976,-99.58478774174,4,1,0,40,0,0
137161,368.550368550369,3,1,0,40,1,0
137161,-100,4,1,0,40,0,0
137898,-106.45472061657,4,1,0,40,0,0
138082,-108.198326508813,4,1,0,40,0,0
138266,405.405405405405,3,1,0,40,1,0
138266,-100,4,1,0,40,0,0
138671,-104.221730619998,4,1,0,40,0,0
138874,-106.474820143885,4,1,0,40,0,0
139076,-108.815633540523,4,1,0,40,0,0
139482,461.538461538462,3,1,0,40,1,0
140866,451.127819548872,3,1,0,40,1,0
140866,-102.307692307692,4,1,0,40,0,0
142219,468.75,3,1,0,30,1,0
142219,-125,3,1,0,30,0,0

[HitObjects]
256,192,3738,5,0,0:0:0:0:
256,192,3905,1,0,0:0:0:0:
256,192,4071,1,8,0:0:0:0:
256,192,4405,1,8,0:0:0:0:
256,192,4571,1,8,0:0:0:0:
256,192,4738,1,0,0:0:0:0:
256,192,5071,1,8,0:0:0:0:
256,192,5405,1,0,0:0:0:0:
256,192,5738,1,8,0:0:0:0:
256,192,6071,1,8,0:0:0:0:
256,192,6571,1,8,0:0:0:0:
256,192,6738,1,8,0:0:0:0:
256,192,6905,1,0,0:0:0:0:
256,192,7071,1,0,0:0:0:0:
256,192,7738,1,0,0:0:0:0:
256,192,7905,1,0,0:0:0:0:
256,192,8071,1,8,0:0:0:0:
256,192,8405,1,8,0:0:0:0:
256,192,8571,1,8,0:0:0:0:
256,192,8738,1,0,0:0:0:0:
256,192,9071,1,8,0:0:0:0:
256,192,9405,1,0,0:0:0:0:
256,192,9738,1,8,0:0:0:0:
256,192,10071,1,0,0:0:0:0:
256,192,10738,1,0,0:0:0:0:
256,192,10905,1,8,0:0:0:0:
256,192,11071,1,8,0:0:0:0:
256,192,11238,1,0,0:0:0:0:
256,192,11321,1,0,0:0:0:0:
256,192,11405,1,8,0:0:0:0:
256,192,11571,1,0,0:0:0:0:
256,192,11655,1,0,0:0:0:0:
256,192,11738,1,8,0:0:0:0:
256,192,11821,1,0,0:0:0:0:
256,192,11905,1,8,0:0:0:0:
256,192,11988,1,8,0:0:0:0:
256,192,12071,1,4,0:0:0:0:
256,192,12571,1,8,0:0:0:0:
256,192,12738,1,0,0:0:0:0:
256,192,12905,1,0,0:0:0:0:
256,192,12988,1,0,0:0:0:0:
256,192,13071,1,8,0:0:0:0:
256,192,13405,1,8,0:0:0:0:
256,192,13571,1,0,0:0:0:0:
256,192,13655,1,0,0:0:0:0:
256,192,13738,1,8,0:0:0:0:
256,192,13905,1,8,0:0:0:0:
256,192,14071,1,0,0:0:0:0:
256,192,14571,1,8,0:0:0:0:
256,192,14738,1,0,0:0:0:0:
256,192,14905,1,0,0:0:0:0:
256,192,14988,1,0,0:0:0:0:
256,192,15071,1,8,0:0:0:0:
256,192,15238,1,0,0:0:0:0:
256,192,15405,1,8,0:0:0:0:
256,192,15571,1,8,0:0:0:0:
256,192,15655,1,0,0:0:0:0:
256,192,15738,1,8,0:0:0:0:
256,192,15905,1,0,0:0:0:0:
256,192,16071,1,8,0:0:0:0:
256,192,16571,1,0,0:0:0:0:
256,192,16738,1,8,0:0:0:0:
256,192,16905,1,0,0:0:0:0:
256,192,16988,1,0,0:0:0:0:
256,192,17071,1,8,0:0:0:0:
256,192,17405,1,8,0:0:0:0:
256,192,17571,1,0,0:0:0:0:
256,192,17738,1,8,0:0:0:0:
256,192,17905,1,0,0:0:0:0:
256,192,17988,1,0,0:0:0:0:
256,192,18071,1,8,0:0:0:0:
256,192,18155,1,0,0:0:0:0:
256,192,18238,1,0,0:0:0:0:
256,192,18321,1,0,0:0:0:0:
256,192,18405,1,8,0:0:0:0:
256,192,18488,1,8,0:0:0:0:
256,192,18571,1,0,0:0:0:0:
256,192,18655,1,0,0:0:0:0:
256,192,18738,1,8,0:0:0:0:
256,192,18821,1,0,0:0:0:0:
256,192,18905,1,8,0:0:0:0:
256,192,18988,1,8,0:0:0:0:
256,192,19071,1,8,0:0:0:0:
256,192,19238,1,0,0:0:0:0:
256,192,19321,1,0,0:0:0:0:
256,192,19405,1,8,0:0:0:0:
256,192,19488,1,0,0:0:0:0:
256,192,19571,1,8,0:0:0:0:
256,192,19655,1,0,0:0:0:0:
256,192,19738,1,8,0:0:0:0:
256,192,19821,1,8,0:0:0:0:
256,192,19905,1,8,0:0:0:0:
256,192,19988,1,8,0:0:0:0:
256,192,20071,1,0,0:0:0:0:
256,192,20238,1,8,0:0:0:0:
256,192,20321,1,8,0:0:0:0:
256,192,20405,1,0,0:0:0:0:
256,192,20571,1,0,0:0:0:0:
256,192,20738,1,8,0:0:0:0:
256,192,20821,1,0,0:0:0:0:
256,192,20905,1,0,0:0:0:0:
256,192,21071,1,8,0:0:0:0:
256,192,21238,1,0,0:0:0:0:
256,192,21321,1,0,0:0:0:0:
256,192,21405,1,8,0:0:0:0:
256,192,21488,1,0,0:0:0:0:
256,192,21571,1,8,0:0:0:0:
256,192,21655,1,8,0:0:0:0:
256,192,21738,1,0,0:0:0:0:
256,192,21821,1,0,0:0:0:0:
256,192,21905,1,8,0:0:0:0:
256,192,21988,1,0,0:0:0:0:
256,192,22071,1,12,0:0:0:0:
256,192,22237,1,0,0:0:0:0:
256,192,22321,1,0,0:0:0:0:
256,192,22404,1,0,0:0:0:0:
256,192,22571,1,8,0:0:0:0:
256,192,22737,1,0,0:0:0:0:
256,192,22904,1,0,0:0:0:0:
256,192,23071,1,8,0:0:0:0:
256,192,23237,1,8,0:0:0:0:
256,192,23404,1,0,0:0:0:0:
256,192,23571,1,0,0:0:0:0:
256,192,23654,1,8,0:0:0:0:
256,192,23737,1,0,0:0:0:0:
256,192,23904,1,0,0:0:0:0:
256,192,24070,1,8,0:0:0:0:
256,192,24237,1,0,0:0:0:0:
256,192,24404,1,8,0:0:0:0:
256,192,24570,1,0,0:0:0:0:
256,192,24626,1,8,0:0:0:0:
256,192,24682,1,8,0:0:0:0:
256,192,24737,1,0,0:0:0:0:
256,192,24904,1,0,0:0:0:0:
256,192,24987,1,0,0:0:0:0:
256,192,25070,1,8,0:0:0:0:
256,192,25237,1,8,0:0:0:0:
256,192,25404,1,0,0:0:0:0:
256,192,25570,1,0,0:0:0:0:
256,192,25737,1,8,0:0:0:0:
256,192,25904,1,8,0:0:0:0:
256,192,26070,1,0,0:0:0:0:
256,192,26237,1,8,0:0:0:0:
256,192,26293,1,0,0:0:0:0:
256,192,26348,1,0,0:0:0:0:
256,192,26404,1,8,0:0:0:0:
256,192,26570,1,8,0:0:0:0:
256,192,26654,1,8,0:0:0:0:
256,192,26737,1,0,0:0:0:0:
256,192,26904,1,0,0:0:0:0:
256,192,27070,1,8,0:0:0:0:
256,192,27237,1,0,0:0:0:0:
256,192,27320,1,8,0:0:0:0:
256,192,27404,1,0,0:0:0:0:
256,192,27570,1,0,0:0:0:0:
256,192,27654,1,0,0:0:0:0:
256,192,27737,1,8,0:0:0:0:
256,192,27904,1,8,0:0:0:0:
256,192,28070,1,0,0:0:0:0:
256,192,28237,1,0,0:0:0:0:
256,192,28404,1,8,0:0:0:0:
256,192,28570,1,8,0:0:0:0:
256,192,28737,1,0,0:0:0:0:
256,192,28904,1,0,0:0:0:0:
256,192,28987,1,0,0:0:0:0:
256,192,29070,1,8,0:0:0:0:
256,192,29154,1,0,0:0:0:0:
256,192,29237,1,0,0:0:0:0:
256,192,29404,1,8,0:0:0:0:
256,192,29570,1,0,0:0:0:0:
256,192,29737,1,8,0:0:0:0:
256,192,29904,1,0,0:0:0:0:
256,192,29959,1,8,0:0:0:0:
256,192,30015,1,8,0:0:0:0:
256,192,30070,1,0,0:0:0:0:
256,192,30237,1,0,0:0:0:0:
256,192,30320,1,0,0:0:0:0:
256,192,30404,1,8,0:0:0:0:
256,192,30570,1,8,0:0:0:0:
256,192,30737,1,0,0:0:0:0:
256,192,30904,1,8,0:0:0:0:
256,192,31070,1,0,0:0:0:0:
256,192,31237,1,8,0:0:0:0:
256,192,31404,1,0,0:0:0:0:
256,192,31487,1,8,0:0:0:0:
256,192,31570,1,0,0:0:0:0:
256,192,31654,1,0,0:0:0:0:
256,192,31737,1,8,0:0:0:0:
256,192,31820,1,8,0:0:0:0:
256,192,31904,1,0,0:0:0:0:
256,192,31987,1,0,0:0:0:0:
256,192,32070,1,8,0:0:0:0:
256,192,32154,1,8,0:0:0:0:
256,192,32237,1,0,0:0:0:0:
256,192,32320,1,0,0:0:0:0:
256,192,32404,1,8,0:0:0:0:
256,192,32487,1,0,0:0:0:0:
256,192,32570,1,0,0:0:0:0:
256,192,32654,1,0,0:0:0:0:
256,192,32737,1,12,0:0:0:0:
256,192,32904,1,0,0:0:0:0:
256,192,32987,1,0,0:0:0:0:
256,192,33070,1,0,0:0:0:0:
256,192,33237,1,8,0:0:0:0:
256,192,33320,1,8,0:0:0:0:
256,192,33404,1,0,0:0:0:0:
256,192,33570,1,0,0:0:0:0:
256,192,33654,1,0,0:0:0:0:
256,192,33737,1,8,0:0:0:0:
256,192,33904,1,8,0:0:0:0:
256,192,34070,1,0,0:0:0:0:
256,192,34237,1,8,0:0:0:0:
256,192,34320,1,8,0:0:0:0:
256,192,34404,1,0,0:0:0:0:
256,192,34570,1,8,0:0:0:0:
256,192,34654,1,0,0:0:0:0:
256,192,34737,1,8,0:0:0:0:
256,192,34904,1,0,0:0:0:0:
256,192,35070,1,8,0:0:0:0:
256,192,35126,1,0,0:0:0:0:
256,192,35182,1,0,0:0:0:0:
256,192,35237,1,8,0:0:0:0:
256,192,35404,1,0,0:0:0:0:
256,192,35570,1,8,0:0:0:0:
256,192,35654,1,8,0:0:0:0:
256,192,35737,1,0,0:0:0:0:
256,192,35904,1,8,0:0:0:0:
256,192,35987,1,8,0:0:0:0:
256,192,36070,1,0,0:0:0:0:
256,192,36237,1,0,0:0:0:0:
256,192,36320,1,0,0:0:0:0:
256,192,36404,1,8,0:0:0:0:
256,192,36570,1,8,0:0:0:0:
256,192,36737,1,0,0:0:0:0:
256,192,36904,1,8,0:0:0:0:
256,192,36987,1,8,0:0:0:0:
256,192,37070,1,0,0:0:0:0:
256,192,37237,1,0,0:0:0:0:
256,192,37404,1,8,0:0:0:0:
256,192,37487,1,0,0:0:0:0:
256,192,37570,1,8,0:0:0:0:
256,192,37654,1,8,0:0:0:0:
256,192,37737,1,0,0:0:0:0:
256,192,37904,1,8,0:0:0:0:
256,192,38070,1,8,0:0:0:0:
256,192,38237,1,0,0:0:0:0:
256,192,38320,1,0,0:0:0:0:
256,192,38404,1,0,0:0:0:0:
256,192,38570,1,8,0:0:0:0:
256,192,38654,1,0,0:0:0:0:
256,192,38737,1,0,0:0:0:0:
256,192,38904,1,8,0:0:0:0:
256,192,38987,1,8,0:0:0:0:
256,192,39070,1,0,0:0:0:0:
256,192,39237,1,8,0:0:0:0:
256,192,39404,1,0,0:0:0:0:
256,192,39570,1,8,0:0:0:0:
256,192,39654,1,8,0:0:0:0:
256,192,39737,1,0,0:0:0:0:
256,192,39904,1,8,0:0:0:0:
256,192,39987,1,0,0:0:0:0:
256,192,40070,1,8,0:0:0:0:
256,192,40237,1,8,0:0:0:0:
256,192,40404,1,0,0:0:0:0:
256,192,40459,1,8,0:0:0:0:
256,192,40515,1,8,0:0:0:0:
256,192,40570,1,0,0:0:0:0:
256,192,40737,1,8,0:0:0:0:
256,192,40904,1,0,0:0:0:0:
256,192,40987,1,0,0:0:0:0:
256,192,41070,1,0,0:0:0:0:
256,192,41237,1,8,0:0:0:0:
256,192,41320,1,8,0:0:0:0:
256,192,41404,1,0,0:0:0:0:
256,192,41570,1,0,0:0:0:0:
256,192,41737,1,8,0:0:0:0:
256,192,41904,1,8,0:0:0:0:
256,192,42070,1,0,0:0:0:0:
256,192,42154,1,0,0:0:0:0:
256,192,42237,1,8,0:0:0:0:
256,192,42320,1,8,0:0:0:0:
256,192,42404,1,0,0:0:0:0:
256,192,42487,1,8,0:0:0:0:
256,192,42570,1,0,0:0:0:0:
256,192,42654,1,0,0:0:0:0:
256,192,42737,1,8,0:0:0:0:
256,192,42820,1,0,0:0:0:0:
256,192,42904,1,8,0:0:0:0:
256,192,42987,1,8,0:0:0:0:
256,192,43070,1,0,0:0:0:0:
256,192,43154,1,8,0:0:0:0:
256,192,43237,1,0,0:0:0:0:
256,192,43320,1,0,0:0:0:0:
256,192,43404,1,12,0:0:0:0:
256,192,43570,1,0,0:0:0:0:
256,192,43654,1,0,0:0:0:0:
256,192,43737,1,0,0:0:0:0:
256,192,43904,1,8,0:0:0:0:
256,192,43987,1,8,0:0:0:0:
256,192,44070,1,0,0:0:0:0:
256,192,44237,1,0,0:0:0:0:
256,192,44320,1,0,0:0:0:0:
256,192,44404,1,8,0:0:0:0:
256,192,44570,1,8,0:0:0:0:
256,192,44737,1,0,0:0:0:0:
256,192,44904,1,8,0:0:0:0:
256,192,44987,1,8,0:0:0:0:
256,192,45070,1,0,0:0:0:0:
256,192,45237,1,8,0:0:0:0:
256,192,45320,1,0,0:0:0:0:
256,192,45404,1,8,0:0:0:0:
256,192,45570,1,0,0:0:0:0:
256,192,45737,1,8,0:0:0:0:
256,192,45793,1,0,0:0:0:0:
256,192,45848,1,0,0:0:0:0:
256,192,45904,1,8,0:0:0:0:
256,192,46070,1,0,0:0:0:0:
256,192,46237,1,8,0:0:0:0:
256,192,46320,1,8,0:0:0:0:
256,192,46404,1,0,0:0:0:0:
256,192,46570,1,8,0:0:0:0:
256,192,46654,1,0,0:0:0:0:
256,192,46737,1,0,0:0:0:0:
256,192,46904,1,8,0:0:0:0:
256,192,46987,1,8,0:0:0:0:
256,192,47070,1,0,0:0:0:0:
256,192,47237,1,8,0:0:0:0:
256,192,47404,1,0,0:0:0:0:
256,192,47570,1,8,0:0:0:0:
256,192,47737,1,0,0:0:0:0:
256,192,47904,1,8,0:0:0:0:
256,192,47987,1,8,0:0:0:0:
256,192,48070,1,0,0:0:0:0:
256,192,48237,1,8,0:0:0:0:
256,192,48320,1,8,0:0:0:0:
256,192,48404,1,0,0:0:0:0:
256,192,48487,1,0,0:0:0:0:
256,192,48570,1,8,0:0:0:0:
256,192,48737,1,12,0:0:0:0:
256,192,48904,1,0,0:0:0:0:
256,192,48987,1,8,0:0:0:0:
256,192,49070,1,0,0:0:0:0:
256,192,49154,1,0,0:0:0:0:
256,192,49237,1,8,0:0:0:0:
256,192,49404,1,12,0:0:0:0:
256,192,49570,1,8,0:0:0:0:
256,192,49654,1,8,0:0:0:0:
256,192,49737,1,0,0:0:0:0:
256,192,49820,1,0,0:0:0:0:
256,192,49904,1,8,0:0:0:0:
256,192,50070,1,12,0:0:0:0:
256,192,50237,1,0,0:0:0:0:
256,192,50320,1,8,0:0:0:0:
256,192,50404,1,0,0:0:0:0:
256,192,50487,1,0,0:0:0:0:
256,192,50570,1,8,0:0:0:0:
256,192,50737,1,12,0:0:0:0:
256,192,50904,1,0,0:0:0:0:
256,192,51070,1,0,0:0:0:0:
256,192,51126,1,8,0:0:0:0:
256,192,51182,1,8,0:0:0:0:
256,192,51237,1,0,0:0:0:0:
256,192,51404,5,0,0:0:0:0:
256,192,51487,1,0,0:0:0:0:
256,192,51570,1,8,0:0:0:0:
256,192,51654,1,8,0:0:0:0:
256,192,51737,1,0,0:0:0:0:
256,192,51820,1,8,0:0:0:0:
256,192,51904,1,0,0:0:0:0:
256,192,51987,1,0,0:0:0:0:
256,192,52070,1,8,0:0:0:0:
256,192,52154,1,0,0:0:0:0:
256,192,52237,1,0,0:0:0:0:
256,192,52320,1,8,0:0:0:0:
256,192,52404,1,0,0:0:0:0:
256,192,52487,1,0,0:0:0:0:
256,192,52570,1,8,0:0:0:0:
256,192,52654,1,0,0:0:0:0:
256,192,52737,1,8,0:0:0:0:
256,192,52820,1,8,0:0:0:0:
256,192,52904,1,0,0:0:0:0:
256,192,52987,1,0,0:0:0:0:
256,192,53070,1,8,0:0:0:0:
256,192,53154,1,0,0:0:0:0:
256,192,53237,1,8,0:0:0:0:
256,192,53320,1,8,0:0:0:0:
256,192,53404,1,0,0:0:0:0:
256,192,53459,1,0,0:0:0:0:
256,192,53515,1,0,0:0:0:0:
256,192,53570,1,8,0:0:0:0:
256,192,53654,1,8,0:0:0:0:
256,192,53737,1,0,0:0:0:0:
256,192,53793,1,0,0:0:0:0:
256,192,53848,1,0,0:0:0:0:
256,192,53904,1,8,0:0:0:0:
256,192,53987,1,8,0:0:0:0:
256,192,54070,1,4,0:0:0:0:
256,192,54404,1,8,0:0:0:0:
256,192,54487,1,0,0:0:0:0:
256,192,54570,1,0,0:0:0:0:
256,192,54654,1,8,0:0:0:0:
256,192,54737,1,0,0:0:0:0:
256,192,54904,1,8,0:0:0:0:
256,192,54987,1,8,0:0:0:0:
256,192,55070,1,0,0:0:0:0:
256,192,55237,1,12,0:0:0:0:
256,192,55570,1,0,0:0:0:0:
256,192,55737,1,8,0:0:0:0:
256,192,55820,1,0,0:0:0:0:
256,192,55904,1,0,0:0:0:0:
256,192,55987,1,0,0:0:0:0:
256,192,56070,1,8,0:0:0:0:
256,192,56237,1,0,0:0:0:0:
256,192,56320,1,8,0:0:0:0:
256,192,56404,1,0,0:0:0:0:
256,192,56487,1,0,0:0:0:0:
256,192,56570,1,8,0:0:0:0:
256,192,56737,1,0,0:0:0:0:
256,192,56820,1,8,0:0:0:0:
256,192,56987,1,8,0:0:0:0:
256,192,57070,1,0,0:0:0:0:
256,192,57154,1,8,0:0:0:0:
256,192,57237,1,8,0:0:0:0:
256,192,57320,1,8,0:0:0:0:
256,192,57404,1,0,0:0:0:0:
256,192,57445,1,0,0:0:0:0:
256,192,57570,1,8,0:0:0:0:
256,192,57654,1,0,0:0:0:0:
256,192,57737,1,8,0:0:0:0:
256,192,57779,1,8,0:0:0:0:
256,192,57904,1,4,0:0:0:0:
256,192,58237,1,8,0:0:0:0:
256,192,58404,1,0,0:0:0:0:
256,192,58487,1,8,0:0:0:0:
256,192,58654,1,8,0:0:0:0:
256,192,58820,1,8,0:0:0:0:
256,192,58904,1,0,0:0:0:0:
256,192,59070,1,8,0:0:0:0:
256,192,59112,1,8,0:0:0:0:
256,192,59237,1,8,0:0:0:0:
256,192,59279,1,8,0:0:0:0:
256,192,59404,1,4,0:0:0:0:
256,192,59737,5,8,0:0:0:0:
256,192,59904,1,0,0:0:0:0:
256,192,59987,1,8,0:0:0:0:
256,192,60070,1,0,0:0:0:0:
256,192,60154,1,0,0:0:0:0:
256,192,60237,1,8,0:0:0:0:
256,192,60293,1,0,0:0:0:0:
256,192,60348,1,0,0:0:0:0:
256,192,60404,1,8,0:0:0:0:
256,192,60570,1,12,0:0:0:0:
256,192,60904,1,8,0:0:0:0:
256,192,60987,1,0,0:0:0:0:
256,192,61070,1,8,0:0:0:0:
256,192,61154,1,0,0:0:0:0:
256,192,61237,1,8,0:0:0:0:
256,192,61320,1,8,0:0:0:0:
256,192,61404,1,0,0:0:0:0:
256,192,61570,1,8,0:0:0:0:
256,192,61654,1,8,0:0:0:0:
256,192,61737,1,0,0:0:0:0:
256,192,61820,1,0,0:0:0:0:
256,192,61904,1,8,0:0:0:0:
256,192,62070,1,12,0:0:0:0:
256,192,62237,1,0,0:0:0:0:
256,192,62320,1,0,0:0:0:0:
256,192,62404,1,0,0:0:0:0:
256,192,62570,1,12,0:0:0:0:
256,192,62737,1,0,0:0:0:0:
256,192,62820,1,0,0:0:0:0:
256,192,62904,1,0,0:0:0:0:
256,192,63070,1,12,0:0:0:0:
256,192,63237,1,0,0:0:0:0:
256,192,63320,1,0,0:0:0:0:
256,192,63404,1,0,0:0:0:0:
256,192,63487,1,0,0:0:0:0:
256,192,63570,1,8,0:0:0:0:
256,192,63654,1,0,0:0:0:0:
256,192,63737,1,8,0:0:0:0:
256,192,63820,1,8,0:0:0:0:
256,192,63904,1,0,0:0:0:0:
256,192,63987,1,0,0:0:0:0:
256,192,64070,1,8,0:0:0:0:
256,192,64154,1,8,0:0:0:0:
256,192,64237,1,0,0:0:0:0:
256,192,64320,1,0,0:0:0:0:
256,192,64404,1,8,0:0:0:0:
256,192,64737,1,4,0:0:0:0:
256,192,65070,5,8,0:0:0:0:
256,192,65154,1,0,0:0:0:0:
256,192,65237,1,0,0:0:0:0:
256,192,65320,1,8,0:0:0:0:
256,192,65404,1,0,0:0:0:0:
256,192,65570,1,8,0:0:0:0:
256,192,65654,1,8,0:0:0:0:
256,192,65737,1,0,0:0:0:0:
256,192,65904,1,12,0:0:0:0:
256,192,66237,1,8,0:0:0:0:
256,192,66320,1,0,0:0:0:0:
256,192,66404,1,8,0:0:0:0:
256,192,66487,1,8,0:0:0:0:
256,192,66570,1,0,0:0:0:0:
256,192,66654,1,0,0:0:0:0:
256,192,66737,1,8,0:0:0:0:
256,192,66904,1,0,0:0:0:0:
256,192,66959,1,8,0:0:0:0:
256,192,67015,1,8,0:0:0:0:
256,192,67070,1,0,0:0:0:0:
256,192,67154,1,0,0:0:0:0:
256,192,67237,1,8,0:0:0:0:
256,192,67404,1,8,0:0:0:0:
256,192,67487,1,8,0:0:0:0:
256,192,67570,1,8,0:0:0:0:
256,192,67654,1,8,0:0:0:0:
256,192,67737,1,8,0:0:0:0:
256,192,67820,1,8,0:0:0:0:
256,192,67904,1,8,0:0:0:0:
256,192,67987,1,8,0:0:0:0:
256,192,68070,1,0,0:0:0:0:
256,192,68112,1,0,0:0:0:0:
256,192,68237,1,8,0:0:0:0:
256,192,68320,1,0,0:0:0:0:
256,192,68404,1,8,0:0:0:0:
256,192,68445,1,8,0:0:0:0:
256,192,68570,1,4,0:0:0:0:
256,192,68904,1,8,0:0:0:0:
256,192,68987,1,8,0:0:0:0:
256,192,69070,1,0,0:0:0:0:
256,192,69154,1,8,0:0:0:0:
256,192,69320,1,0,0:0:0:0:
256,192,69487,1,8,0:0:0:0:
256,192,69570,1,8,0:0:0:0:
256,192,69654,1,8,0:0:0:0:
256,192,69737,1,0,0:0:0:0:
256,192,69779,1,0,0:0:0:0:
256,192,69904,1,8,0:0:0:0:
256,192,69945,1,8,0:0:0:0:
256,192,70070,1,4,0:0:0:0:
256,192,70404,1,12,0:0:0:0:
256,192,70654,1,12,0:0:0:0:
256,192,70820,1,12,0:0:0:0:
256,192,70904,1,12,0:0:0:0:
256,192,71070,1,12,0:0:0:0:
256,192,71237,1,12,0:0:0:0:
256,192,71404,1,12,0:0:0:0:
256,192,71737,1,8,0:0:0:0:
256,192,71820,1,0,0:0:0:0:
256,192,71904,1,8,0:0:0:0:
256,192,71987,1,0,0:0:0:0:
256,192,72070,1,8,0:0:0:0:
256,192,72154,1,8,0:0:0:0:
256,192,72237,1,0,0:0:0:0:
256,192,72320,1,8,0:0:0:0:
256,192,72404,1,4,0:0:0:0:
256,192,72737,1,12,0:0:0:0:
256,192,72904,1,0,0:0:0:0:
256,192,72987,1,0,0:0:0:0:
256,192,73070,1,0,0:0:0:0:
256,192,73237,1,12,0:0:0:0:
256,192,73404,1,0,0:0:0:0:
256,192,73487,1,0,0:0:0:0:
256,192,73570,1,0,0:0:0:0:
256,192,73737,1,12,0:0:0:0:
256,192,73904,1,0,0:0:0:0:
256,192,73987,1,0,0:0:0:0:
256,192,74070,1,0,0:0:0:0:
256,192,74237,1,12,0:0:0:0:
256,192,74404,1,0,0:0:0:0:
256,192,74487,1,0,0:0:0:0:
256,192,74570,1,8,0:0:0:0:
256,192,74737,1,12,0:0:0:0:
256,192,74904,1,0,0:0:0:0:
256,192,74987,1,0,0:0:0:0:
256,192,75070,1,8,0:0:0:0:
256,192,75237,1,12,0:0:0:0:
256,192,75404,1,0,0:0:0:0:
256,192,75487,1,0,0:0:0:0:
256,192,75570,1,8,0:0:0:0:
256,192,75654,1,0,0:0:0:0:
256,192,75737,1,8,0:0:0:0:
256,192,75820,1,8,0:0:0:0:
256,192,75904,1,0,0:0:0:0:
256,192,75987,1,8,0:0:0:0:
256,192,76070,1,0,0:0:0:0:
256,192,76154,1,0,0:0:0:0:
256,192,76237,1,8,0:0:0:0:
256,192,76320,1,0,0:0:0:0:
256,192,76404,1,8,0:0:0:0:
256,192,76487,1,8,0:0:0:0:
256,192,76570,1,0,0:0:0:0:
256,192,76737,1,8,0:0:0:0:
256,192,76820,1,0,0:0:0:0:
256,192,76904,1,8,0:0:0:0:
256,192,76987,1,8,0:0:0:0:
256,192,77070,1,0,0:0:0:0:
256,192,77154,1,0,0:0:0:0:
256,192,77237,1,8,0:0:0:0:
256,192,77320,1,0,0:0:0:0:
256,192,77404,1,8,0:0:0:0:
256,192,77487,1,8,0:0:0:0:
256,192,77570,1,8,0:0:0:0:
256,192,77654,1,0,0:0:0:0:
256,192,77737,1,8,0:0:0:0:
256,192,77820,1,8,0:0:0:0:
256,192,77904,1,0,0:0:0:0:
256,192,77987,1,0,0:0:0:0:
256,192,78070,1,12,0:0:0:0:
256,192,78570,1,0,0:0:0:0:
256,192,78904,1,0,0:0:0:0:
256,192,79070,1,8,0:0:0:0:
256,192,79237,1,8,0:0:0:0:
256,192,79904,1,8,0:0:0:0:
256,192,80070,1,8,0:0:0:0:
256,192,80237,1,0,0:0:0:0:
256,192,80404,1,8,0:0:0:0:
256,192,80459,1,0,0:0:0:0:
256,192,80515,1,0,0:0:0:0:
256,192,80570,1,8,0:0:0:0:
256,192,80737,1,0,0:0:0:0:
256,192,80904,1,8,0:0:0:0:
256,192,81237,1,0,0:0:0:0:
256,192,81570,1,0,0:0:0:0:
256,192,81737,1,0,0:0:0:0:
256,192,81904,1,8,0:0:0:0:
256,192,82070,1,0,0:0:0:0:
256,192,82237,1,8,0:0:0:0:
256,192,82404,1,0,0:0:0:0:
256,192,82570,1,0,0:0:0:0:
256,192,82737,1,8,0:0:0:0:
256,192,82904,1,8,0:0:0:0:
256,192,83070,1,0,0:0:0:0:
256,192,83237,1,8,0:0:0:0:
256,192,83404,1,0,0:0:0:0:
256,192,83904,1,8,0:0:0:0:
256,192,84237,1,8,0:0:0:0:
256,192,84404,1,0,0:0:0:0:
256,192,84570,1,8,0:0:0:0:
256,192,85237,1,8,0:0:0:0:
256,192,85404,1,8,0:0:0:0:
256,192,85570,1,0,0:0:0:0:
256,192,85737,1,0,0:0:0:0:
256,192,85793,1,8,0:0:0:0:
256,192,85848,1,8,0:0:0:0:
256,192,85904,1,0,0:0:0:0:
256,192,86070,1,0,0:0:0:0:
256,192,86237,1,8,0:0:0:0:
256,192,86570,1,0,0:0:0:0:
256,192,86904,1,0,0:0:0:0:
256,192,87070,1,8,0:0:0:0:
256,192,87237,1,0,0:0:0:0:
256,192,87570,1,8,0:0:0:0:
256,192,87737,1,0,0:0:0:0:
256,192,87904,1,8,0:0:0:0:
256,192,88070,1,8,0:0:0:0:
256,192,88237,1,0,0:0:0:0:
256,192,88404,1,0,0:0:0:0:
256,192,88570,1,8,0:0:0:0:
256,192,88737,1,0,0:0:0:0:
256,192,89404,1,8,0:0:0:0:
256,192,89654,1,0,0:0:0:0:
256,192,89904,1,0,0:0:0:0:
256,192,89987,1,0,0:0:0:0:
256,192,90070,1,8,0:0:0:0:
256,192,90570,1,0,0:0:0:0:
256,192,91070,1,8,0:0:0:0:
256,192,91404,1,0,0:0:0:0:
256,192,91904,1,8,0:0:0:0:
256,192,92404,1,8,0:0:0:0:
256,192,92570,1,8,0:0:0:0:
256,192,92737,1,0,0:0:0:0:
256,192,93404,1,8,0:0:0:0:
256,192,93654,1,0,0:0:0:0:
256,192,93904,1,0,0:0:0:0:
256,192,94070,1,8,0:0:0:0:
256,192,94570,1,0,0:0:0:0:
256,192,94904,1,8,0:0:0:0:
256,192,95237,1,8,0:0:0:0:
256,192,95404,1,0,0:0:0:0:
256,192,95904,1,0,0:0:0:0:
256,192,96404,1,8,0:0:0:0:
256,192,96904,1,8,0:0:0:0:
256,192,97404,1,8,0:0:0:0:
256,192,97654,1,0,0:0:0:0:
256,192,97904,1,8,0:0:0:0:
256,192,98154,1,0,0:0:0:0:
256,192,98404,1,8,0:0:0:0:
256,192,98654,1,8,0:0:0:0:
256,192,98904,1,0,0:0:0:0:
256,192,99070,1,8,0:0:0:0:
256,192,99237,1,0,0:0:0:0:
256,192,99404,1,12,0:0:0:0:
256,192,99570,1,0,0:0:0:0:
256,192,99654,1,0,0:0:0:0:
256,192,99737,1,0,0:0:0:0:
256,192,99904,1,8,0:0:0:0:
256,192,100070,1,0,0:0:0:0:
256,192,100154,1,0,0:0:0:0:
256,192,100237,1,0,0:0:0:0:
256,192,100404,1,8,0:0:0:0:
256,192,100570,1,0,0:0:0:0:
256,192,100654,1,0,0:0:0:0:
256,192,100737,1,0,0:0:0:0:
256,192,100904,1,8,0:0:0:0:
256,192,101070,1,0,0:0:0:0:
256,192,101154,1,0,0:0:0:0:
256,192,101237,1,0,0:0:0:0:
256,192,101404,1,8,0:0:0:0:
256,192,101570,1,0,0:0:0:0:
256,192,101654,1,0,0:0:0:0:
256,192,101737,1,8,0:0:0:0:
256,192,101820,1,0,0:0:0:0:
256,192,101904,1,0,0:0:0:0:
256,192,102070,1,8,0:0:0:0:
256,192,102237,1,0,0:0:0:0:
256,192,102320,1,0,0:0:0:0:
256,192,102404,1,0,0:0:0:0:
256,192,102570,1,8,0:0:0:0:
256,192,102737,1,0,0:0:0:0:
256,192,102820,1,0,0:0:0:0:
256,192,102904,1,0,0:0:0:0:
256,192,103070,1,8,0:0:0:0:
256,192,103237,1,0,0:0:0:0:
256,192,103320,1,0,0:0:0:0:
256,192,103404,1,0,0:0:0:0:
256,192,103570,1,8,0:0:0:0:
256,192,103737,1,0,0:0:0:0:
256,192,103820,1,0,0:0:0:0:
256,192,103904,1,0,0:0:0:0:
256,192,104070,1,8,0:0:0:0:
256,192,104237,1,0,0:0:0:0:
256,192,104320,1,8,0:0:0:0:
256,192,104404,1,0,0:0:0:0:
256,192,104487,1,0,0:0:0:0:
256,192,104570,1,8,0:0:0:0:
256,192,104654,1,0,0:0:0:0:
256,192,104737,1,12,0:0:0:0:
256,192,104904,1,0,0:0:0:0:
256,192,104987,1,0,0:0:0:0:
256,192,105070,1,0,0:0:0:0:
256,192,105237,1,8,0:0:0:0:
256,192,105404,1,0,0:0:0:0:
256,192,105487,1,0,0:0:0:0:
256,192,105570,1,8,0:0:0:0:
256,192,105737,1,0,0:0:0:0:
256,192,105904,1,8,0:0:0:0:
256,192,105987,1,0,0:0:0:0:
256,192,106070,1,12,0:0:0:0:
256,192,106237,1,0,0:0:0:0:
256,192,106404,1,0,0:0:0:0:
256,192,106487,1,0,0:0:0:0:
256,192,106570,1,8,0:0:0:0:
256,192,106654,1,0,0:0:0:0:
256,192,106737,1,8,0:0:0:0:
256,192,106904,1,0,0:0:0:0:
256,192,106987,1,8,0:0:0:0:
256,192,107070,1,0,0:0:0:0:
256,192,107154,1,0,0:0:0:0:
256,192,107237,1,8,0:0:0:0:
256,192,107320,1,0,0:0:0:0:
256,192,107404,1,12,0:0:0:0:
256,192,107570,1,0,0:0:0:0:
256,192,107737,1,8,0:0:0:0:
256,192,107820,1,8,0:0:0:0:
256,192,107904,1,0,0:0:0:0:
256,192,107987,1,0,0:0:0:0:
256,192,108070,1,12,0:0:0:0:
256,192,108237,1,0,0:0:0:0:
256,192,108404,1,8,0:0:0:0:
256,192,108487,1,8,0:0:0:0:
256,192,108570,1,0,0:0:0:0:
256,192,108654,1,0,0:0:0:0:
256,192,108737,1,8,0:0:0:0:
256,192,108793,1,0,0:0:0:0:
256,192,108848,1,0,0:0:0:0:
256,192,108904,1,8,0:0:0:0:
256,192,108987,1,0,0:0:0:0:
256,192,109070,1,8,0:0:0:0:
256,192,109126,1,8,0:0:0:0:
256,192,109182,1,8,0:0:0:0:
256,192,109237,1,0,0:0:0:0:
256,192,109320,1,0,0:0:0:0:
256,192,109404,1,12,0:0:0:0:
256,192,110070,1,4,0:0:0:0:
256,192,110404,1,8,0:0:0:0:
256,192,110570,1,0,0:0:0:0:
256,192,110654,1,0,0:0:0:0:
256,192,110737,1,8,0:0:0:0:
256,192,110904,1,0,0:0:0:0:
256,192,110987,1,8,0:0:0:0:
256,192,111070,1,0,0:0:0:0:
256,192,111154,1,0,0:0:0:0:
256,192,111237,1,12,0:0:0:0:
256,192,111570,1,0,0:0:0:0:
256,192,111737,1,8,0:0:0:0:
256,192,111904,1,0,0:0:0:0:
256,192,111987,1,0,0:0:0:0:
256,192,112070,1,8,0:0:0:0:
256,192,112154,1,8,0:0:0:0:
256,192,112237,1,0,0:0:0:0:
256,192,112320,1,0,0:0:0:0:
256,192,112404,1,12,0:0:0:0:
256,192,112737,1,12,0:0:0:0:
256,192,112904,1,0,0:0:0:0:
256,192,112987,1,0,0:0:0:0:
256,192,113070,1,8,0:0:0:0:
256,192,113237,1,8,0:0:0:0:
256,192,113404,1,0,0:0:0:0:
256,192,113487,1,0,0:0:0:0:
256,192,113570,1,8,0:0:0:0:
256,192,113654,1,8,0:0:0:0:
256,192,113737,1,0,0:0:0:0:
256,192,113820,1,0,0:0:0:0:
256,192,113904,1,12,0:0:0:0:
256,192,114237,1,0,0:0:0:0:
256,192,114404,1,8,0:0:0:0:
256,192,114570,1,0,0:0:0:0:
256,192,114654,1,0,0:0:0:0:
256,192,114737,1,8,0:0:0:0:
256,192,114820,1,8,0:0:0:0:
256,192,114904,1,0,0:0:0:0:
256,192,114987,1,8,0:0:0:0:
256,192,115070,1,0,0:0:0:0:
256,192,115154,1,0,0:0:0:0:
256,192,115237,1,8,0:0:0:0:
256,192,115320,1,0,0:0:0:0:
256,192,115404,1,12,0:0:0:0:
256,192,115570,1,0,0:0:0:0:
256,192,115654,1,0,0:0:0:0:
256,192,115737,1,8,0:0:0:0:
256,192,115904,1,0,0:0:0:0:
256,192,115987,1,0,0:0:0:0:
256,192,116070,1,8,0:0:0:0:
256,192,116237,1,0,0:0:0:0:
256,192,116320,1,8,0:0:0:0:
256,192,116404,1,0,0:0:0:0:
256,192,116570,1,12,0:0:0:0:
256,192,116904,1,0,0:0:0:0:
256,192,116987,1,0,0:0:0:0:
256,192,117070,1,8,0:0:0:0:
256,192,117237,1,0,0:0:0:0:
256,192,117320,1,0,0:0:0:0:
256,192,117404,1,8,0:0:0:0:
256,192,117487,1,8,0:0:0:0:
256,192,117570,1,0,0:0:0:0:
256,192,117654,1,0,0:0:0:0:
256,192,117737,1,12,0:0:0:0:
256,192,118070,1,12,0:0:0:0:
256,192,118237,1,0,0:0:0:0:
256,192,118320,1,0,0:0:0:0:
256,192,118404,1,8,0:0:0:0:
256,192,118570,1,12,0:0:0:0:
256,192,118737,1,0,0:0:0:0:
256,192,118820,1,0,0:0:0:0:
256,192,118904,1,8,0:0:0:0:
256,192,118987,1,0,0:0:0:0:
256,192,119070,1,0,0:0:0:0:
256,192,119237,1,12,0:0:0:0:
256,192,119570,5,0,0:0:0:0:
256,192,119737,1,8,0:0:0:0:
256,192,119904,1,0,0:0:0:0:
256,192,119987,1,0,0:0:0:0:
256,192,120070,1,8,0:0:0:0:
256,192,120154,1,8,0:0:0:0:
256,192,120237,1,0,0:0:0:0:
256,192,120320,1,0,0:0:0:0:
256,192,120404,1,8,0:0:0:0:
256,192,120487,1,8,0:0:0:0:
256,192,120570,1,8,0:0:0:0:
256,192,120654,1,0,0:0:0:0:
256,192,120737,5,12,0:0:0:0:
256,192,120904,1,0,0:0:0:0:
256,192,120987,1,0,0:0:0:0:
256,192,121070,1,8,0:0:0:0:
256,192,121237,1,0,0:0:0:0:
256,192,121404,1,8,0:0:0:0:
256,192,121487,1,8,0:0:0:0:
256,192,121570,1,0,0:0:0:0:
256,192,121654,1,8,0:0:0:0:
256,192,121737,1,0,0:0:0:0:
256,192,121820,1,0,0:0:0:0:
256,192,121904,1,8,0:0:0:0:
256,192,122070,1,0,0:0:0:0:
256,192,122237,1,8,0:0:0:0:
256,192,122320,1,8,0:0:0:0:
256,192,122404,1,0,0:0:0:0:
256,192,122487,1,8,0:0:0:0:
256,192,122570,1,0,0:0:0:0:
256,192,122737,1,8,0:0:0:0:
256,192,122820,1,0,0:0:0:0:
256,192,122904,1,0,0:0:0:0:
256,192,122987,1,8,0:0:0:0:
256,192,123070,1,0,0:0:0:0:
256,192,123154,1,0,0:0:0:0:
256,192,123237,1,8,0:0:0:0:
256,192,123404,1,0,0:0:0:0:
256,192,123487,1,8,0:0:0:0:
256,192,123570,1,0,0:0:0:0:
256,192,123654,1,0,0:0:0:0:
256,192,123737,1,8,0:0:0:0:
256,192,123820,1,8,0:0:0:0:
256,192,123904,1,0,0:0:0:0:
256,192,123987,1,0,0:0:0:0:
256,192,124070,1,8,0:0:0:0:
256,192,124154,1,0,0:0:0:0:
256,192,124237,1,8,0:0:0:0:
256,192,124320,1,8,0:0:0:0:
256,192,124404,1,0,0:0:0:0:
256,192,124487,1,0,0:0:0:0:
256,192,124570,1,8,0:0:0:0:
256,192,124654,1,8,0:0:0:0:
256,192,124737,1,0,0:0:0:0:
256,192,124820,1,0,0:0:0:0:
256,192,124904,1,8,0:0:0:0:
256,192,124987,1,0,0:0:0:0:
256,192,125070,1,8,0:0:0:0:
256,192,125154,1,8,0:0:0:0:
256,192,125237,1,0,0:0:0:0:
256,192,125320,1,0,0:0:0:0:
256,192,125404,1,8,0:0:0:0:
256,192,125487,1,0,0:0:0:0:
256,192,125570,1,0,0:0:0:0:
256,192,125654,1,0,0:0:0:0:
256,192,125737,1,8,0:0:0:0:
256,192,125820,1,0,0:0:0:0:
256,192,125904,1,8,0:0:0:0:
256,192,125987,1,8,0:0:0:0:
256,192,126070,1,0,0:0:0:0:
256,192,126154,1,0,0:0:0:0:
256,192,126237,1,8,0:0:0:0:
256,192,126320,1,0,0:0:0:0:
256,192,126404,1,8,0:0:0:0:
256,192,126487,1,8,0:0:0:0:
256,192,126570,1,0,0:0:0:0:
256,192,126654,1,0,0:0:0:0:
256,192,126737,1,8,0:0:0:0:
256,192,126820,1,0,0:0:0:0:
256,192,126904,1,8,0:0:0:0:
256,192,126987,1,8,0:0:0:0:
256,192,127070,1,8,0:0:0:0:
256,192,127154,1,0,0:0:0:0:
256,192,127237,1,8,0:0:0:0:
256,192,127320,1,0,0:0:0:0:
256,192,127404,1,0,0:0:0:0:
256,192,127487,1,0,0:0:0:0:
256,192,127570,1,8,0:0:0:0:
256,192,127654,1,0,0:0:0:0:
256,192,127737,1,8,0:0:0:0:
256,192,127820,1,8,0:0:0:0:
256,192,127904,1,0,0:0:0:0:
256,192,127987,1,0,0:0:0:0:
256,192,128070,1,8,0:0:0:0:
256,192,128154,1,8,0:0:0:0:
256,192,128237,1,8,0:0:0:0:
256,192,128320,1,8,0:0:0:0:
256,192,128404,1,0,0:0:0:0:
256,192,128487,1,0,0:0:0:0:
256,192,128570,1,8,0:0:0:0:
256,192,128654,1,8,0:0:0:0:
256,192,128737,1,4,0:0:0:0:
256,192,128904,1,8,0:0:0:0:
256,192,129070,1,0,0:0:0:0:
256,192,129154,1,0,0:0:0:0:
256,192,129237,1,8,0:0:0:0:
256,192,129320,1,0,0:0:0:0:
256,192,129404,1,8,0:0:0:0:
256,192,129487,1,0,0:0:0:0:
256,192,129570,1,0,0:0:0:0:
256,192,129654,1,8,0:0:0:0:
256,192,129737,1,0,0:0:0:0:
256,192,129820,1,0,0:0:0:0:
256,192,129904,1,12,0:0:0:0:
256,192,130070,1,0,0:0:0:0:
256,192,130237,1,8,0:0:0:0:
256,192,130320,1,8,0:0:0:0:
256,192,130404,1,0,0:0:0:0:
256,192,130487,1,8,0:0:0:0:
256,192,130570,1,0,0:0:0:0:
256,192,130654,1,0,0:0:0:0:
256,192,130737,1,8,0:0:0:0:
256,192,130820,1,8,0:0:0:0:
256,192,130904,1,0,0:0:0:0:
256,192,130987,1,8,0:0:0:0:
256,192,131070,1,0,0:0:0:0:
256,192,131154,1,0,0:0:0:0:
256,192,131237,1,8,0:0:0:0:
256,192,131320,1,0,0:0:0:0:
256,192,131404,1,12,0:0:0:0:
256,192,131487,12,0,132570,0:0:0:0:
256,192,133737,5,0,0:0:0:0:
256,192,133904,5,0,0:0:0:0:
256,192,134070,1,8,0:0:0:0:
256,192,134403,1,8,0:0:0:0:
256,192,134570,1,8,0:0:0:0:
256,192,134736,1,0,0:0:0:0:
256,192,135070,1,8,0:0:0:0:
256,192,135403,1,0,0:0:0:0:
256,192,135736,1,8,0:0:0:0:
256,192,136070,1,8,0:0:0:0:
256,192,136606,1,8,0:0:0:0:
256,192,136791,1,8,0:0:0:0:
256,192,136976,1,0,0:0:0:0:
256,192,137161,1,8,0:0:0:0:
256,192,137898,1,8,0:0:0:0:
256,192,138082,1,0,0:0:0:0:
256,192,138266,1,8,0:0:0:0:
256,192,138671,1,0,0:0:0:0:
256,192,138874,1,0,0:0:0:0:
256,192,139076,1,8,0:0:0:0:
256,192,139482,1,8,0:0:0:0:
256,192,139943,1,8,0:0:0:0:
256,192,140405,1,0,0:0:0:0:
256,192,140866,1,8,0:0:0:0:
256,192,142219,1,0,0:0:0:0:
256,192,142297,1,0,0:0:0:0:
256,192,142375,1,8,0:0:0:0:
