osu file format v14

[General]
AudioFilename: audio.mp3
AudioLeadIn: 0
PreviewTime: 70670
Countdown: 0
SampleSet: Soft
StackLeniency: 0.5
Mode: 0
LetterboxInBreaks: 0
WidescreenStoryboard: 0

[Editor]
DistanceSpacing: 1.7
BeatDivisor: 4
GridSize: 32
TimelineZoom: 1.1

[Metadata]
Title:Koi no Flame
TitleUnicode:恋のフレイム
Artist:Yellow Zebra
ArtistUnicode:Yellow Zebra
Creator:m3gB3g
Version:Heart-Throbbing Adventure
Source:東方地霊殿 ~ Subterranean Animism.
Tags:Nattu Flame of Love japanese video game 東方Project Okuu Orin Koishi Satori Touhou Komeiji ハルトマンの妖怪少女 ~ Hartmann's Youkai Girl 藤宮 ゆき Fuzimiya Yuki touhou project zun
BeatmapID:1896622
BeatmapSetID:908831

[Difficulty]
HPDrainRate:6
CircleSize:4
OverallDifficulty:8.8
ApproachRate:9.2
SliderMultiplier:2.28
SliderTickRate:1

[Events]
//Background and Video events
0,0,"autistvernisvkonohu.jpg",0,0
Video,8,"yesthisisakkhtareference.mp4"
//Break Periods
//Storyboard Layer 0 (Background)
//Storyboard Layer 1 (Fail)
//Storyboard Layer 2 (Pass)
//Storyboard Layer 3 (Foreground)
//Storyboard Layer 4 (Overlay)
//Storyboard Sound Samples

[TimingPoints]
-8200,387.096774193548,4,2,4,66,1,0
1090,-144.927536231884,4,2,4,50,0,0
13477,-169.491525423729,4,2,2,60,0,0
24316,-126.582278481013,4,2,2,60,0,0
25864,-113.636363636364,4,2,2,70,0,0
32058,-151.515151515152,4,2,5,60,0,0
44445,-151.515151515152,4,2,3,60,0,0
55864,-151.515151515152,4,2,11,60,0,0
56832,-133.333333333333,4,2,2,70,0,0
69606,-500,4,2,10,75,0,0
70767,-100,4,2,2,80,0,1
95541,-113.636363636364,4,2,2,70,0,0
99993,-113.636363636364,4,2,3,70,0,0
101735,-181.818181818182,4,2,1,70,0,0
113735,-222.222222222222,4,2,3,60,0,0
114025,-222.222222222222,4,2,3,5,0,0
114122,-151.515151515152,4,2,3,60,0,0
114606,-151.515151515152,4,2,3,5,0,0
114703,-151.515151515152,4,2,3,60,0,0
114993,-151.515151515152,4,2,3,5,0,0
115090,-151.515151515152,4,2,3,60,0,0
115574,-151.515151515152,4,2,3,5,0,0
115670,-151.515151515152,4,2,3,60,0,0
116348,-151.515151515152,4,2,3,5,0,0
116445,-151.515151515152,4,2,3,60,0,0
117122,-151.515151515152,4,2,3,5,0,0
117219,-151.515151515152,4,2,3,60,0,0
117896,-151.515151515152,4,2,3,5,0,0
117993,-151.515151515152,4,2,3,60,0,0
119445,-151.515151515152,4,2,3,5,0,0
119541,-151.515151515152,4,2,3,60,0,0
125541,-151.515151515152,4,2,10,70,0,0
126509,-133.333333333333,4,2,2,70,0,0
140445,-100,4,2,2,80,0,1
151090,-100,4,2,3,80,0,1
151477,-100,4,2,2,80,0,1
165219,-200,4,2,6,45,0,0
176832,-200,4,2,2,70,0,0
177606,-100,4,2,2,90,0,0
177993,-151.515151515152,4,2,2,70,0,0
178380,-100,4,2,2,90,0,0
178767,-151.515151515152,4,2,2,70,0,0
179154,-100,4,2,2,90,0,0
179541,-151.515151515152,4,2,2,70,0,0
179929,-100,4,2,2,90,0,0
180316,-151.515151515152,4,2,2,70,0,0
180703,-83.3333333333333,4,2,2,90,0,0
181090,-125,4,2,2,70,0,0
181477,-83.3333333333333,4,2,2,90,0,0
181864,-125,4,2,2,70,0,0
182251,-83.3333333333333,4,2,2,90,0,0
182638,-125,4,2,2,70,0,0
183025,-66.6666666666667,4,2,2,90,0,0
183412,-125,4,2,2,70,0,0
183799,-100,4,2,2,90,0,0
184187,-151.515151515152,4,2,2,70,0,0
184574,-100,4,2,2,90,0,0
184961,-151.515151515152,4,2,2,70,0,0
185348,-100,4,2,2,90,0,0
185735,-151.515151515152,4,2,2,70,0,0
186122,-100,4,2,2,90,0,0
186509,-151.515151515152,4,2,2,70,0,0
186896,-83.3333333333333,4,2,2,90,0,0
187283,-125,4,2,2,70,0,0
187670,-83.3333333333333,4,2,2,90,0,0
188058,-125,4,2,2,70,0,0
188445,-83.3333333333333,4,2,2,90,0,0
188832,-125,4,2,2,70,0,0
189606,-166.666666666667,4,2,2,70,0,0
189993,-166.666666666667,4,2,2,60,0,0
196187,-250,4,2,2,70,0,0
197735,-133.333333333333,4,2,2,70,0,0
199283,-142.857142857143,4,2,2,70,0,0
202380,-100,4,2,2,60,0,0
208380,-100,4,2,2,70,0,0
214767,-83.3333333333333,4,2,2,80,0,1
239541,-100,4,2,2,70,0,0
250380,-100,4,2,3,60,0,0
251154,-100,4,2,2,50,0,0
251929,-200,4,2,10,70,0,0
252025,-200,4,2,10,5,0,0

[Colours]
Combo1 : 243,18,199
Combo2 : 237,244,91
Combo3 : 46,175,169
Combo4 : 241,254,222

[HitObjects]
383,142,1090,5,2,0:0:0:0:
313,185,1283,1,0,0:0:0:0:
433,218,1477,2,0,L|461:306,1,78.6600001200256,2|0,0:0|0:0,0:0:0:0:
273,257,1864,1,2,0:0:0:0:
292,337,2058,1,2,0:0:0:0:
205,305,2251,2,0,P|166:300|130:316,1,78.6600001200256,2|0,0:0|0:0,0:0:0:0:
303,100,2638,5,2,0:0:0:0:
105,205,3025,1,2,0:0:0:0:
461,166,3412,1,2,0:0:0:0:
33,108,3799,1,0,0:0:0:0:
319,103,4187,5,2,0:0:0:0:
191,37,4380,1,0,0:0:0:0:
249,231,4574,2,0,P|224:266|159:295,1,78.6600001200256,2|0,0:0|0:0,0:0:0:0:
231,117,4961,1,2,0:0:0:0:
164,195,5154,1,0,0:0:0:0:
325,156,5348,2,0,P|360:181|389:246,1,78.6600001200256,2|0,0:0|0:0,0:0:0:0:
313,362,5735,6,0,L|326:264,1,78.6600001200256,2|0,0:0|0:0,0:0:0:0:
379,210,6122,2,0,L|392:112,1,78.6600001200256,2|0,0:0|0:0,0:0:0:0:
269,75,6509,2,0,L|248:232,1,157.320000240051,2|2,0:0|0:0,0:0:0:0:
99,202,7090,1,0,0:0:0:0:
99,202,7187,1,0,0:0:0:0:
99,202,7283,6,0,P|115:237|123:276,1,78.6600001200256,0|0,0:0|0:0,0:0:0:0:
29,103,7670,2,0,P|21:141|5:177,1,78.6600001200256,2|0,0:0|0:0,0:0:0:0:
97,34,8058,1,0,0:0:0:0:
167,133,8251,1,0,0:0:0:0:
266,29,8445,2,0,P|228:37|192:53,1,78.6600001200256,2|0,0:0|0:0,0:0:0:0:
339,128,8832,5,2,0:0:0:0:
335,111,9025,1,0,0:0:0:0:
291,227,9219,1,2,0:0:0:0:
331,94,9412,1,0,0:0:0:0:
445,168,9606,2,0,P|448:207|428:334,1,157.320000240051,2|0,0:0|0:0,0:0:0:0:
289,271,10380,5,2,0:0:0:0:
255,346,10574,1,0,0:0:0:0:
121,315,10767,1,2,0:0:0:0:
206,286,10961,1,0,0:0:0:0:
123,349,11154,1,2,0:0:0:0:
40,262,11348,1,0,0:0:0:0:
9,134,11541,1,2,0:0:0:0:
42,296,11735,1,0,0:0:0:0:
166,183,11929,6,0,B|225:200|225:200|262:180|262:180|310:191|310:191|334:140|390:94|458:131|458:131|416:229,1,432.630000660141,0|0,0:0|0:0,0:0:0:0:
407,241,13090,2,0,P|446:278|417:349,1,117.990000180038,2|0,0:3|0:0,0:0:0:0:
354,373,13477,5,4,0:0:0:0:
179,81,14832,1,0,1:0:0:0:
136,161,15025,6,0,P|69:151|0:142,3,134.519995278992,0|0|0|0,1:0|0:0|0:0|0:0,0:0:0:0:
198,234,16574,5,0,1:0:0:0:
368,288,17929,1,0,1:0:0:0:
457,235,18122,6,0,L|478:325,1,67.2599976394959,0|0,1:0|0:0,0:0:0:0:
435,154,18509,2,0,L|473:86,1,67.2599976394959,0|0,0:0|0:0,0:0:0:0:
351,188,18896,2,0,B|303:175|303:175|222:207,1,134.519995278992,0|0,0:0|0:0,0:0:0:0:
244,315,19477,6,0,L|252:361,2,33.629998819748,0|0|0,0:0|0:0|1:0,0:0:0:0:
313,262,20058,1,0,0:0:0:0:
159,289,20445,1,0,0:0:0:0:
279,136,20832,1,0,0:0:0:0:
443,240,21025,1,0,1:0:0:0:
421,96,21219,6,0,P|391:62|347:48,1,67.2599976394959,0|0,1:0|0:0,0:0:0:0:
400,213,21606,1,0,0:0:0:0:
323,164,21799,1,0,0:0:0:0:
403,126,21993,2,0,P|444:111|489:117,1,67.2599976394959,0|0,0:0|0:0,0:0:0:0:
107,295,22767,6,0,L|92:363,1,67.2599976394959,0|0,1:0|0:0,0:0:0:0:
97,208,23154,2,0,L|82:276,1,67.2599976394959,0|0,0:0|0:0,0:0:0:0:
87,121,23541,2,0,L|72:189,2,67.2599976394959,0|0|0,0:0|0:0|0:0,0:0:0:0:
234,77,24122,1,0,1:0:0:0:
205,255,24316,6,0,B|111:271|111:271|151:248|181:183,1,180.120004397461,4|0,1:2|0:0,0:0:0:0:
243,178,24896,2,0,P|288:231|277:298,1,135.090003298096,4|0,1:0|0:0,0:0:0:0:
293,320,25283,1,2,0:0:0:0:
315,317,25379,1,2,0:0:0:0:
337,314,25476,1,2,0:0:0:0:
360,311,25573,1,2,0:0:0:0:
382,308,25670,1,2,0:0:0:0:
404,305,25766,1,2,0:0:0:0:
428,304,25864,6,0,P|476:329|540:310,1,100.320003061524,4|0,1:2|0:0,0:0:0:0:
450,130,26251,1,8,0:0:0:0:
389,211,26445,1,0,0:0:0:0:
311,25,26638,1,0,1:0:0:0:
289,199,26832,1,0,1:0:0:0:
411,37,27025,1,8,0:0:0:0:
250,106,27219,6,0,P|203:166|227:289,1,200.640006123047,0|0,1:0|1:0,0:0:0:0:
363,320,27799,1,8,0:0:0:0:
313,223,27993,1,0,1:0:0:0:
363,320,28187,1,0,0:0:0:0:
313,223,28380,1,0,1:0:0:0:
455,261,28574,1,8,0:0:0:0:
313,223,28768,1,0,0:0:0:0:
494,160,28961,6,0,P|497:111|472:69,1,100.320003061524,4|0,1:2|0:0,0:0:0:0:
341,291,29348,2,0,P|376:334|426:347,1,100.320003061524,8|0,0:0|0:0,0:0:0:0:
327,115,29735,1,0,1:0:0:0:
240,206,29929,1,0,1:0:0:0:
226,30,30122,1,8,0:0:0:0:
147,246,30316,6,0,B|126:273|125:305|125:305|68:278|51:180,1,200.640006123047,4|0,1:0|1:0,0:0:0:0:
69,78,30896,2,0,P|114:100|147:138,1,100.320003061524,8|0,0:0|0:0,0:0:0:0:
147,138,31187,1,8,0:3:0:0:
147,138,31283,1,8,0:3:0:0:
220,179,31477,1,8,0:3:0:0:
249,104,31670,1,8,0:3:0:0:
312,54,31864,1,8,0:3:0:0:
392,46,32058,6,0,L|405:196,1,150.479999540771,12|0,1:2|0:0,0:0:0:0:
315,261,32638,2,0,L|308:186,1,75.2399997703857,8|0,0:0|0:0,0:0:0:0:
396,315,33025,2,0,P|354:358|267:351,1,150.479999540771,0|0,0:0|0:0,0:0:0:0:
110,196,33606,6,0,L|120:46,1,150.479999540771,0|0,1:0|0:0,0:0:0:0:
205,110,34187,1,0,0:0:0:0:
205,110,34283,1,0,0:0:0:0:
205,110,34381,2,0,L|196:261,1,150.479999540771,8|0,0:0|0:0,0:0:0:0:
205,289,34864,1,0,0:0:0:0:
230,306,34961,1,0,0:0:0:0:
259,304,35058,1,0,0:0:0:0:
282,284,35154,6,0,P|197:218|105:272,1,225.719999311157,0|8,1:0|0:0,0:0:0:0:
262,207,35929,2,0,P|204:162|141:199,1,150.479999540771,0|8,0:0|0:0,0:0:0:0:
106,271,36509,1,0,0:0:0:0:
405,268,36703,6,0,P|312:216|229:282,1,225.719999311157,0|0,1:0|0:0,0:0:0:0:
249,207,37380,1,0,0:0:0:0:
249,207,37477,2,0,P|305:162|368:194,1,150.479999540771,8|0,0:0|0:0,0:0:0:0:
394,218,37960,1,0,0:0:0:0:
430,224,38057,1,0,0:0:0:0:
464,210,38154,1,0,0:0:0:0:
485,179,38251,6,0,B|457:84|384:82|384:82|353:154,1,225.719999311157,0|8,1:0|0:0,0:0:0:0:
230,71,39219,1,8,0:0:0:0:
269,318,39606,6,0,P|202:329|137:253,1,150.479999540771,0|8,1:0|0:0,0:0:0:0:
57,219,40187,2,0,L|50:293,1,75.2399997703857,0|0,0:0|0:0,0:0:0:0:
46,330,40477,1,0,0:0:0:0:
46,330,40574,2,0,B|85:335|85:335|116:319|116:319|218:334,1,150.479999540771,8|0,0:0|0:0,0:0:0:0:
195,292,41058,1,0,0:0:0:0:
200,255,41155,1,0,0:0:0:0:
205,218,41252,1,0,0:0:0:0:
210,180,41348,6,0,B|190:133|190:133|140:135|122:199,1,150.479999540771,0|0,1:0|0:0,0:0:0:0:
252,169,41929,2,0,B|222:99|222:99|148:102|121:197,1,225.719999311157,8|8,0:0|0:0,0:0:0:0:
20,231,42703,1,0,1:0:0:0:
20,231,42799,1,0,1:0:0:0:
20,231,42895,5,0,1:0:0:0:
93,272,43089,1,8,0:0:0:0:
122,197,43282,1,0,1:0:0:0:
185,147,43476,1,0,1:0:0:0:
265,139,43670,1,8,0:0:0:0:
192,331,44058,1,8,0:0:0:0:
67,80,44445,6,0,P|44:135|33:233,1,150.479999540771,4|2,1:2|0:0,0:0:0:0:
164,216,45025,2,0,P|170:252|166:290,1,75.2399997703857,0|0,0:0|0:0,0:0:0:0:
249,304,45412,2,0,P|239:340|219:372,1,75.2399997703857,0|2,0:0|0:0,0:0:0:0:
319,384,45799,1,0,0:0:0:0:
286,223,45993,6,0,B|311:263|351:271|351:271|388:234|388:234|438:232|465:280,1,225.719999311157,2|0,1:2|0:0,0:0:0:0:
475,156,46767,2,0,B|429:132|389:147|389:147|332:186|351:269,1,225.719999311157,2|0,0:0|0:0,0:0:0:0:
170,103,47541,6,0,B|144:135|153:173|153:173|178:185|262:176|272:110,1,225.719999311157,2|0,1:2|0:0,0:0:0:0:
281,43,48316,2,0,P|286:95|297:55,1,150.479999540771,2|2,0:0|0:0,0:0:0:0:
170,103,48896,1,0,0:0:0:0:
342,151,49090,6,0,B|430:173|430:173|386:327,1,225.719999311157,2|0,1:2|0:0,0:0:0:0:
309,353,49864,2,0,B|202:367|206:308|252:200,1,225.719999311157,2|0,0:0|0:0,0:0:0:0:
78,156,50638,6,0,B|139:198|118:306|81:338|81:338|10:310|2:239,1,300.959999081543,2|2,1:2|0:0,0:0:0:0:
169,362,51606,1,0,1:0:0:0:
169,362,51993,6,0,B|185:344|185:318|185:318|205:302|208:273|208:273|225:256|225:205,1,150.479999540771,0|0,1:0|0:0,0:0:0:0:
224,226,52574,2,0,P|248:262|213:227,2,150.479999540771,2|2|2,0:0|0:0|0:0,0:0:0:0:
170,112,53541,1,0,1:0:0:0:
271,134,53735,6,0,L|374:157,1,75.2399997703857,4|0,1:2|0:0,0:0:0:0:
170,112,54122,1,0,1:0:0:0:
344,150,54316,2,0,L|499:184,2,150.479999540771,4|4|0,1:2|1:2|1:0,0:0:0:0:
208,91,55283,6,0,P|135:88|92:133,1,112.859999655579,0|0,1:0|0:0,0:0:0:0:
89,154,55670,1,0,1:0:0:0:
361,215,55864,2,0,L|464:238,1,75.2399997703857,12|0,0:0|0:0,0:0:0:0:
463,46,56832,5,4,1:2:0:0:
425,121,57025,1,0,0:0:0:0:
463,46,57219,1,8,0:0:0:0:
489,178,57412,2,0,L|508:280,1,85.5000032615663,0|0,1:0|0:0,0:0:0:0:
419,275,57799,2,0,P|395:327|340:350,1,85.5000032615663,0|8,1:0|0:0,0:0:0:0:
319,253,58187,1,0,1:0:0:0:
96,289,58380,6,0,B|134:268|134:217|134:217|147:268|187:279,1,171.000006523133,0|8,1:0|0:0,0:0:0:0:
263,336,58961,1,0,1:0:0:0:
217,204,59154,2,0,L|236:102,1,85.5000032615663,0|0,1:0|0:0,0:0:0:0:
138,61,59541,2,0,P|163:30|241:9,1,85.5000032615663,8|0,0:0|0:0,0:0:0:0:
311,262,59929,6,0,L|330:160,1,85.5000032615663,0|0,1:0|0:0,0:0:0:0:
384,344,60316,1,8,0:0:0:0:
420,212,60509,2,0,P|461:218|496:244,1,85.5000032615663,0|0,1:0|0:0,0:0:0:0:
195,268,60896,2,0,B|235:238|277:268|277:268|318:295|355:266,1,171.000006523133,0|0,1:0|1:0,0:0:0:0:
146,180,61477,6,0,P|152:138|170:100,1,85.5000032615663,0|0,1:0|0:0,0:0:0:0:
299,76,61864,1,8,0:0:0:0:
274,242,62057,2,0,P|251:207|248:165,1,85.5000032615663,0|0,1:0|0:0,0:0:0:0:
487,197,62445,2,0,B|476:166|445:152|445:152|341:178,1,171.000006523133,0|0,1:0|1:0,0:0:0:0:
452,354,63025,5,0,1:0:0:0:
392,259,63219,1,0,1:0:0:0:
305,341,63412,1,8,0:0:0:0:
245,246,63606,2,0,P|201:217|142:222,1,85.5000032615663,0|0,1:0|0:0,0:0:0:0:
101,131,63993,2,0,B|70:142|56:173|56:173|81:277,1,171.000006523133,0|0,1:0|0:0,0:0:0:0:
190,316,64574,5,0,1:0:0:0:
283,335,64768,1,0,1:0:0:0:
173,349,64961,1,8,0:0:0:0:
300,302,65155,2,0,P|328:307|403:278,1,85.5000032615663,0|0,1:0|0:0,0:0:0:0:
475,194,65542,2,0,B|371:169|371:169|340:183|329:214,1,171.000006523133,0|0,1:0|0:0,0:0:0:0:
126,226,66122,5,0,1:0:0:0:
219,245,66316,1,0,1:0:0:0:
109,259,66509,1,8,0:0:0:0:
236,212,66703,2,0,B|254:196|254:196|314:210,1,85.5000032615663,0|0,1:0|0:0,0:0:0:0:
510,130,67090,2,0,B|491:145|491:145|431:131,1,85.5000032615663,0|8,1:0|0:0,0:0:0:0:
271,65,67477,6,0,B|225:100|207:173|207:173|222:255|222:255|237:211,1,256.500009784699,0|8,0:0|0:0,0:0:0:0:
123,203,68251,1,0,1:0:0:0:
337,148,68445,1,12,0:0:0:0:
292,347,68638,2,0,L|316:244,1,85.5000032615663,12|0,0:0|0:0,0:0:0:0:
123,203,69025,6,0,L|142:287,1,85.5000032615663,4|0,1:2|0:0,0:0:0:0:
212,56,69412,1,0,1:0:0:0:
237,211,69606,6,0,B|242:233|234:251|234:251|237:269|224:290|224:290|228:310|210:339,1,125.4,12|0,0:0|0:0,0:0:0:0:
154,339,70767,6,0,P|125:310|50:313,1,114,4|2,1:2|0:0,0:0:0:0:
330,248,71154,2,0,P|301:277|226:274,1,114,8|2,0:0|0:0,0:0:0:0:
399,349,71541,1,2,1:2:0:0:
431,214,71735,1,0,1:2:0:0:
486,373,71929,1,8,0:2:0:0:
433,181,72122,1,2,1:2:0:0:
288,228,72316,6,0,P|231:237|176:208,1,114,0|0,0:0|1:2,0:0:0:0:
133,58,72703,2,0,B|147:39|160:28|160:28|189:65|194:125,1,114,10|0,0:0|0:0,0:0:0:0:
256,344,73090,1,0,1:0:0:0:
282,135,73284,1,0,1:2:0:0:
258,367,73477,1,10,0:0:0:0:
120,185,73671,1,0,0:0:0:0:
286,256,73864,5,0,1:0:0:0:
318,121,74058,1,2,0:0:0:0:
373,280,74252,1,8,0:0:0:0:
320,88,74445,1,2,0:0:0:0:
200,327,74638,1,0,1:0:0:0:
168,192,74832,1,2,0:0:0:0:
113,351,75026,1,8,0:0:0:0:
264,185,75219,1,2,1:2:0:0:
264,185,75316,1,0,1:0:0:0:
264,185,75412,6,0,P|318:230|325:276,1,114,2|0,1:2|0:0,0:0:0:0:
150,173,75799,2,0,P|204:128|211:82,1,114,10|0,0:0|0:0,0:0:0:0:
224,327,76187,2,0,L|248:82,1,228,2|8,1:2|0:0,0:0:0:0:
326,25,76767,1,2,1:2:0:0:
326,25,76863,1,0,1:0:0:0:
326,25,76960,5,0,1:0:0:0:
396,187,77154,1,2,0:0:0:0:
246,101,77348,1,8,0:0:0:0:
422,84,77542,1,2,0:0:0:0:
136,28,77735,1,2,1:2:0:0:
337,115,77929,1,0,0:0:0:0:
84,126,78123,1,8,0:0:0:0:
227,288,78316,1,2,0:0:0:0:
246,69,78509,5,0,1:0:0:0:
305,259,78702,1,2,0:0:0:0:
415,84,78896,1,8,0:0:0:0:
378,194,79089,1,2,0:0:0:0:
512,144,79283,2,0,P|513:185|451:281,1,114,0|0,1:0|1:0,0:0:0:0:
389,360,79670,2,0,P|340:304|292:288,1,114,10|0,0:0|0:0,0:0:0:0:
130,348,80058,5,0,1:0:0:0:
161,251,80251,1,2,0:0:0:0:
235,367,80445,1,8,0:0:0:0:
262,204,80638,1,2,0:0:0:0:
130,348,80832,1,0,1:0:0:0:
56,232,81025,1,2,1:2:0:0:
25,329,81219,1,10,0:0:0:0:
157,185,81412,1,8,0:3:0:0:
157,185,81509,1,8,0:3:0:0:
157,185,81606,6,0,P|108:133|57:125,1,114,2|0,1:2|0:0,0:0:0:0:
193,287,81993,1,10,0:0:0:0:
291,248,82187,1,0,0:0:0:0:
177,80,82380,2,0,P|150:129|157:185,1,114,2|0,1:2|1:0,0:0:0:0:
335,343,82767,1,12,0:0:0:0:
376,335,82863,1,2,1:2:0:0:
412,312,82960,1,2,1:2:0:0:
434,276,83057,1,2,1:2:0:0:
440,235,83154,6,0,L|417:107,1,114,4|2,1:2|0:0,0:0:0:0:
281,167,83541,2,0,L|261:280,1,114,8|2,0:0|0:0,0:0:0:0:
2,149,83928,1,0,1:0:0:0:
65,275,84122,1,2,0:0:0:0:
196,147,84316,1,8,0:0:0:0:
160,346,84509,1,2,1:2:0:0:
146,66,84703,6,0,P|193:51|260:77,1,114,2|0,0:0|1:0,0:0:0:0:
245,241,85090,2,0,P|208:207|197:136,1,114,8|0,0:0|0:0,0:0:0:0:
407,93,85477,1,2,1:2:0:0:
349,312,85671,1,0,1:0:0:0:
305,82,85864,1,8,0:0:0:0:
449,291,86058,1,0,0:0:0:0:
202,371,86251,5,2,1:2:0:0:
200,180,86445,1,2,0:0:0:0:
278,364,86639,1,8,0:0:0:0:
220,145,86832,1,2,0:0:0:0:
132,307,87025,1,2,1:2:0:0:
134,116,87219,1,2,0:0:0:0:
76,335,87413,1,8,0:0:0:0:
286,92,87606,1,2,1:2:0:0:
286,92,87703,1,0,1:0:0:0:
286,92,87799,6,0,B|376:106|376:106|325:134,1,114,2|0,1:2|0:0,0:0:0:0:
499,191,88187,2,0,B|409:177|409:177|460:149,1,114,8|0,0:0|0:0,0:0:0:0:
203,186,88574,2,0,P|302:178|344:285,1,228,2|8,1:2|0:0,0:0:0:0:
233,349,89154,1,0,1:0:0:0:
233,349,89250,1,0,1:0:0:0:
233,349,89347,5,2,1:2:0:0:
69,219,89541,1,2,0:0:0:0:
270,250,89735,1,8,0:0:0:0:
43,232,89929,1,2,0:0:0:0:
293,124,90122,1,0,1:0:0:0:
90,300,90316,1,2,1:2:0:0:
160,2,90510,1,8,0:0:0:0:
228,358,90704,1,2,0:2:0:0:
273,90,90896,5,2,1:2:0:0:
214,280,91089,1,0,0:0:0:0:
138,104,91283,1,8,0:0:0:0:
124,220,91477,1,2,0:0:0:0:
250,127,91670,2,0,P|305:123|357:163,1,114,2|0,1:2|1:0,0:0:0:0:
444,289,92058,2,0,P|392:311|337:301,1,114,8|0,0:0|0:0,0:0:0:0:
234,177,92445,5,2,1:2:0:0:
254,282,92638,1,2,0:0:0:0:
311,111,92832,1,8,0:0:0:0:
285,251,93025,1,2,0:0:0:0:
212,51,93219,1,8,0:3:0:0:
99,232,93412,1,8,0:3:0:0:
99,232,93509,1,8,0:3:0:0:
99,232,93606,1,8,0:3:0:0:
293,170,93799,6,0,P|338:170|400:214,1,114,4|0,1:2|0:0,0:0:0:0:
485,362,94187,1,0,1:0:0:0:
485,362,94380,1,12,0:0:0:0:
319,168,95541,6,0,P|372:192|388:251,1,100.320003061524,4|0,1:2|0:0,0:0:0:0:
301,354,95929,2,0,L|311:240,1,100.320003061524,10|0,0:0|0:0,0:0:0:0:
498,197,96316,1,0,1:0:0:0:
429,137,96509,1,2,1:2:0:0:
416,314,96703,1,10,0:0:0:0:
360,77,96896,6,0,P|268:110|221:196,1,200.640006123047,0|0,1:0|1:0,0:0:0:0:
102,257,97477,1,10,0:0:0:0:
196,294,97670,1,2,1:2:0:0:
80,268,97864,1,0,0:0:0:0:
213,282,98058,1,2,1:2:0:0:
68,290,98251,1,10,0:0:0:0:
230,258,98444,1,2,0:0:0:0:
48,325,98638,6,0,L|38:211,1,100.320003061524,4|0,1:2|0:0,0:0:0:0:
21,74,99025,2,0,P|44:117|90:134,1,100.320003061524,10|0,0:0|0:0,0:0:0:0:
102,18,99412,1,0,1:0:0:0:
299,33,99606,2,0,L|200:25,1,100.320003061524,2|10,1:2|0:0,0:0:0:0:
499,101,99993,6,0,P|390:71|343:157,1,200.640006123047,4|8,1:2|0:0,0:0:0:0:
144,194,100767,2,0,P|208:219|153:174,1,200.640006123047,8|8,0:0|0:0,0:0:0:0:
74,264,101348,2,0,L|93:385,1,100.320003061524,8|0,3:0|0:0,0:0:0:0:
296,280,101735,6,0,P|297:220|312:138,1,125.400003826904,2|0,0:0|0:0,0:0:0:0:
169,116,102316,2,0,P|197:101|227:92,1,62.7000019134522,2|0,0:0|0:0,0:0:0:0:
197,188,102703,2,0,P|175:141|109:110,1,125.400003826904,2|0,0:0|0:0,0:0:0:0:
88,22,103283,6,0,B|135:65|110:112|110:112|59:124|21:69,1,188.100005740357,2|0,0:0|0:0,0:0:0:0:
74,198,104058,2,0,B|121:203|163:176|163:176|176:227|121:265,1,188.100005740357,2|0,0:0|0:0,0:0:0:0:
262,197,104832,6,0,B|251:125|198:93|198:93|256:57|326:111,1,250.800007653809,2|0,0:0|0:0,0:0:0:0:
325,346,106380,6,0,B|358:301|444:332|444:332|411:258,1,188.100005740357,2|0,0:0|0:0,0:0:0:0:
316,260,107154,2,0,B|271:285|254:326|254:326|271:285|259:217,1,188.100005740357,2|0,0:0|0:0,0:0:0:0:
31,214,107929,6,0,B|88:217|145:254|177:307|177:307|197:293|201:241|181:194|99:188,1,313.500009567261,2|0,0:0|0:0,0:0:0:0:
71,310,109090,6,0,L|62:347,4,31.3500009567261,8|0|0|0|0,0:0|0:0|0:0|0:0|0:0,0:0:0:0:
154,142,109864,2,0,L|174:174,4,31.3500009567261,8|0|0|0|0,0:0|0:0|0:0|0:0|0:0,0:0:0:0:
71,130,110445,1,0,0:0:0:0:
34,205,110638,1,8,0:0:0:0:
41,218,110734,1,8,0:0:0:0:
48,232,110831,1,8,0:0:0:0:
55,246,110928,1,8,0:0:0:0:
63,260,111025,6,0,P|101:288|178:277,1,125.400003826904,0|8,0:0|0:0,0:0:0:0:
198,257,111509,1,2,0:0:0:0:
227,246,111606,1,2,0:0:0:0:
258,247,111703,1,2,0:0:0:0:
287,259,111800,1,2,0:2:0:0:
356,316,111993,1,0,0:0:0:0:
436,273,112187,1,8,0:0:0:0:
433,249,112283,1,8,0:0:0:0:
431,226,112380,1,8,0:0:0:0:
429,202,112477,1,8,0:0:0:0:
427,179,112574,6,0,P|413:106|389:49,1,125.400003826904,0|8,0:0|0:0,0:0:0:0:
322,118,113154,1,2,0:0:0:0:
322,118,113251,1,2,0:0:0:0:
322,118,113348,1,10,0:0:0:0:
300,30,113541,1,10,0:0:0:0:
242,161,113735,6,0,B|205:148|205:148|155:153,1,76.9499976516724,8|0,0:0|0:0,0:0:0:0:
242,161,114122,6,0,P|173:119|58:156,1,188.099999425964,4|0,1:2|0:0,0:0:0:0:
49,172,114703,2,0,P|94:169|142:214,1,112.859999655579,0|0,0:0|0:0,0:0:0:0:
157,246,115090,2,0,P|105:219|-2:281,1,188.099999425964,0|0,0:0|0:0,0:0:0:0:
16,309,115670,6,0,B|40:281|81:268|126:282|130:306|123:332|162:350|212:346|247:305,1,263.33999919635,2|0,1:2|0:0,0:0:0:0:
262,270,116445,2,0,B|302:204|378:189|378:189|302:204|324:294,1,263.33999919635,2|0,0:0|0:0,0:0:0:0:
334,310,117219,6,0,B|371:272|374:236|339:187|300:178|257:183|257:183|228:188|199:205,1,263.33999919635,2|0,1:2|0:0,0:0:0:0:
200,203,117993,2,0,P|243:208|209:196,1,150.479999540771,2|2,0:0|0:0,0:0:0:0:
449,61,118767,6,0,B|463:158|463:158|418:222|418:222|432:333,1,263.33999919635,2|0,1:2|0:0,0:0:0:0:
454,336,119541,2,0,P|424:286|327:263,1,150.479999540771,2|2,0:0|0:0,0:0:0:0:
259,168,120316,6,0,B|293:186|307:222|295:265|254:292|202:288|160:273,1,225.719999311157,2|0,1:2|0:0,0:0:0:0:
58,212,121090,1,2,0:0:0:0:
148,177,121283,2,0,L|223:145,1,75.2399997703857,0|0,1:0|0:0,0:0:0:0:
148,177,121670,6,0,B|210:100|338:96|338:96|270:205|270:205|368:178|368:178|379:218|369:263,1,526.6799983927,0|2,1:0|0:0,0:0:0:0:
347,357,123219,1,0,1:0:0:0:
437,322,123412,6,0,L|512:290,1,75.2399997703857,6|0,1:2|0:0,0:0:0:0:
367,253,123799,1,2,0:0:0:0:
277,288,123993,2,0,L|202:320,1,75.2399997703857,4|0,1:2|0:0,0:0:0:0:
267,114,124380,2,0,L|297:184,1,75.2399997703857,4|0,1:2|0:0,0:0:0:0:
182,111,124767,1,0,1:0:0:0:
236,339,124960,6,0,L|295:201,1,150.479999540771,0|0,1:0|1:0,0:0:0:0:
169,252,125541,2,0,P|135:239|97:235,1,75.2399997703857,12|0,0:0|0:0,0:0:0:0:
39,78,126509,5,4,1:2:0:0:
114,116,126702,1,0,0:0:0:0:
39,78,126896,1,8,0:0:0:0:
171,52,127089,2,0,L|273:33,1,85.5000032615663,0|0,1:0|0:0,0:0:0:0:
334,68,127477,1,0,1:0:0:0:
296,143,127671,1,8,0:0:0:0:
334,68,127864,1,0,1:0:0:0:
346,216,128057,6,0,B|384:195|384:144|384:144|397:195|437:206,1,171.000006523133,0|8,1:2|0:0,0:0:0:0:
469,128,128638,1,0,1:0:0:0:
324,44,128831,2,0,L|222:63,1,85.5000032615663,0|0,1:0|0:0,0:0:0:0:
265,228,129219,2,0,L|294:148,1,85.5000032615663,8|0,0:0|0:0,0:0:0:0:
166,158,129606,6,0,P|122:163|87:191,1,85.5000032615663,0|0,1:2|0:0,0:0:0:0:
166,284,129993,1,8,0:0:0:0:
293,147,130187,2,0,P|276:109|242:84,1,85.5000032615663,0|0,1:0|0:0,0:0:0:0:
429,233,130574,2,0,B|405:213|370:212|342:222|349:235|347:248|315:256|287:250|271:238,1,171.000006523133,0|0,1:0|0:0,0:0:0:0:
168,275,131154,6,0,P|154:302|148:380,1,85.5000032615663,0|0,1:2|0:0,0:0:0:0:
122,180,131541,1,8,0:0:0:0:
287,190,131735,2,0,P|252:167|210:164,1,85.5000032615663,0|0,1:2|0:0,0:0:0:0:
332,269,132122,2,0,B|383:282|408:242|408:242|452:260|490:228,1,171.000006523133,0|0,1:2|1:0,0:0:0:0:
425,57,132702,5,0,1:2:0:0:
353,146,132896,1,0,1:0:0:0:
470,155,133089,1,8,0:0:0:0:
323,61,133283,2,0,P|279:32|220:37,1,85.5000032615663,0|0,1:0|0:0,0:0:0:0:
169,78,133670,2,0,P|96:40|7:57,1,171.000006523133,0|0,1:0|0:0,0:0:0:0:
78,163,134251,5,0,1:0:0:0:
140,243,134445,1,0,1:0:0:0:
40,257,134638,1,8,0:0:0:0:
170,162,134832,2,0,P|214:133|273:138,1,85.5000032615663,0|0,1:0|0:0,0:0:0:0:
339,186,135219,2,0,B|341:227|312:266|312:266|318:312|293:346,1,171.000006523133,0|0,1:0|0:0,0:0:0:0:
199,290,135799,5,0,1:2:0:0:
106,349,135993,1,0,1:0:0:0:
217,305,136186,1,8,0:0:0:0:
88,334,136380,2,0,B|68:245,1,85.5000032615663,0|0,1:0|0:0,0:0:0:0:
238,127,136767,2,0,B|218:216,2,85.5000032615663,0|8|0,1:0|0:0|0:0,0:0:0:0:
386,76,137348,5,4,1:2:0:0:
504,177,137541,1,8,0:0:0:0:
356,228,137735,1,8,0:0:0:0:
238,127,137929,2,0,B|149:147,1,85.5000032615663,0|8,1:0|0:0,0:0:0:0:
8,177,138316,1,0,1:0:0:0:
150,327,138509,1,8,0:0:0:0:
154,145,138703,6,0,L|181:57,1,85.5000032615663,4|0,1:2|0:0,0:0:0:0:
125,246,139090,1,0,1:0:0:0:
324,143,139283,2,0,L|351:231,1,85.5000032615663,12|0,0:0|0:0,0:0:0:0:
281,340,140445,5,4,1:2:0:0:
336,161,140638,1,2,0:0:0:0:
352,348,140832,1,8,0:0:0:0:
267,227,141025,1,2,0:0:0:0:
435,191,141219,1,2,1:2:0:0:
262,309,141412,1,0,1:0:0:0:
270,167,141606,1,8,0:2:0:0:
360,233,141799,1,2,1:2:0:0:
348,72,141993,6,0,P|439:88|457:104,1,114,0|0,0:0|1:0,0:0:0:0:
275,307,142380,1,10,0:0:0:0:
381,153,142574,1,0,0:0:0:0:
191,279,142767,1,0,1:0:0:0:
410,195,142961,1,0,1:0:0:0:
134,148,143154,2,0,B|154:124|171:126|171:126|209:132|262:172,1,114,10|0,0:0|0:0,0:0:0:0:
472,340,143541,5,0,1:0:0:0:
438,168,143735,1,2,0:0:0:0:
392,357,143929,1,8,0:0:0:0:
453,144,144122,1,2,0:0:0:0:
228,281,144316,1,2,1:2:0:0:
194,109,144509,1,0,1:0:0:0:
148,298,144703,1,10,0:0:0:0:
209,85,144896,1,0,1:0:0:0:
209,85,144993,1,0,1:0:0:0:
209,85,145090,6,0,P|245:128|311:144,1,114,2|0,1:2|1:0,0:0:0:0:
404,128,145477,2,0,P|382:136|297:187,1,114,8|0,0:0|1:0,0:0:0:0:
318,293,145864,2,0,P|320:224|188:188,1,228,2|8,1:2|0:0,0:0:0:0:
352,30,146445,1,2,1:2:0:0:
352,30,146541,1,0,1:0:0:0:
352,30,146638,5,0,1:0:0:0:
300,225,146832,1,2,0:0:0:0:
159,143,147025,1,8,0:0:0:0:
310,252,147219,1,2,0:0:0:0:
200,27,147412,1,2,1:2:0:0:
262,262,147606,1,0,0:0:0:0:
352,30,147799,1,8,0:2:0:0:
250,294,147993,1,2,0:2:0:0:
4,154,148187,5,0,1:0:0:0:
197,50,148380,1,2,0:0:0:0:
262,262,148574,1,8,0:0:0:0:
193,71,148767,1,2,0:0:0:0:
296,176,148961,2,0,B|307:92|307:92|288:70,1,114,2|0,1:2|1:0,0:0:0:0:
96,190,149348,2,0,P|149:208|183:253,1,114,8|0,0:0|0:0,0:0:0:0:
30,348,149735,5,2,1:2:0:0:
63,269,149929,1,0,0:0:0:0:
38,111,150122,1,8,0:0:0:0:
5,190,150316,1,2,0:0:0:0:
175,153,150509,1,0,1:0:0:0:
155,255,150703,1,2,1:2:0:0:
155,255,150799,1,0,1:0:0:0:
155,255,150896,1,8,0:0:0:0:
279,79,151090,1,8,0:0:0:0:
287,103,151186,1,8,0:0:0:0:
295,127,151283,5,8,0:0:0:0:
263,331,151477,1,0,1:0:0:0:
175,153,151670,1,8,0:0:0:0:
155,255,151864,1,0,0:0:0:0:
411,265,152058,2,0,B|398:352|398:352|362:317,1,114,2|0,1:2|1:2,0:0:0:0:
225,208,152445,1,12,0:0:0:0:
235,166,152541,1,2,1:2:0:0:
246,126,152638,1,2,1:2:0:0:
285,107,152735,1,2,1:2:0:0:
324,89,152832,5,4,1:2:0:0:
411,265,153025,1,2,0:0:0:0:
397,55,153219,1,8,0:0:0:0:
341,290,153412,1,2,0:0:0:0:
187,90,153606,1,2,1:2:0:0:
171,290,153799,1,0,0:0:0:0:
106,46,153993,1,8,0:2:0:0:
226,211,154187,1,2,1:2:0:0:
60,129,154380,6,0,P|18:170|6:250,1,114,0|0,0:0|1:0,0:0:0:0:
341,290,154767,1,10,0:0:0:0:
187,90,154961,1,0,0:0:0:0:
63,326,155154,1,0,1:0:0:0:
170,45,155348,1,0,1:0:0:0:
444,224,155541,2,0,P|412:175|326:197,1,114,10|0,0:2|0:0,0:0:0:0:
229,124,155929,5,0,1:0:0:0:
341,290,156122,1,2,0:0:0:0:
374,70,156316,1,8,0:0:0:0:
269,340,156509,1,2,0:0:0:0:
226,66,156703,1,2,1:2:0:0:
189,306,156896,1,0,0:0:0:0:
90,115,157090,1,10,0:0:0:0:
279,275,157283,1,2,1:2:0:0:
279,275,157380,1,0,1:0:0:0:
279,275,157477,6,0,P|322:239|338:173,1,114,0|0,1:0|1:0,0:0:0:0:
322,80,157864,2,0,P|330:102|381:187,1,114,10|0,0:0|1:0,0:0:0:0:
457,304,158251,2,0,P|363:288|215:287,1,228,0|10,1:0|0:0,0:0:0:0:
86,336,158832,1,0,1:0:0:0:
86,336,158929,1,0,1:0:0:0:
86,336,159025,5,0,1:0:0:0:
28,200,159219,1,2,0:0:0:0:
415,202,159412,1,8,0:0:0:0:
200,134,159606,1,2,0:0:0:0:
499,193,159799,1,2,1:2:0:0:
118,150,159993,1,0,1:2:0:0:
336,42,160187,1,10,0:0:0:0:
38,165,160380,1,0,0:0:0:0:
395,252,160574,5,2,1:2:0:0:
106,194,160767,1,0,0:0:0:0:
333,209,160961,1,10,0:0:0:0:
171,240,161154,1,0,0:0:0:0:
283,41,161348,2,0,B|204:68|204:68|202:98,1,114,2|0,1:2|1:0,0:0:0:0:
208,365,161735,2,0,B|288:339|288:339|290:309,1,114,8|0,0:0|0:0,0:0:0:0:
509,76,162122,5,2,1:2:0:0:
449,289,162316,1,2,0:0:0:0:
304,136,162509,1,8,0:0:0:0:
434,182,162703,1,2,0:0:0:0:
357,365,162896,1,8,0:3:0:0:
224,204,163090,1,8,0:3:0:0:
224,204,163187,1,8,0:3:0:0:
224,204,163283,1,8,0:3:0:0:
99,358,163477,6,0,B|185:335|185:335|161:366,1,114,4|0,1:2|0:0,0:0:0:0:
120,188,163864,1,0,1:0:0:0:
10,324,164058,1,12,0:0:0:0:
249,375,165219,6,0,P|241:333|217:297,1,85.5,2|0,0:0|0:0,0:0:0:0:
174,268,165606,1,0,0:0:0:0:
264,208,165799,1,0,0:0:0:0:
126,167,165993,2,0,L|36:175,2,85.5,2|0|0,0:0|0:0|0:0,0:0:0:0:
198,94,166767,5,2,0:0:0:0:
279,75,166960,1,0,0:0:0:0:
356,110,167154,1,0,0:0:0:0:
395,184,167347,1,0,0:0:0:0:
264,208,167541,1,2,0:0:0:0:
303,282,167734,1,0,0:0:0:0:
380,317,167928,1,0,0:0:0:0:
462,299,168121,1,0,0:0:0:0:
356,110,168316,5,2,0:0:0:0:
303,282,168509,1,0,0:0:0:0:
395,184,168703,1,0,0:0:0:0:
264,208,168896,1,0,0:0:0:0:
462,299,169090,5,2,0:0:0:0:
198,94,169380,1,0,0:0:0:0:
173,305,169670,1,0,0:0:0:0:
51,251,169863,5,2,0:0:0:0:
106,188,170058,1,0,0:0:0:0:
189,172,170250,1,0,0:0:0:0:
264,208,170445,1,0,0:0:0:0:
172,305,170638,1,2,0:0:0:0:
247,341,170832,1,0,0:0:0:0:
330,325,171024,1,0,0:0:0:0:
386,262,171219,1,0,0:0:0:0:
189,172,171412,5,2,0:0:0:0:
247,341,171605,1,0,0:0:0:0:
264,208,171799,1,0,0:0:0:0:
172,305,171992,1,0,0:0:0:0:
386,262,172186,5,2,0:0:0:0:
51,251,172476,1,0,0:0:0:0:
380,145,172767,1,0,0:0:0:0:
480,233,172960,5,2,0:0:0:0:
408,276,173153,1,0,0:0:0:0:
324,266,173347,1,0,0:0:0:0:
264,208,173540,1,0,0:0:0:0:
382,145,173734,1,2,0:0:0:0:
322,87,173929,1,0,0:0:0:0:
238,77,174121,1,0,0:0:0:0:
165,120,174316,1,0,0:0:0:0:
324,266,174509,5,2,0:0:0:0:
322,87,174702,1,0,0:0:0:0:
264,208,174896,1,0,0:0:0:0:
382,145,175089,1,0,0:0:0:0:
165,120,175283,5,2,0:0:0:0:
480,233,175573,1,0,0:0:0:0:
245,343,175864,1,0,0:0:0:0:
134,292,176058,6,0,P|183:239|307:238,1,199.5,2|0,0:0|0:0,0:0:0:0:
347,273,176832,2,0,P|363:249|378:200,1,57,8|0,0:3|0:0,0:0:0:0:
483,210,177219,2,0,P|477:182|453:137,1,57,8|0,0:3|0:0,0:0:0:0:
375,106,177606,6,0,L|228:118,1,114,4|0,1:2|0:0,0:0:0:0:
106,39,177993,6,0,P|75:88|88:160,1,112.859999655579,0|0,0:0|0:0,0:0:0:0:
106,173,178380,38,0,L|253:185,1,114,12|0,0:0|1:0,0:0:0:0:
375,106,178767,6,0,P|406:155|392:227,1,112.859999655579,0|0,0:0|0:0,0:0:0:0:
375,258,179154,38,0,L|228:246,1,114,4|8,1:2|0:0,0:0:0:0:
106,325,179541,6,0,P|75:276|88:203,1,112.859999655579,0|0,1:0|0:0,0:0:0:0:
106,191,179929,5,12,0:0:0:0:
219,181,180122,1,8,0:0:0:0:
375,258,180316,6,0,P|406:209|392:136,1,112.859999655579,0|0,0:0|0:0,0:0:0:0:
272,112,180703,6,0,L|260:259,1,136.799995825195,4|0,1:2|0:0,0:0:0:0:
88,321,181090,6,0,L|76:184,1,136.8,0|0,0:0|0:0,0:0:0:0:
147,138,181477,38,0,L|135:274,1,136.799995825195,12|0,0:0|1:0,0:0:0:0:
331,201,181864,6,0,L|319:64,1,136.8,0|0,0:0|0:0,0:0:0:0:
240,112,182251,38,0,L|252:259,1,136.799995825195,4|8,1:2|0:0,0:0:0:0:
424,321,182638,6,0,L|435:184,1,136.8,0|0,0:0|0:0,0:0:0:0:
365,138,183025,38,0,P|323:206|372:307,1,171.000006523133,12|0,0:0|1:0,0:0:0:0:
181,201,183412,6,0,L|192:64,1,136.8,0|0,0:0|0:0,0:0:0:0:
270,39,183799,38,0,L|258:186,1,114,4|0,1:2|0:0,0:0:0:0:
337,308,184187,6,0,P|288:339|215:325,1,112.859999655579,0|0,0:0|0:0,0:0:0:0:
203,308,184574,38,0,L|191:161,1,114,12|0,0:0|1:0,0:0:0:0:
270,39,184961,6,0,P|221:8|148:21,1,112.859999655579,0|0,0:0|0:0,0:0:0:0:
118,39,185348,38,0,L|130:186,1,114,4|8,1:2|0:0,0:0:0:0:
51,308,185735,6,0,P|100:339|172:325,1,112.859999655579,0|0,1:0|0:0,0:0:0:0:
185,308,186122,5,12,0:0:0:0:
194,194,186316,1,8,0:0:0:0:
394,345,186509,6,0,P|345:376|272:362,1,112.859999655579,0|0,0:0|0:0,0:0:0:0:
325,292,186896,6,0,L|313:145,1,136.799995825195,4|8,1:2|0:0,0:0:0:0:
428,43,187283,6,0,L|416:179,1,136.8,0|0,1:0|0:0,0:0:0:0:
370,218,187670,38,0,L|358:81,1,136.799995825195,4|8,1:2|0:0,0:0:0:0:
211,186,188058,6,0,L|199:322,1,136.8,0|0,0:0|0:0,0:0:0:0:
266,289,188445,38,0,L|254:142,1,136.799995825195,4|8,1:2|0:0,0:0:0:0:
93,50,188832,6,0,L|104:186,1,136.8,4|0,1:2|0:0,0:0:0:0:
135,220,189219,5,10,0:0:0:0:
169,190,189315,1,2,0:0:0:0:
213,183,189412,1,2,0:0:0:0:
254,200,189509,1,2,0:0:0:0:
281,237,189606,2,0,L|386:219,1,102.599996868897,0|0,0:0|0:0,0:0:0:0:
434,232,189993,5,0,1:0:0:0:
439,244,190767,1,2,0:0:0:0:
446,255,191541,5,2,0:0:0:0:
451,267,192315,1,2,0:0:0:0:
439,270,193090,5,2,0:0:0:0:
434,282,193864,1,2,0:0:0:0:
427,293,194638,5,2,0:0:0:0:
422,305,195412,1,2,0:0:0:0:
334,200,196187,6,0,B|273:214|219:167|225:113|225:113|258:73|328:76|361:131,1,319.2,2|0,0:0|0:0,0:0:0:0:
270,231,197735,38,0,B|216:178|169:92|188:25|265:12|289:55|313:99|313:99|355:76|399:53|456:107|435:172|349:220|277:228,1,598.500022830964,2|0,0:0|0:0,0:0:0:0:
189,104,199283,6,0,P|288:173|414:175,1,239.399992694092,2|0,0:0|0:0,0:0:0:0:
201,301,200058,1,2,0:0:0:0:
24,188,200445,1,2,0:0:0:0:
24,188,200638,1,0,0:0:0:0:
97,229,200831,5,8,0:0:0:0:
126,154,201024,1,0,1:0:0:0:
189,104,201218,1,8,0:0:0:0:
269,96,201412,1,4,1:1:0:0:
126,154,201606,1,2,0:0:0:0:
371,193,201993,2,0,L|450:206,1,79.7999975646973,2|0,0:0|0:0,0:0:0:0:
504,72,202380,5,8,0:0:0:0:
307,115,202574,2,0,P|285:160|283:247,1,114,4|0,0:1|0:0,0:0:0:0:
278,222,203154,1,4,0:0:0:0:
223,243,203929,5,0,0:0:0:0:
269,341,204316,2,0,B|304:348|338:322|338:322|381:327|415:301|415:301|458:306|485:283,2,228,4|4|0,0:0|0:0|0:0,0:0:0:0:
151,309,205477,5,0,1:0:0:0:
105,199,206832,1,0,0:0:0:0:
105,199,207025,5,0,1:0:0:0:
338,146,208380,1,0,0:0:0:0:
338,146,208477,1,0,0:0:0:0:
338,146,208574,6,0,P|284:153|236:189,1,114,8|0,0:0|0:0,0:0:0:0:
439,216,208961,1,0,1:2:0:0:
404,88,209154,1,8,0:0:0:0:
410,249,209348,1,0,1:0:0:0:
370,73,209541,1,8,0:0:0:0:
312,354,209735,1,0,1:0:0:0:
328,53,209928,1,8,0:0:0:0:
122,312,210122,5,0,1:0:0:0:
439,216,210315,1,8,0:0:0:0:
32,161,210509,1,0,1:0:0:0:
468,197,210702,1,8,0:0:0:0:
92,280,210896,1,8,0:0:0:0:
496,178,211089,1,8,0:0:0:0:
1,321,211283,1,12,0:0:0:0:
201,193,211670,5,0,1:0:0:0:
235,77,211864,1,0,1:0:0:0:
297,264,212058,2,0,P|361:252|409:216,1,114,0|0,1:0|0:0,0:0:0:0:
316,103,212445,1,0,1:0:0:0:
157,220,212639,2,0,P|187:276|237:310,1,114,0|0,1:0|0:0,0:0:0:0:
90,93,213025,6,0,P|53:146|46:206,1,114,0|0,1:0|0:0,0:0:0:0:
227,12,213412,1,0,1:0:0:0:
292,181,213606,2,0,P|345:156|378:94,1,114,0|0,1:0|0:0,0:0:0:0:
224,244,213993,2,0,B|252:306|341:302|380:265|428:187|345:81,1,342,0|0,1:0|0:0,0:0:0:0:
307,0,214767,5,4,1:0:0:0:
487,135,214961,1,2,0:0:0:0:
132,103,215154,1,8,0:0:0:0:
382,74,215348,1,2,0:0:0:0:
177,179,215541,1,2,1:2:0:0:
380,101,215735,1,0,0:0:0:0:
249,292,215928,1,8,0:2:0:0:
253,65,216122,1,2,1:2:0:0:
452,366,216316,5,0,0:0:0:0:
358,131,216509,1,0,1:0:0:0:
186,339,216703,1,10,0:0:0:0:
257,82,216896,1,0,0:0:0:0:
304,289,217090,1,0,1:0:0:0:
156,33,217283,1,0,1:0:0:0:
0,294,217477,2,0,B|39:325|39:325|135:302,1,136.799995825195,10|0,0:0|0:0,0:0:0:0:
475,281,217864,5,0,1:0:0:0:
160,221,218058,1,2,0:0:0:0:
464,137,218251,1,8,0:0:0:0:
75,192,218445,1,2,0:0:0:0:
389,216,218638,1,2,1:2:0:0:
159,87,218832,1,2,0:0:0:0:
335,327,219025,1,8,0:2:0:0:
265,100,219219,1,2,1:2:0:0:
265,100,219316,1,0,1:0:0:0:
265,100,219412,5,0,1:0:0:0:
220,276,219606,1,0,0:0:0:0:
197,54,219799,1,10,0:0:0:0:
303,222,219993,1,0,0:0:0:0:
26,168,220187,2,0,P|82:131|150:133,1,136.799995825195,0|0,1:0|1:0,0:0:0:0:
118,258,220574,1,10,0:0:0:0:
175,64,220767,1,0,1:0:0:0:
175,64,220864,1,0,1:0:0:0:
175,64,220961,5,0,1:0:0:0:
222,302,221154,1,2,0:0:0:0:
73,29,221348,1,8,0:0:0:0:
17,318,221541,1,2,0:0:0:0:
291,119,221735,1,2,1:2:0:0:
3,195,221928,1,0,0:1:0:0:
318,314,222122,1,8,0:2:0:0:
226,31,222316,1,2,0:2:0:0:
191,327,222509,5,2,1:2:0:0:
469,229,222703,1,0,0:0:0:0:
249,258,222896,1,10,0:0:0:0:
403,299,223090,1,0,0:0:0:0:
276,82,223283,2,0,B|237:86|205:137|205:137|209:156|224:183,1,136.799995825195,0|0,1:0|1:0,0:0:0:0:
206,319,223670,2,0,P|256:275|323:279,1,136.799995825195,10|0,0:0|0:0,0:0:0:0:
412,77,224058,5,0,1:0:0:0:
464,262,224251,1,2,0:0:0:0:
305,157,224445,1,8,0:0:0:0:
497,246,224638,1,2,0:0:0:0:
263,293,224832,1,0,1:0:0:0:
432,179,225025,1,0,1:0:0:0:
334,384,225219,1,10,0:2:0:0:
281,158,225412,1,2,1:2:0:0:
281,158,225509,1,0,1:0:0:0:
281,158,225606,5,0,1:0:0:0:
63,239,225799,1,2,0:0:0:0:
203,363,225993,1,8,0:0:0:0:
150,202,226187,1,2,0:0:0:0:
298,294,226380,2,0,P|328:279|350:253,3,68.3999979125977,0|0|2|0,1:0|0:0|0:0|0:0,0:0:0:0:
438,274,226767,2,0,P|452:243|453:209,3,68.3999979125977,12|0|2|0,0:0|0:0|0:0|0:0,0:0:0:0:
386,164,227154,5,4,1:2:0:0:
194,29,227348,1,2,0:0:0:0:
188,316,227541,1,8,0:0:0:0:
248,100,227735,1,2,0:0:0:0:
417,224,227929,1,2,1:2:0:0:
194,214,228123,1,0,0:0:0:0:
465,308,228316,1,8,0:2:0:0:
278,184,228510,1,2,1:2:0:0:
504,181,228703,5,0,0:0:0:0:
187,253,228897,1,0,1:0:0:0:
370,13,229090,1,10,0:0:0:0:
310,360,229284,1,0,0:0:0:0:
75,42,229477,1,0,1:0:0:0:
305,224,229670,1,0,1:0:0:0:
13,168,229864,2,0,P|-2:234|0:303,1,136.799995825195,10|0,0:0|0:0,0:0:0:0:
310,360,230251,5,0,1:0:0:0:
143,129,230445,1,2,0:0:0:0:
393,335,230638,1,8,0:0:0:0:
93,211,230832,1,2,0:0:0:0:
480,169,231025,1,2,1:2:0:0:
141,285,231219,1,0,0:0:0:0:
316,140,231412,1,10,0:2:0:0:
220,329,231606,1,0,1:2:0:0:
220,329,231703,1,0,1:0:0:0:
220,329,231799,5,0,1:0:0:0:
150,134,231993,1,0,1:0:0:0:
99,351,232187,1,10,0:0:0:0:
203,205,232380,1,0,1:0:0:0:
383,241,232574,2,0,B|361:278|319:286|279:269|279:269|237:305|237:305|197:279|143:279,1,273.599991650391,0|10,0:0|0:0,0:0:0:0:
213,151,233154,1,0,1:0:0:0:
213,151,233251,1,0,1:0:0:0:
213,151,233348,5,0,1:0:0:0:
171,364,233541,1,2,0:0:0:0:
239,39,233735,1,8,0:0:0:0:
287,241,233929,1,2,0:0:0:0:
49,28,234122,1,2,1:2:0:0:
82,266,234316,1,0,1:0:0:0:
397,30,234509,1,8,0:0:0:0:
347,311,234703,1,2,0:0:0:0:
94,0,234896,5,2,1:2:0:0:
235,376,235090,1,0,0:0:0:0:
315,49,235283,1,8,0:0:0:0:
253,249,235476,1,0,0:0:0:0:
435,225,235670,2,0,P|406:164|346:132,1,136.799995825195,2|0,1:2|1:0,0:0:0:0:
208,337,236058,2,0,P|276:338|329:298,1,136.799995825195,8|0,0:0|0:0,0:0:0:0:
125,34,236445,5,0,1:0:0:0:
176,254,236638,1,2,0:0:0:0:
307,36,236832,1,8,0:0:0:0:
248,198,237025,1,2,0:0:0:0:
488,326,237219,1,8,0:3:0:0:
103,218,237412,1,8,0:3:0:0:
103,218,237509,1,8,0:3:0:0:
103,218,237606,1,8,0:3:0:0:
385,18,237799,6,0,P|437:-2|524:29,1,136.799995825195,4|0,1:2|0:0,0:0:0:0:
426,340,238187,1,0,1:0:0:0:
283,52,238380,1,12,0:0:0:0:
178,109,239541,6,0,B|110:95|110:95|75:122,1,114,6|0,1:2|0:0,0:0:0:0:
252,182,239929,2,0,P|324:181|379:146,1,114,10|0,0:0|0:0,0:0:0:0:
197,284,240316,1,2,1:2:0:0:
294,106,240509,1,2,1:2:0:0:
338,354,240703,1,8,0:0:0:0:
281,57,240896,1,2,1:2:0:0:
141,266,241090,5,0,0:0:0:0:
313,199,241283,1,0,1:0:0:0:
141,266,241477,1,8,0:0:0:0:
313,199,241670,1,2,1:2:0:0:
100,246,241864,1,0,0:0:0:0:
344,221,242058,1,0,1:0:0:0:
100,246,242251,1,8,0:0:0:0:
344,221,242444,1,0,0:0:0:0:
134,115,242638,6,0,B|91:104|91:104|35:146,1,114,2|0,1:2|0:0,0:0:0:0:
259,120,243025,2,0,B|300:63|300:63|289:20,1,114,10|0,0:2|0:0,0:0:0:0:
330,212,243413,1,2,1:2:0:0:
207,50,243606,1,2,1:2:0:0:
451,111,243800,1,8,0:0:0:0:
157,42,243993,1,2,1:2:0:0:
364,263,244187,5,0,0:0:0:0:
285,96,244380,1,0,1:0:0:0:
364,263,244574,1,8,0:0:0:0:
285,96,244767,1,2,1:2:0:0:
347,304,244961,1,0,0:0:0:0:
304,63,245155,1,0,1:0:0:0:
347,304,245348,1,8,0:0:0:0:
304,63,245541,1,0,0:0:0:0:
423,358,245735,6,0,B|486:329|486:329|499:287,1,114,2|0,1:2|0:0,0:0:0:0:
409,129,246122,2,0,P|377:145|369:249,1,114,10|0,0:2|0:0,0:0:0:0:
221,33,246510,1,2,1:2:0:0:
195,235,246703,1,2,1:2:0:0:
376,60,246897,1,8,0:0:0:0:
156,267,247090,1,2,1:2:0:0:
394,166,247284,5,0,0:0:0:0:
208,154,247477,1,0,1:0:0:0:
394,166,247671,1,8,0:0:0:0:
208,154,247864,1,2,1:2:0:0:
421,201,248058,1,0,0:0:0:0:
190,120,248252,1,0,1:0:0:0:
421,201,248445,1,8,0:0:0:0:
190,120,248638,1,0,0:0:0:0:
417,66,248832,6,0,P|384:24|301:7,1,114,2|0,1:2|0:0,0:0:0:0:
329,243,249220,2,0,P|389:277|464:247,1,114,10|0,0:2|0:0,0:0:0:0:
164,92,249606,1,2,1:2:0:0:
222,287,249800,1,2,1:2:0:0:
316,53,249994,1,8,0:0:0:0:
198,331,250187,1,2,1:2:0:0:
92,98,250381,5,0,0:0:0:0:
113,287,250574,1,8,0:0:0:0:
92,98,250767,1,0,0:0:0:0:
113,287,250961,1,8,0:2:0:0:
114,117,251155,1,0,0:0:0:0:
92,259,251348,1,8,0:0:0:0:
114,117,251542,1,8,0:0:0:0:
92,259,251735,1,0,0:0:0:0:
194,202,251929,6,0,B|230:190|262:202|262:202|292:195|330:214|330:214|363:205|415:232,1,228,4|0,1:2|0:0,0:0:0:0:
256,192,252799,12,0,258122,0:0:0:0:
