osu file format v14

[General]
AudioFilename: audio.mp3
AudioLeadIn: 0
PreviewTime: 59914
Countdown: 1
SampleSet: Normal
StackLeniency: 0.7
Mode: 1
LetterboxInBreaks: 0
WidescreenStoryboard: 0

[Editor]
Bookmarks: 1824,13460,25096,48369,60005,71642,96369,108005,132733,156005,167642,192914
DistanceSpacing: 1
BeatDivisor: 4
GridSize: 32
TimelineZoom: 1.4

[Metadata]
Title:I know
TitleUnicode:I know
Artist:Yellow Zebra
ArtistUnicode:Yellow Zebra
Creator:ShiitakeCat
Version:Muzukashii
Source:東方紅魔郷 ~ the Embodiment of Scarlet Devil
Tags:Trapmaniac touhou 藤宮ゆき Yuki Fujimiya Patchouli Knowledge Embodiment of Scarlet Devil Locked Girl ~ The Girl's Secret Room
BeatmapID:1597041
BeatmapSetID:759369

[Difficulty]
HPDrainRate:5
CircleSize:2
OverallDifficulty:5
ApproachRate:6
SliderMultiplier:1.40104396915589
SliderTickRate:1

[Events]
//Background and Video events
0,0,"Patchy cutie.jpg",0,0
//Break Periods
2,2024,6410
2,131297,143137
//Storyboard Layer 0 (Background)
//Storyboard Layer 1 (Fail)
//Storyboard Layer 2 (Pass)
//Storyboard Layer 3 (Foreground)
//Storyboard Layer 4 (Overlay)
//Storyboard Sound Samples

[TimingPoints]
1824,363.636363636364,4,1,0,70,1,0
60005,-100,4,1,0,70,0,1
83278,-100,4,1,0,70,0,0
108005,-100,4,1,0,70,0,1
131278,-100,4,1,0,70,0,0
167642,-100,4,1,0,70,0,1
190914,-100,4,1,0,70,0,0

[HitObjects]
256,192,1096,5,0,0:0:0:0:
256,192,1278,1,0,0:0:0:0:
256,192,1369,1,0,0:0:0:0:
256,192,1460,1,0,0:0:0:0:
256,192,1642,1,8,0:0:0:0:
256,192,1824,1,0,0:0:0:0:
256,192,7460,5,8,0:0:0:0:
256,192,7642,1,0,0:0:0:0:
256,192,12005,1,0,0:0:0:0:
256,192,12369,1,0,0:0:0:0:
256,192,12733,1,0,0:0:0:0:
256,192,12914,1,8,0:0:0:0:
256,192,13096,1,0,0:0:0:0:
256,192,13278,1,8,0:0:0:0:
256,192,13460,5,0,0:0:0:0:
256,192,13823,1,0,0:0:0:0:
256,192,14187,1,8,0:0:0:0:
256,192,14369,1,0,0:0:0:0:
256,192,15278,1,0,0:0:0:0:
256,192,15641,1,8,0:0:0:0:
256,192,15823,1,0,0:0:0:0:
256,192,16732,1,0,0:0:0:0:
256,192,17096,1,8,0:0:0:0:
256,192,17278,1,0,0:0:0:0:
256,192,18187,1,0,0:0:0:0:
256,192,18551,1,8,0:0:0:0:
256,192,18733,1,0,0:0:0:0:
256,192,18915,1,0,0:0:0:0:
256,192,19097,1,8,0:0:0:0:
256,192,19278,1,0,0:0:0:0:
256,192,19642,1,0,0:0:0:0:
256,192,20005,1,0,0:0:0:0:
256,192,20187,1,0,0:0:0:0:
256,192,20369,1,8,0:0:0:0:
256,192,20733,1,0,0:0:0:0:
256,192,21096,1,0,0:0:0:0:
256,192,21460,1,0,0:0:0:0:
256,192,21642,1,0,0:0:0:0:
256,192,21824,1,8,0:0:0:0:
256,192,22187,1,0,0:0:0:0:
256,192,22551,1,0,0:0:0:0:
256,192,22914,1,0,0:0:0:0:
256,192,23096,1,0,0:0:0:0:
256,192,23278,1,0,0:0:0:0:
256,192,23642,1,0,0:0:0:0:
256,192,24005,1,0,0:0:0:0:
256,192,24369,1,8,0:0:0:0:
256,192,24551,1,0,0:0:0:0:
256,192,24733,1,0,0:0:0:0:
256,192,24914,1,8,0:0:0:0:
256,192,25096,5,0,0:0:0:0:
256,192,25642,1,0,0:0:0:0:
256,192,25824,1,8,0:0:0:0:
256,192,26187,1,0,0:0:0:0:
256,192,26369,1,0,0:0:0:0:
256,192,26551,1,8,0:0:0:0:
256,192,26914,1,8,0:0:0:0:
256,192,27096,1,0,0:0:0:0:
256,192,27278,1,8,0:0:0:0:
256,192,27460,1,0,0:0:0:0:
256,192,27642,1,0,0:0:0:0:
256,192,27824,1,0,0:0:0:0:
256,192,28005,1,8,0:0:0:0:
256,192,28369,1,0,0:0:0:0:
256,192,28733,1,8,0:0:0:0:
256,192,28914,1,0,0:0:0:0:
256,192,29096,1,0,0:0:0:0:
256,192,29460,1,0,0:0:0:0:
256,192,29642,1,8,0:0:0:0:
256,192,29824,1,0,0:0:0:0:
256,192,30005,1,8,0:0:0:0:
256,192,30187,1,0,0:0:0:0:
256,192,30369,1,0,0:0:0:0:
256,192,30551,1,0,0:0:0:0:
256,192,30733,1,8,0:0:0:0:
256,192,30914,1,0,0:0:0:0:
256,192,31460,1,8,0:0:0:0:
256,192,31642,1,0,0:0:0:0:
256,192,32005,1,0,0:0:0:0:
256,192,32187,1,0,0:0:0:0:
256,192,32369,1,0,0:0:0:0:
256,192,32733,1,0,0:0:0:0:
256,192,32914,1,8,0:0:0:0:
256,192,33278,1,0,0:0:0:0:
256,192,33460,1,0,0:0:0:0:
256,192,33642,1,0,0:0:0:0:
256,192,33823,1,0,0:0:0:0:
256,192,34187,1,0,0:0:0:0:
256,192,34551,1,0,0:0:0:0:
256,192,34733,1,0,0:0:0:0:
256,192,34914,1,8,0:0:0:0:
256,192,35096,1,0,0:0:0:0:
256,192,35187,1,0,0:0:0:0:
256,192,35278,1,0,0:0:0:0:
256,192,35642,1,0,0:0:0:0:
256,192,35824,1,8,0:0:0:0:
256,192,36005,1,0,0:0:0:0:
256,192,36187,1,0,0:0:0:0:
256,192,36369,1,0,0:0:0:0:
256,192,36551,1,8,0:0:0:0:
256,192,36733,5,0,0:0:0:0:
256,192,37279,1,0,0:0:0:0:
256,192,37461,1,8,0:0:0:0:
256,192,37824,1,0,0:0:0:0:
256,192,38006,1,0,0:0:0:0:
256,192,38188,1,8,0:0:0:0:
256,192,38551,1,0,0:0:0:0:
256,192,38733,1,0,0:0:0:0:
256,192,38915,1,8,0:0:0:0:
256,192,39096,1,0,0:0:0:0:
256,192,39278,1,0,0:0:0:0:
256,192,39461,1,0,0:0:0:0:
256,192,39642,1,8,0:0:0:0:
256,192,40006,1,0,0:0:0:0:
256,192,40370,1,8,0:0:0:0:
256,192,40551,1,0,0:0:0:0:
256,192,40914,1,0,0:0:0:0:
256,192,41279,1,8,0:0:0:0:
256,192,41461,1,0,0:0:0:0:
256,192,41642,1,8,0:0:0:0:
256,192,41824,1,0,0:0:0:0:
256,192,42006,1,0,0:0:0:0:
256,192,42188,1,0,0:0:0:0:
256,192,42370,1,8,0:0:0:0:
256,192,42551,1,0,0:0:0:0:
256,192,42914,1,0,0:0:0:0:
256,192,43097,1,8,0:0:0:0:
256,192,43279,1,0,0:0:0:0:
256,192,43642,1,0,0:0:0:0:
256,192,43824,1,0,0:0:0:0:
256,192,44006,1,0,0:0:0:0:
256,192,44369,1,0,0:0:0:0:
256,192,44551,1,8,0:0:0:0:
256,192,44915,1,0,0:0:0:0:
256,192,45097,1,0,0:0:0:0:
256,192,45278,1,0,0:0:0:0:
256,192,45369,1,0,0:0:0:0:
256,192,45460,1,0,0:0:0:0:
256,192,45824,1,0,0:0:0:0:
256,192,46188,1,0,0:0:0:0:
256,192,46370,1,0,0:0:0:0:
256,192,46551,1,8,0:0:0:0:
256,192,46733,1,0,0:0:0:0:
256,192,46824,1,0,0:0:0:0:
256,192,46915,1,0,0:0:0:0:
256,192,47279,1,0,0:0:0:0:
256,192,47461,1,8,0:0:0:0:
256,192,47642,1,0,0:0:0:0:
256,192,47824,1,0,0:0:0:0:
256,192,48006,1,0,0:0:0:0:
256,192,48188,1,8,0:0:0:0:
256,192,48370,5,0,0:0:0:0:
256,192,48914,1,0,0:0:0:0:
256,192,49096,1,8,0:0:0:0:
256,192,49642,1,0,0:0:0:0:
256,192,49824,1,8,0:0:0:0:
256,192,50369,1,8,0:0:0:0:
256,192,50551,1,0,0:0:0:0:
256,192,50914,1,8,0:0:0:0:
256,192,51096,1,0,0:0:0:0:
256,192,51278,1,8,0:0:0:0:
256,192,51824,1,0,0:0:0:0:
256,192,52005,1,8,0:0:0:0:
256,192,52551,1,0,0:0:0:0:
256,192,52733,1,8,0:0:0:0:
256,192,53278,1,8,0:0:0:0:
256,192,53460,1,0,0:0:0:0:
256,192,53824,1,0,0:0:0:0:
256,192,54005,1,0,0:0:0:0:
256,192,54187,1,8,0:0:0:0:
256,192,54551,1,0,0:0:0:0:
256,192,54733,1,0,0:0:0:0:
256,192,54914,1,8,0:0:0:0:
256,192,55278,1,0,0:0:0:0:
256,192,55642,1,8,0:0:0:0:
256,192,56005,1,0,0:0:0:0:
256,192,56187,1,0,0:0:0:0:
256,192,56369,1,0,0:0:0:0:
256,192,56733,1,0,0:0:0:0:
256,192,56914,1,0,0:0:0:0:
256,192,57096,1,8,0:0:0:0:
256,192,57278,1,8,0:0:0:0:
256,192,57642,1,0,0:0:0:0:
256,192,57824,1,8,0:0:0:0:
256,192,58551,1,0,0:0:0:0:
256,192,58914,1,0,0:0:0:0:
256,192,59278,1,8,0:0:0:0:
256,192,59642,1,0,0:0:0:0:
256,192,59733,1,0,0:0:0:0:
256,192,59824,1,0,0:0:0:0:
256,192,60005,5,8,0:0:0:0:
256,192,60369,1,8,0:0:0:0:
256,192,60733,1,0,0:0:0:0:
256,192,61005,1,0,0:0:0:0:
256,192,61096,1,8,0:0:0:0:
256,192,61278,1,0,0:0:0:0:
256,192,61642,1,0,0:0:0:0:
256,192,61824,1,8,0:0:0:0:
256,192,62005,1,8,0:0:0:0:
256,192,62187,1,0,0:0:0:0:
256,192,62460,1,0,0:0:0:0:
256,192,62551,1,8,0:0:0:0:
256,192,62733,1,0,0:0:0:0:
256,192,63096,1,0,0:0:0:0:
256,192,63278,1,8,0:0:0:0:
256,192,63460,1,8,0:0:0:0:
256,192,63642,1,0,0:0:0:0:
256,192,63914,1,0,0:0:0:0:
256,192,64005,1,8,0:0:0:0:
256,192,64187,1,0,0:0:0:0:
256,192,64551,1,0,0:0:0:0:
256,192,64733,1,8,0:0:0:0:
256,192,64914,1,8,0:0:0:0:
256,192,65096,1,0,0:0:0:0:
256,192,65369,1,0,0:0:0:0:
256,192,65460,1,8,0:0:0:0:
256,192,65642,1,8,0:0:0:0:
256,192,66005,1,0,0:0:0:0:
256,192,66188,1,8,0:0:0:0:
256,192,66369,1,8,0:0:0:0:
256,192,66551,1,0,0:0:0:0:
256,192,66824,1,0,0:0:0:0:
256,192,66915,1,8,0:0:0:0:
256,192,67096,1,0,0:0:0:0:
256,192,67460,1,8,0:0:0:0:
256,192,67824,1,8,0:0:0:0:
256,192,68005,1,0,0:0:0:0:
256,192,68278,1,0,0:0:0:0:
256,192,68369,1,8,0:0:0:0:
256,192,68551,1,0,0:0:0:0:
256,192,68914,1,0,0:0:0:0:
256,192,69096,1,8,0:0:0:0:
256,192,69278,1,0,0:0:0:0:
256,192,69460,1,8,0:0:0:0:
256,192,69733,1,0,0:0:0:0:
256,192,69823,1,8,0:0:0:0:
256,192,70005,1,8,0:0:0:0:
256,192,70369,1,0,0:0:0:0:
256,192,70551,1,8,0:0:0:0:
256,192,70733,1,0,0:0:0:0:
256,192,70914,1,8,0:0:0:0:
256,192,71096,1,0,0:0:0:0:
256,192,71187,1,0,0:0:0:0:
256,192,71278,1,0,0:0:0:0:
256,192,71460,1,8,0:0:0:0:
256,192,71642,5,8,0:0:0:0:
256,192,72005,1,8,0:0:0:0:
256,192,72369,1,0,0:0:0:0:
256,192,72642,1,0,0:0:0:0:
256,192,72732,1,8,0:0:0:0:
256,192,72914,1,0,0:0:0:0:
256,192,73278,1,0,0:0:0:0:
256,192,73460,1,8,0:0:0:0:
256,192,73642,1,0,0:0:0:0:
256,192,73824,1,0,0:0:0:0:
256,192,74096,1,0,0:0:0:0:
256,192,74187,1,8,0:0:0:0:
256,192,74369,1,0,0:0:0:0:
256,192,74733,1,0,0:0:0:0:
256,192,74915,1,8,0:0:0:0:
256,192,75096,1,8,0:0:0:0:
256,192,75278,1,0,0:0:0:0:
256,192,75551,1,0,0:0:0:0:
256,192,75642,1,8,0:0:0:0:
256,192,75824,1,0,0:0:0:0:
256,192,76187,1,0,0:0:0:0:
256,192,76369,1,8,0:0:0:0:
256,192,76551,1,0,0:0:0:0:
256,192,76733,1,8,0:0:0:0:
256,192,77005,1,0,0:0:0:0:
256,192,77096,1,8,0:0:0:0:
256,192,77278,1,8,0:0:0:0:
256,192,77642,1,0,0:0:0:0:
256,192,77824,1,8,0:0:0:0:
256,192,78005,1,8,0:0:0:0:
256,192,78187,1,0,0:0:0:0:
256,192,78460,1,0,0:0:0:0:
256,192,78551,1,8,0:0:0:0:
256,192,78733,1,0,0:0:0:0:
256,192,79096,1,0,0:0:0:0:
256,192,79278,1,8,0:0:0:0:
256,192,79460,1,8,0:0:0:0:
256,192,79642,1,0,0:0:0:0:
256,192,79914,1,0,0:0:0:0:
256,192,80006,1,8,0:0:0:0:
256,192,80187,1,0,0:0:0:0:
256,192,80551,1,0,0:0:0:0:
256,192,80733,1,8,0:0:0:0:
256,192,80914,1,8,0:0:0:0:
256,192,81096,1,0,0:0:0:0:
256,192,81278,1,0,0:0:0:0:
256,192,81460,1,8,0:0:0:0:
256,192,81642,1,8,0:0:0:0:
256,192,82005,1,0,0:0:0:0:
256,192,82188,1,8,0:0:0:0:
256,192,82369,1,8,0:0:0:0:
256,192,82551,1,0,0:0:0:0:
256,192,82733,1,0,0:0:0:0:
256,192,82824,1,0,0:0:0:0:
256,192,82914,1,8,0:0:0:0:
256,192,83096,1,8,0:0:0:0:
256,192,83460,1,0,0:0:0:0:
256,192,83551,1,0,0:0:0:0:
256,192,83642,1,0,0:0:0:0:
256,192,83824,1,0,0:0:0:0:
256,192,83914,1,0,0:0:0:0:
256,192,84005,1,0,0:0:0:0:
256,192,84187,1,0,0:0:0:0:
256,192,84369,1,8,0:0:0:0:
256,192,84551,1,0,0:0:0:0:
256,192,84733,5,0,0:0:0:0:
256,192,85279,1,0,0:0:0:0:
256,192,85461,1,8,0:0:0:0:
256,192,85824,1,0,0:0:0:0:
256,192,86006,1,0,0:0:0:0:
256,192,86188,1,8,0:0:0:0:
256,192,86733,1,0,0:0:0:0:
256,192,86915,1,8,0:0:0:0:
256,192,87096,1,0,0:0:0:0:
256,192,87278,1,0,0:0:0:0:
256,192,87461,1,0,0:0:0:0:
256,192,87642,1,8,0:0:0:0:
256,192,88006,1,0,0:0:0:0:
256,192,88370,1,8,0:0:0:0:
256,192,88551,1,0,0:0:0:0:
256,192,88914,1,0,0:0:0:0:
256,192,89279,1,8,0:0:0:0:
256,192,89461,1,0,0:0:0:0:
256,192,89642,1,8,0:0:0:0:
256,192,89824,1,0,0:0:0:0:
256,192,90188,1,0,0:0:0:0:
256,192,90370,1,8,0:0:0:0:
256,192,90551,1,0,0:0:0:0:
256,192,91097,1,8,0:0:0:0:
256,192,91279,1,0,0:0:0:0:
256,192,91642,1,0,0:0:0:0:
256,192,91824,1,8,0:0:0:0:
256,192,92006,1,0,0:0:0:0:
256,192,92369,1,0,0:0:0:0:
256,192,92551,1,8,0:0:0:0:
256,192,92915,1,0,0:0:0:0:
256,192,93097,1,0,0:0:0:0:
256,192,93278,1,0,0:0:0:0:
256,192,93460,1,0,0:0:0:0:
256,192,93824,1,0,0:0:0:0:
256,192,94188,1,0,0:0:0:0:
256,192,94370,1,0,0:0:0:0:
256,192,94551,1,8,0:0:0:0:
256,192,94733,1,0,0:0:0:0:
256,192,94824,1,0,0:0:0:0:
256,192,94915,1,0,0:0:0:0:
256,192,95279,1,0,0:0:0:0:
256,192,95461,1,8,0:0:0:0:
256,192,95642,1,0,0:0:0:0:
256,192,95824,1,0,0:0:0:0:
256,192,96006,1,0,0:0:0:0:
256,192,96188,1,8,0:0:0:0:
256,192,96369,5,0,0:0:0:0:
256,192,96913,1,0,0:0:0:0:
256,192,97095,1,8,0:0:0:0:
256,192,97460,1,0,0:0:0:0:
256,192,97641,1,0,0:0:0:0:
256,192,97823,1,8,0:0:0:0:
256,192,98368,1,8,0:0:0:0:
256,192,98550,1,0,0:0:0:0:
256,192,98913,1,8,0:0:0:0:
256,192,99095,1,0,0:0:0:0:
256,192,99277,1,8,0:0:0:0:
256,192,99823,1,0,0:0:0:0:
256,192,100004,1,8,0:0:0:0:
256,192,100369,1,0,0:0:0:0:
256,192,100550,1,0,0:0:0:0:
256,192,100732,1,8,0:0:0:0:
256,192,101278,1,0,0:0:0:0:
256,192,101459,1,0,0:0:0:0:
256,192,101823,1,0,0:0:0:0:
256,192,102004,1,0,0:0:0:0:
256,192,102186,1,8,0:0:0:0:
256,192,102732,1,0,0:0:0:0:
256,192,102913,1,8,0:0:0:0:
256,192,103278,1,0,0:0:0:0:
256,192,103459,1,0,0:0:0:0:
256,192,103641,1,8,0:0:0:0:
256,192,104005,1,0,0:0:0:0:
256,192,104186,1,8,0:0:0:0:
256,192,104368,1,0,0:0:0:0:
256,192,104732,1,0,0:0:0:0:
256,192,105095,1,0,0:0:0:0:
256,192,105278,1,0,0:0:0:0:
256,192,105369,1,0,0:0:0:0:
256,192,105460,1,0,0:0:0:0:
256,192,105823,1,8,0:0:0:0:
256,192,106187,1,0,0:0:0:0:
256,192,106369,1,0,0:0:0:0:
256,192,106460,1,0,0:0:0:0:
256,192,106550,1,0,0:0:0:0:
256,192,106913,1,0,0:0:0:0:
256,192,107096,1,0,0:0:0:0:
256,192,107187,1,0,0:0:0:0:
256,192,107277,1,8,0:0:0:0:
256,192,107460,1,0,0:0:0:0:
256,192,107641,1,0,0:0:0:0:
256,192,107823,1,0,0:0:0:0:
256,192,107914,1,0,0:0:0:0:
256,192,108005,5,8,0:0:0:0:
256,192,108369,1,8,0:0:0:0:
256,192,108733,1,0,0:0:0:0:
256,192,109005,1,0,0:0:0:0:
256,192,109096,1,8,0:0:0:0:
256,192,109278,1,0,0:0:0:0:
256,192,109642,1,0,0:0:0:0:
256,192,109824,1,8,0:0:0:0:
256,192,110005,1,8,0:0:0:0:
256,192,110187,1,0,0:0:0:0:
256,192,110460,1,0,0:0:0:0:
256,192,110551,1,8,0:0:0:0:
256,192,110733,1,0,0:0:0:0:
256,192,111096,1,0,0:0:0:0:
256,192,111278,1,8,0:0:0:0:
256,192,111460,1,8,0:0:0:0:
256,192,111642,1,0,0:0:0:0:
256,192,111914,1,0,0:0:0:0:
256,192,112005,1,8,0:0:0:0:
256,192,112187,1,0,0:0:0:0:
256,192,112551,1,0,0:0:0:0:
256,192,112733,1,8,0:0:0:0:
256,192,112914,1,0,0:0:0:0:
256,192,113096,1,8,0:0:0:0:
256,192,113369,1,0,0:0:0:0:
256,192,113460,1,8,0:0:0:0:
256,192,113642,1,8,0:0:0:0:
256,192,114005,1,0,0:0:0:0:
256,192,114187,1,8,0:0:0:0:
256,192,114369,1,8,0:0:0:0:
256,192,114551,1,0,0:0:0:0:
256,192,114824,1,0,0:0:0:0:
256,192,114914,1,8,0:0:0:0:
256,192,115096,1,0,0:0:0:0:
256,192,115460,1,0,0:0:0:0:
256,192,115642,1,8,0:0:0:0:
256,192,116005,1,0,0:0:0:0:
256,192,116278,1,0,0:0:0:0:
256,192,116369,1,8,0:0:0:0:
256,192,116551,1,0,0:0:0:0:
256,192,116914,1,0,0:0:0:0:
256,192,117096,1,8,0:0:0:0:
256,192,117460,1,0,0:0:0:0:
256,192,117733,1,0,0:0:0:0:
256,192,117824,1,8,0:0:0:0:
256,192,118005,1,8,0:0:0:0:
256,192,118369,1,0,0:0:0:0:
256,192,118551,1,8,0:0:0:0:
256,192,118733,1,8,0:0:0:0:
256,192,118914,1,0,0:0:0:0:
256,192,119096,1,0,0:0:0:0:
256,192,119187,1,0,0:0:0:0:
256,192,119278,1,0,0:0:0:0:
256,192,119460,1,8,0:0:0:0:
256,192,119642,1,8,0:0:0:0:
256,192,120006,1,8,0:0:0:0:
256,192,120370,1,0,0:0:0:0:
256,192,120642,1,0,0:0:0:0:
256,192,120733,1,8,0:0:0:0:
256,192,120915,1,0,0:0:0:0:
256,192,121279,1,0,0:0:0:0:
256,192,121461,1,8,0:0:0:0:
256,192,121824,1,0,0:0:0:0:
256,192,122005,1,0,0:0:0:0:
256,192,122187,1,0,0:0:0:0:
256,192,122370,1,8,0:0:0:0:
256,192,122733,1,0,0:0:0:0:
256,192,122915,1,0,0:0:0:0:
256,192,123096,1,8,0:0:0:0:
256,192,123279,1,0,0:0:0:0:
256,192,123460,1,0,0:0:0:0:
256,192,123642,1,0,0:0:0:0:
256,192,123824,1,8,0:0:0:0:
256,192,124187,1,0,0:0:0:0:
256,192,124370,1,8,0:0:0:0:
256,192,124551,1,0,0:0:0:0:
256,192,124733,1,8,0:0:0:0:
256,192,125006,1,0,0:0:0:0:
256,192,125279,1,8,0:0:0:0:
256,192,125642,1,0,0:0:0:0:
256,192,125824,1,8,0:0:0:0:
256,192,126005,1,8,0:0:0:0:
256,192,126188,1,0,0:0:0:0:
256,192,126461,1,0,0:0:0:0:
256,192,126551,1,8,0:0:0:0:
256,192,126733,1,0,0:0:0:0:
256,192,127097,1,0,0:0:0:0:
256,192,127279,1,8,0:0:0:0:
256,192,127460,1,0,0:0:0:0:
256,192,127642,1,0,0:0:0:0:
256,192,127915,1,0,0:0:0:0:
256,192,128005,1,8,0:0:0:0:
256,192,128188,1,0,0:0:0:0:
256,192,128551,1,0,0:0:0:0:
256,192,128733,1,8,0:0:0:0:
224,192,128914,1,8,0:0:0:0:
256,192,129097,1,0,0:0:0:0:
256,192,129370,1,0,0:0:0:0:
256,192,129460,1,8,0:0:0:0:
256,192,129642,1,8,0:0:0:0:
256,192,130006,1,0,0:0:0:0:
256,192,130188,1,0,0:0:0:0:
256,192,130370,1,8,0:0:0:0:
256,192,130551,1,0,0:0:0:0:
256,192,130733,1,0,0:0:0:0:
256,192,130824,1,0,0:0:0:0:
256,192,130914,1,8,0:0:0:0:
256,192,131097,1,8,0:0:0:0:
256,192,144187,5,2,0:0:0:0:
256,192,144369,1,0,0:0:0:0:
256,192,144733,1,0,0:0:0:0:
256,192,144914,1,2,0:0:0:0:
256,192,145460,1,0,0:0:0:0:
256,192,145824,1,0,0:0:0:0:
256,192,146369,1,0,0:0:0:0:
256,192,146551,1,2,0:0:0:0:
256,192,146914,1,0,0:0:0:0:
256,192,147278,1,2,0:0:0:0:
256,192,147642,1,0,0:0:0:0:
256,192,148006,1,2,0:0:0:0:
256,192,148369,1,0,0:0:0:0:
256,192,148551,1,0,0:0:0:0:
256,192,148733,1,2,0:0:0:0:
256,192,149096,1,0,0:0:0:0:
256,192,149460,1,0,0:0:0:0:
256,192,149642,1,0,0:0:0:0:
256,192,149733,1,0,0:0:0:0:
256,192,149824,1,0,0:0:0:0:
256,192,150005,1,0,0:0:0:0:
256,192,150187,1,0,0:0:0:0:
256,192,150369,1,2,0:0:0:0:
256,192,150733,1,2,0:0:0:0:
256,192,150914,1,2,0:0:0:0:
256,192,151096,1,0,0:0:0:0:
256,192,151278,1,2,0:0:0:0:
256,192,151460,1,0,0:0:0:0:
256,192,151642,1,0,0:0:0:0:
256,192,152005,1,0,0:0:0:0:
256,192,152187,1,2,0:0:0:0:
256,192,152369,1,0,0:0:0:0:
256,192,152733,1,0,0:0:0:0:
256,192,152914,1,0,0:0:0:0:
256,192,153096,1,2,0:0:0:0:
256,192,153460,1,2,0:0:0:0:
256,192,153642,1,0,0:0:0:0:
256,192,153824,1,2,0:0:0:0:
256,192,154187,1,0,0:0:0:0:
256,192,154369,1,2,0:0:0:0:
256,192,154460,1,2,0:0:0:0:
256,192,154551,1,2,0:0:0:0:
256,192,154733,1,0,0:0:0:0:
256,192,154914,1,2,0:0:0:0:
256,192,155096,1,0,0:0:0:0:
256,192,155277,1,2,0:0:0:0:
256,192,155460,1,0,0:0:0:0:
256,192,155641,1,0,0:0:0:0:
256,192,155824,1,2,0:0:0:0:
256,192,156005,5,0,0:0:0:0:
256,192,156551,1,0,0:0:0:0:
256,192,156733,1,8,0:0:0:0:
256,192,157278,1,0,0:0:0:0:
256,192,157460,1,8,0:0:0:0:
256,192,158005,1,8,0:0:0:0:
256,192,158186,1,0,0:0:0:0:
256,192,158551,1,8,0:0:0:0:
256,192,158733,1,0,0:0:0:0:
256,192,158914,1,8,0:0:0:0:
256,192,159460,1,0,0:0:0:0:
256,192,159642,1,8,0:0:0:0:
256,192,160186,1,0,0:0:0:0:
256,192,160368,1,8,0:0:0:0:
256,192,160733,1,0,0:0:0:0:
256,192,160913,1,8,0:0:0:0:
256,192,161095,1,0,0:0:0:0:
256,192,161459,1,0,0:0:0:0:
256,192,161642,1,0,0:0:0:0:
256,192,161824,1,8,0:0:0:0:
256,192,162187,1,0,0:0:0:0:
256,192,162369,1,0,0:0:0:0:
256,192,162551,1,8,0:0:0:0:
256,192,162914,1,0,0:0:0:0:
256,192,163096,1,0,0:0:0:0:
256,192,163278,1,8,0:0:0:0:
256,192,163460,1,0,0:0:0:0:
256,192,163642,1,8,0:0:0:0:
256,192,163824,1,8,0:0:0:0:
256,192,164005,1,0,0:0:0:0:
256,192,164187,1,0,0:0:0:0:
256,192,164369,1,8,0:0:0:0:
256,192,164733,1,0,0:0:0:0:
256,192,164914,1,0,0:0:0:0:
256,192,165005,1,0,0:0:0:0:
256,192,165096,1,0,0:0:0:0:
256,192,165278,1,0,0:0:0:0:
256,192,165459,1,8,0:0:0:0:
256,192,165642,1,0,0:0:0:0:
256,192,165823,1,0,0:0:0:0:
256,192,166005,1,0,0:0:0:0:
256,192,166096,1,0,0:0:0:0:
256,192,166186,1,0,0:0:0:0:
256,192,166369,1,0,0:0:0:0:
256,192,166551,1,0,0:0:0:0:
256,192,166733,1,0,0:0:0:0:
256,192,166824,1,0,0:0:0:0:
256,192,166914,1,8,0:0:0:0:
256,192,167096,1,0,0:0:0:0:
256,192,167277,1,0,0:0:0:0:
256,192,167459,1,0,0:0:0:0:
256,192,167550,1,0,0:0:0:0:
256,192,167641,5,8,0:0:0:0:
256,192,168005,1,8,0:0:0:0:
256,192,168369,1,0,0:0:0:0:
256,192,168641,1,0,0:0:0:0:
256,192,168732,1,8,0:0:0:0:
256,192,168914,1,0,0:0:0:0:
256,192,169278,1,0,0:0:0:0:
256,192,169460,1,8,0:0:0:0:
256,192,169641,1,8,0:0:0:0:
256,192,169823,1,0,0:0:0:0:
256,192,170096,1,0,0:0:0:0:
256,192,170187,1,8,0:0:0:0:
256,192,170369,1,0,0:0:0:0:
256,192,170732,1,0,0:0:0:0:
256,192,170914,1,8,0:0:0:0:
256,192,171278,1,0,0:0:0:0:
256,192,171550,1,0,0:0:0:0:
256,192,171641,1,8,0:0:0:0:
256,192,171823,1,0,0:0:0:0:
256,192,172187,1,0,0:0:0:0:
256,192,172369,1,8,0:0:0:0:
256,192,172551,1,0,0:0:0:0:
256,192,172732,1,8,0:0:0:0:
256,192,173005,1,0,0:0:0:0:
256,192,173096,1,8,0:0:0:0:
256,192,173278,1,8,0:0:0:0:
256,192,173641,1,0,0:0:0:0:
256,192,173823,1,8,0:0:0:0:
256,192,174005,1,8,0:0:0:0:
256,192,174187,1,0,0:0:0:0:
256,192,174460,1,0,0:0:0:0:
256,192,174550,1,8,0:0:0:0:
256,192,174732,1,0,0:0:0:0:
256,192,175096,1,0,0:0:0:0:
256,192,175278,1,8,0:0:0:0:
256,192,175460,1,8,0:0:0:0:
256,192,175641,1,0,0:0:0:0:
256,192,175914,1,0,0:0:0:0:
256,192,176005,1,8,0:0:0:0:
256,192,176187,1,0,0:0:0:0:
256,192,176550,1,0,0:0:0:0:
256,192,176732,1,8,0:0:0:0:
256,192,176914,1,8,0:0:0:0:
256,192,177096,1,0,0:0:0:0:
256,192,177369,1,0,0:0:0:0:
256,192,177460,1,8,0:0:0:0:
256,192,177641,1,8,0:0:0:0:
256,192,178005,1,0,0:0:0:0:
256,192,178187,1,8,0:0:0:0:
256,192,178369,1,8,0:0:0:0:
256,192,178550,1,0,0:0:0:0:
256,192,178732,1,0,0:0:0:0:
256,192,178823,1,0,0:0:0:0:
256,192,178914,1,0,0:0:0:0:
256,192,179096,1,8,0:0:0:0:
256,192,179278,5,8,0:0:0:0:
256,192,179642,1,8,0:0:0:0:
256,192,180006,1,0,0:0:0:0:
256,192,180278,1,0,0:0:0:0:
256,192,180369,1,8,0:0:0:0:
256,192,180551,1,0,0:0:0:0:
256,192,180915,1,0,0:0:0:0:
256,192,181097,1,8,0:0:0:0:
256,192,181278,1,8,0:0:0:0:
256,192,181460,1,0,0:0:0:0:
256,192,181733,1,0,0:0:0:0:
256,192,181824,1,8,0:0:0:0:
256,192,182006,1,0,0:0:0:0:
256,192,182369,1,0,0:0:0:0:
256,192,182551,1,8,0:0:0:0:
256,192,182733,1,8,0:0:0:0:
256,192,182915,1,0,0:0:0:0:
256,192,183187,1,0,0:0:0:0:
256,192,183278,1,8,0:0:0:0:
256,192,183460,1,0,0:0:0:0:
256,192,183824,1,0,0:0:0:0:
256,192,184006,1,8,0:0:0:0:
256,192,184187,1,0,0:0:0:0:
256,192,184369,1,8,0:0:0:0:
256,192,184642,1,0,0:0:0:0:
256,192,184733,1,8,0:0:0:0:
256,192,184915,1,8,0:0:0:0:
256,192,185278,1,0,0:0:0:0:
256,192,185461,1,8,0:0:0:0:
256,192,185642,1,8,0:0:0:0:
256,192,185824,1,0,0:0:0:0:
256,192,186097,1,0,0:0:0:0:
256,192,186188,1,8,0:0:0:0:
256,192,186369,1,0,0:0:0:0:
256,192,186733,1,8,0:0:0:0:
256,192,187097,1,8,0:0:0:0:
256,192,187278,1,0,0:0:0:0:
256,192,187551,1,0,0:0:0:0:
256,192,187642,1,8,0:0:0:0:
256,192,187824,1,0,0:0:0:0:
256,192,188187,1,0,0:0:0:0:
256,192,188369,1,8,0:0:0:0:
256,192,188551,1,0,0:0:0:0:
256,192,188733,1,8,0:0:0:0:
256,192,189006,1,0,0:0:0:0:
256,192,189096,1,8,0:0:0:0:
256,192,189278,1,8,0:0:0:0:
256,192,189642,1,0,0:0:0:0:
256,192,189824,1,8,0:0:0:0:
256,192,190006,1,8,0:0:0:0:
256,192,190187,1,0,0:0:0:0:
256,192,190369,1,0,0:0:0:0:
256,192,190460,1,0,0:0:0:0:
256,192,190551,1,0,0:0:0:0:
256,192,190733,1,8,0:0:0:0:
256,192,190914,1,0,0:0:0:0:
256,192,191096,12,0,192914,0:0:0:0:
