osu file format v14

[General]
AudioFilename: audio.mp3
AudioLeadIn: 0
PreviewTime: 53050
Countdown: 0
SampleSet: Normal
StackLeniency: 0.7
Mode: 3
LetterboxInBreaks: 0
SpecialStyle: 0
WidescreenStoryboard: 0

[Editor]
DistanceSpacing: 0.8
BeatDivisor: 4
GridSize: 32
TimelineZoom: 1.5

[Metadata]
Title:We Made It
TitleUnicode:We Made It
Artist:Yellow Claw ft. Lil Eddie
ArtistUnicode:Yellow Claw ft. Lil Eddie
Creator:Hilmi Ghazian
Version:Maximum
Source:
Tags:WWE 2017 song
BeatmapID:1865792
BeatmapSetID:892598

[Difficulty]
HPDrainRate:9
CircleSize:4
OverallDifficulty:9
ApproachRate:5
SliderMultiplier:1.4
SliderTickRate:1

[Events]
//Background and Video events
0,0,"anime_girls_battle_sword_twilight_12194_1920x1080.jpg",0,0
//Break Periods
//Storyboard Layer 0 (Background)
//Storyboard Layer 1 (Fail)
//Storyboard Layer 2 (Pass)
//Storyboard Layer 3 (Foreground)
//Storyboard Sound Samples

[TimingPoints]
300,400,4,1,0,0,1,0
78700,-100,4,1,0,0,0,1
104300,-100,4,1,0,0,0,0
168300,-100,4,1,0,0,0,1
193900,-100,4,1,0,0,0,0

[HitObjects]
64,192,300,5,0,0:0:0:0:
64,192,700,1,0,0:0:0:0:
64,192,1100,1,0,0:0:0:0:
64,192,1500,1,0,0:0:0:0:
192,192,1700,128,0,1900:0:0:0:0:
320,192,1900,1,0,0:0:0:0:
448,192,1900,128,0,4100:0:0:0:0:
64,192,2100,128,0,2300:0:0:0:0:
320,192,2300,128,0,2500:0:0:0:0:
64,192,2500,128,0,2700:0:0:0:0:
192,192,2700,1,0,0:0:0:0:
320,192,3100,128,0,3500:0:0:0:0:
64,192,3500,1,0,0:0:0:0:
192,192,3700,128,0,3900:0:0:0:0:
320,192,3900,128,0,4100:0:0:0:0:
192,192,4100,128,0,4300:0:0:0:0:
64,192,4100,128,0,4300:0:0:0:0:
448,192,4300,1,0,0:0:0:0:
320,192,4300,128,0,4700:0:0:0:0:
192,192,4700,128,0,5100:0:0:0:0:
448,192,4700,128,0,5100:0:0:0:0:
320,192,5100,1,0,0:0:0:0:
64,192,5100,128,0,7300:0:0:0:0:
320,192,5300,128,0,5500:0:0:0:0:
448,192,5500,128,0,5700:0:0:0:0:
320,192,5700,128,0,5900:0:0:0:0:
192,192,5900,1,0,0:0:0:0:
448,192,6300,128,0,6700:0:0:0:0:
320,192,6700,1,0,0:0:0:0:
192,192,6900,128,0,7100:0:0:0:0:
320,192,7100,128,0,7300:0:0:0:0:
192,192,7300,128,0,7500:0:0:0:0:
448,192,7300,128,0,7500:0:0:0:0:
64,192,7500,1,0,0:0:0:0:
320,192,7500,128,0,7900:0:0:0:0:
64,192,7900,128,0,8300:0:0:0:0:
448,192,7900,128,0,8300:0:0:0:0:
320,192,8300,1,0,0:0:0:0:
192,192,8300,128,0,11500:0:0:0:0:
64,192,8500,1,0,0:0:0:0:
320,192,8600,1,0,0:0:0:0:
448,192,8700,1,0,0:0:0:0:
64,192,8700,1,0,0:0:0:0:
448,192,9100,1,0,0:0:0:0:
320,192,9100,1,0,0:0:0:0:
64,192,9500,1,0,0:0:0:0:
320,192,9500,1,0,0:0:0:0:
64,192,9900,1,0,0:0:0:0:
448,192,9900,1,0,0:0:0:0:
320,192,10300,1,0,0:0:0:0:
448,192,10300,1,0,0:0:0:0:
64,192,10700,1,0,0:0:0:0:
320,192,10700,1,0,0:0:0:0:
64,192,11100,1,0,0:0:0:0:
448,192,11100,1,0,0:0:0:0:
64,192,11300,128,0,11500:0:0:0:0:
320,192,11500,1,0,0:0:0:0:
448,192,11500,128,0,13900:0:0:0:0:
64,192,11700,1,0,0:0:0:0:
192,192,11800,1,0,0:0:0:0:
64,192,11900,1,0,0:0:0:0:
320,192,11900,1,0,0:0:0:0:
192,192,12300,1,0,0:0:0:0:
320,192,12300,1,0,0:0:0:0:
64,192,12700,1,0,0:0:0:0:
192,192,12700,1,0,0:0:0:0:
64,192,13100,128,0,13900:0:0:0:0:
320,192,13100,1,0,0:0:0:0:
192,192,13500,1,0,0:0:0:0:
320,192,13900,128,0,14700:0:0:0:0:
192,192,14100,128,0,14700:0:0:0:0:
64,192,14300,1,0,0:0:0:0:
448,192,14300,1,0,0:0:0:0:
64,192,14700,1,0,0:0:0:0:
448,192,14700,1,0,0:0:0:0:
320,192,14800,1,0,0:0:0:0:
192,192,14900,1,0,0:0:0:0:
320,192,15100,1,0,0:0:0:0:
448,192,15100,1,0,0:0:0:0:
192,192,15300,1,0,0:0:0:0:
64,192,15300,1,0,0:0:0:0:
64,192,15500,1,0,0:0:0:0:
448,192,15500,1,0,0:0:0:0:
320,192,15500,1,0,0:0:0:0:
192,192,15700,1,0,0:0:0:0:
448,192,15700,1,0,0:0:0:0:
64,192,15900,1,0,0:0:0:0:
320,192,15900,1,0,0:0:0:0:
448,192,16100,1,0,0:0:0:0:
320,192,16200,1,0,0:0:0:0:
192,192,16300,1,0,0:0:0:0:
64,192,16300,1,0,0:0:0:0:
320,192,16500,1,0,0:0:0:0:
192,192,16700,1,0,0:0:0:0:
448,192,16700,1,0,0:0:0:0:
64,192,16900,1,0,0:0:0:0:
448,192,17100,1,0,0:0:0:0:
192,192,17100,1,0,0:0:0:0:
320,192,17100,1,0,0:0:0:0:
64,192,17300,1,0,0:0:0:0:
192,192,17300,1,0,0:0:0:0:
320,192,17500,1,0,0:0:0:0:
192,192,17500,1,0,0:0:0:0:
448,192,17700,1,0,0:0:0:0:
320,192,17700,1,0,0:0:0:0:
64,192,17900,1,0,0:0:0:0:
448,192,17900,1,0,0:0:0:0:
192,192,18100,1,0,0:0:0:0:
448,192,18300,1,0,0:0:0:0:
320,192,18300,1,0,0:0:0:0:
64,192,18500,1,0,0:0:0:0:
192,192,18500,1,0,0:0:0:0:
320,192,18700,1,0,0:0:0:0:
64,192,18700,1,0,0:0:0:0:
448,192,18700,1,0,0:0:0:0:
192,192,18900,1,0,0:0:0:0:
448,192,18900,1,0,0:0:0:0:
320,192,19100,1,0,0:0:0:0:
64,192,19100,1,0,0:0:0:0:
192,192,19300,1,0,0:0:0:0:
320,192,19400,1,0,0:0:0:0:
448,192,19500,1,0,0:0:0:0:
64,192,19500,1,0,0:0:0:0:
192,192,19700,1,0,0:0:0:0:
320,192,19900,1,0,0:0:0:0:
448,192,19900,1,0,0:0:0:0:
192,192,20100,1,0,0:0:0:0:
64,192,20300,1,0,0:0:0:0:
320,192,20300,1,0,0:0:0:0:
448,192,20300,1,0,0:0:0:0:
320,192,20500,1,0,0:0:0:0:
192,192,20500,1,0,0:0:0:0:
64,192,20700,1,0,0:0:0:0:
192,192,20700,1,0,0:0:0:0:
64,192,20900,1,0,0:0:0:0:
448,192,20900,1,0,0:0:0:0:
448,192,21100,1,0,0:0:0:0:
320,192,21100,1,0,0:0:0:0:
192,192,21200,1,0,0:0:0:0:
64,192,21300,1,0,0:0:0:0:
320,192,21500,1,0,0:0:0:0:
448,192,21500,1,0,0:0:0:0:
192,192,21700,1,0,0:0:0:0:
448,192,21700,1,0,0:0:0:0:
64,192,21900,1,0,0:0:0:0:
192,192,21900,1,0,0:0:0:0:
320,192,21900,1,0,0:0:0:0:
448,192,22100,1,0,0:0:0:0:
320,192,22100,1,0,0:0:0:0:
192,192,22300,1,0,0:0:0:0:
64,192,22300,1,0,0:0:0:0:
320,192,22500,1,0,0:0:0:0:
448,192,22600,1,0,0:0:0:0:
64,192,22700,1,0,0:0:0:0:
192,192,22700,1,0,0:0:0:0:
320,192,22900,1,0,0:0:0:0:
448,192,23100,1,0,0:0:0:0:
192,192,23100,1,0,0:0:0:0:
64,192,23300,1,0,0:0:0:0:
320,192,23500,1,0,0:0:0:0:
192,192,23500,1,0,0:0:0:0:
448,192,23500,1,0,0:0:0:0:
64,192,23700,1,0,0:0:0:0:
320,192,23700,1,0,0:0:0:0:
192,192,23900,1,0,0:0:0:0:
320,192,23900,1,0,0:0:0:0:
448,192,24100,1,0,0:0:0:0:
192,192,24100,1,0,0:0:0:0:
64,192,24300,1,0,0:0:0:0:
448,192,24300,1,0,0:0:0:0:
320,192,24400,1,0,0:0:0:0:
192,192,24500,1,0,0:0:0:0:
64,192,24700,1,0,0:0:0:0:
448,192,24700,1,0,0:0:0:0:
64,192,24900,1,0,0:0:0:0:
320,192,24900,1,0,0:0:0:0:
448,192,25100,1,0,0:0:0:0:
192,192,25100,1,0,0:0:0:0:
320,192,25100,1,0,0:0:0:0:
64,192,25300,1,0,0:0:0:0:
192,192,25300,1,0,0:0:0:0:
320,192,25500,1,0,0:0:0:0:
448,192,25500,1,0,0:0:0:0:
64,192,25700,1,0,0:0:0:0:
192,192,25800,1,0,0:0:0:0:
320,192,25900,1,0,0:0:0:0:
448,192,25900,1,0,0:0:0:0:
64,192,26000,1,0,0:0:0:0:
448,192,26100,1,0,0:0:0:0:
320,192,26200,1,0,0:0:0:0:
64,192,26300,1,0,0:0:0:0:
192,192,26300,1,0,0:0:0:0:
448,192,26400,1,0,0:0:0:0:
64,192,26500,1,0,0:0:0:0:
320,192,26500,1,0,0:0:0:0:
192,192,26600,1,0,0:0:0:0:
448,192,26700,1,0,0:0:0:0:
64,192,26700,1,0,0:0:0:0:
320,192,26700,1,0,0:0:0:0:
192,192,26800,1,0,0:0:0:0:
320,192,26900,1,0,0:0:0:0:
448,192,26900,1,0,0:0:0:0:
64,192,26950,1,0,0:0:0:0:
192,192,27000,1,0,0:0:0:0:
320,192,27050,1,0,0:0:0:0:
448,192,27100,1,0,0:0:0:0:
64,192,27100,1,0,0:0:0:0:
192,192,27200,1,0,0:0:0:0:
320,192,27300,1,0,0:0:0:0:
448,192,27300,1,0,0:0:0:0:
64,192,27400,1,0,0:0:0:0:
192,192,27500,1,0,0:0:0:0:
320,192,27500,1,0,0:0:0:0:
448,192,27600,1,0,0:0:0:0:
64,192,27700,1,0,0:0:0:0:
192,192,27900,1,0,0:0:0:0:
320,192,27900,1,0,0:0:0:0:
448,192,28100,1,0,0:0:0:0:
192,192,28100,1,0,0:0:0:0:
64,192,28300,1,0,0:0:0:0:
192,192,28300,1,0,0:0:0:0:
320,192,28300,1,0,0:0:0:0:
448,192,28500,1,0,0:0:0:0:
320,192,28500,1,0,0:0:0:0:
64,192,28700,1,0,0:0:0:0:
192,192,28700,1,0,0:0:0:0:
320,192,28900,1,0,0:0:0:0:
192,192,29000,1,0,0:0:0:0:
64,192,29100,1,0,0:0:0:0:
448,192,29100,1,0,0:0:0:0:
192,192,29300,1,0,0:0:0:0:
320,192,29500,1,0,0:0:0:0:
448,192,29500,1,0,0:0:0:0:
64,192,29700,1,0,0:0:0:0:
192,192,29900,1,0,0:0:0:0:
320,192,29900,1,0,0:0:0:0:
448,192,29900,1,0,0:0:0:0:
64,192,30100,1,0,0:0:0:0:
320,192,30100,1,0,0:0:0:0:
320,192,30300,1,0,0:0:0:0:
448,192,30300,1,0,0:0:0:0:
192,192,30500,1,0,0:0:0:0:
448,192,30500,1,0,0:0:0:0:
64,192,30700,1,0,0:0:0:0:
192,192,30700,1,0,0:0:0:0:
320,192,30800,1,0,0:0:0:0:
448,192,30900,1,0,0:0:0:0:
320,192,31100,1,0,0:0:0:0:
64,192,31100,1,0,0:0:0:0:
192,192,31300,1,0,0:0:0:0:
448,192,31300,1,0,0:0:0:0:
64,192,31500,1,0,0:0:0:0:
320,192,31500,1,0,0:0:0:0:
448,192,31500,1,0,0:0:0:0:
192,192,31700,1,0,0:0:0:0:
320,192,31700,1,0,0:0:0:0:
448,192,31900,1,0,0:0:0:0:
320,192,31900,1,0,0:0:0:0:
192,192,32100,1,0,0:0:0:0:
64,192,32200,1,0,0:0:0:0:
448,192,32300,1,0,0:0:0:0:
320,192,32300,1,0,0:0:0:0:
192,192,32500,1,0,0:0:0:0:
64,192,32700,1,0,0:0:0:0:
448,192,32700,1,0,0:0:0:0:
320,192,32900,1,0,0:0:0:0:
192,192,33100,1,0,0:0:0:0:
64,192,33100,1,0,0:0:0:0:
448,192,33100,1,0,0:0:0:0:
320,192,33300,1,0,0:0:0:0:
448,192,33300,1,0,0:0:0:0:
192,192,33350,1,0,0:0:0:0:
64,192,33400,1,0,0:0:0:0:
448,192,33450,1,0,0:0:0:0:
320,192,33500,1,0,0:0:0:0:
192,192,33500,1,0,0:0:0:0:
64,192,33700,1,0,0:0:0:0:
320,192,33700,1,0,0:0:0:0:
192,192,33900,1,0,0:0:0:0:
448,192,33900,1,0,0:0:0:0:
64,192,34100,1,0,0:0:0:0:
192,192,34300,1,0,0:0:0:0:
320,192,34300,1,0,0:0:0:0:
448,192,34500,1,0,0:0:0:0:
192,192,34500,1,0,0:0:0:0:
320,192,34700,1,0,0:0:0:0:
64,192,34700,1,0,0:0:0:0:
192,192,34700,1,0,0:0:0:0:
448,192,34900,1,0,0:0:0:0:
320,192,34900,1,0,0:0:0:0:
64,192,35100,1,0,0:0:0:0:
192,192,35100,1,0,0:0:0:0:
448,192,35300,1,0,0:0:0:0:
320,192,35400,1,0,0:0:0:0:
64,192,35500,1,0,0:0:0:0:
192,192,35500,1,0,0:0:0:0:
448,192,35700,1,0,0:0:0:0:
320,192,35900,1,0,0:0:0:0:
192,192,35900,1,0,0:0:0:0:
64,192,36100,1,0,0:0:0:0:
192,192,36300,1,0,0:0:0:0:
320,192,36300,1,0,0:0:0:0:
448,192,36300,1,0,0:0:0:0:
64,192,36500,1,0,0:0:0:0:
448,192,36500,1,0,0:0:0:0:
448,192,36700,1,0,0:0:0:0:
192,192,36700,1,0,0:0:0:0:
192,192,36900,1,0,0:0:0:0:
320,192,36900,1,0,0:0:0:0:
64,192,37100,1,0,0:0:0:0:
320,192,37100,1,0,0:0:0:0:
448,192,37300,1,0,0:0:0:0:
192,192,37500,1,0,0:0:0:0:
320,192,37500,1,0,0:0:0:0:
320,192,37700,5,0,0:0:0:0:
64,192,37700,1,0,0:0:0:0:
64,192,37900,1,0,0:0:0:0:
192,192,37900,1,0,0:0:0:0:
448,192,37900,1,0,0:0:0:0:
320,192,38100,1,0,0:0:0:0:
448,192,38100,1,0,0:0:0:0:
192,192,38300,1,0,0:0:0:0:
64,192,38300,1,0,0:0:0:0:
448,192,38500,1,0,0:0:0:0:
320,192,38600,1,0,0:0:0:0:
64,192,38700,5,0,0:0:0:0:
192,192,38700,1,0,0:0:0:0:
320,192,38800,1,0,0:0:0:0:
448,192,38900,1,0,0:0:0:0:
64,192,39000,1,0,0:0:0:0:
192,192,39100,1,0,0:0:0:0:
320,192,39100,1,0,0:0:0:0:
448,192,39200,1,0,0:0:0:0:
64,192,39300,1,0,0:0:0:0:
192,192,39400,1,0,0:0:0:0:
64,192,39500,128,0,40300:0:0:0:0:
320,192,39500,1,0,0:0:0:0:
448,192,39500,1,0,0:0:0:0:
192,192,39600,1,0,0:0:0:0:
448,192,39700,1,0,0:0:0:0:
320,192,39800,1,0,0:0:0:0:
192,192,39900,1,0,0:0:0:0:
448,192,40000,1,0,0:0:0:0:
320,192,40100,1,0,0:0:0:0:
192,192,40200,1,0,0:0:0:0:
320,192,40300,1,0,0:0:0:0:
448,192,40300,1,0,0:0:0:0:
64,192,40700,1,0,0:0:0:0:
192,192,40700,1,0,0:0:0:0:
320,192,40700,1,0,0:0:0:0:
192,192,41100,1,0,0:0:0:0:
320,192,41100,1,0,0:0:0:0:
448,192,41100,1,0,0:0:0:0:
64,192,41500,1,0,0:0:0:0:
192,192,41500,1,0,0:0:0:0:
320,192,41500,1,0,0:0:0:0:
192,192,41900,1,0,0:0:0:0:
320,192,41900,1,0,0:0:0:0:
448,192,41900,1,0,0:0:0:0:
64,192,42300,1,0,0:0:0:0:
192,192,42300,1,0,0:0:0:0:
320,192,42300,1,0,0:0:0:0:
192,192,42700,1,0,0:0:0:0:
320,192,42700,1,0,0:0:0:0:
448,192,42700,1,0,0:0:0:0:
64,192,43100,1,0,0:0:0:0:
192,192,43100,1,0,0:0:0:0:
320,192,43100,1,0,0:0:0:0:
64,192,43500,1,0,0:0:0:0:
320,192,43500,1,0,0:0:0:0:
448,192,43500,1,0,0:0:0:0:
64,192,43900,1,0,0:0:0:0:
192,192,43900,1,0,0:0:0:0:
448,192,43900,1,0,0:0:0:0:
64,192,44300,1,0,0:0:0:0:
320,192,44300,1,0,0:0:0:0:
448,192,44300,1,0,0:0:0:0:
64,192,44700,1,0,0:0:0:0:
192,192,44700,1,0,0:0:0:0:
448,192,44700,1,0,0:0:0:0:
64,192,45100,1,0,0:0:0:0:
320,192,45100,1,0,0:0:0:0:
448,192,45100,1,0,0:0:0:0:
64,192,45500,1,0,0:0:0:0:
192,192,45500,1,0,0:0:0:0:
448,192,45500,1,0,0:0:0:0:
64,192,45900,1,0,0:0:0:0:
320,192,45900,1,0,0:0:0:0:
448,192,45900,1,0,0:0:0:0:
64,192,46300,1,0,0:0:0:0:
192,192,46300,1,0,0:0:0:0:
448,192,46300,1,0,0:0:0:0:
192,192,46700,1,0,0:0:0:0:
320,192,46700,1,0,0:0:0:0:
448,192,46700,1,0,0:0:0:0:
192,192,47100,1,0,0:0:0:0:
320,192,47100,1,0,0:0:0:0:
448,192,47100,1,0,0:0:0:0:
192,192,47500,1,0,0:0:0:0:
320,192,47500,1,0,0:0:0:0:
64,192,47500,1,0,0:0:0:0:
64,192,47900,1,0,0:0:0:0:
192,192,47900,1,0,0:0:0:0:
320,192,47900,1,0,0:0:0:0:
192,192,48300,1,0,0:0:0:0:
320,192,48300,1,0,0:0:0:0:
448,192,48300,1,0,0:0:0:0:
320,192,48700,1,0,0:0:0:0:
448,192,48700,1,0,0:0:0:0:
192,192,48700,1,0,0:0:0:0:
320,192,49100,1,0,0:0:0:0:
192,192,49100,1,0,0:0:0:0:
64,192,49100,1,0,0:0:0:0:
64,192,49500,1,0,0:0:0:0:
192,192,49500,1,0,0:0:0:0:
320,192,49500,1,0,0:0:0:0:
64,192,49900,1,0,0:0:0:0:
320,192,49900,1,0,0:0:0:0:
448,192,49900,1,0,0:0:0:0:
64,192,50300,1,0,0:0:0:0:
320,192,50300,1,0,0:0:0:0:
448,192,50300,1,0,0:0:0:0:
64,192,50700,1,0,0:0:0:0:
192,192,50700,1,0,0:0:0:0:
448,192,50700,1,0,0:0:0:0:
64,192,51100,1,0,0:0:0:0:
192,192,51100,1,0,0:0:0:0:
448,192,51100,1,0,0:0:0:0:
64,192,51500,5,0,0:0:0:0:
320,192,51500,1,0,0:0:0:0:
448,192,51500,1,0,0:0:0:0:
64,192,51900,1,0,0:0:0:0:
320,192,51900,1,0,0:0:0:0:
448,192,51900,1,0,0:0:0:0:
448,192,52300,128,0,53100:0:0:0:0:
64,192,52300,1,0,0:0:0:0:
192,192,52300,1,0,0:0:0:0:
64,192,52700,1,0,0:0:0:0:
192,192,52700,1,0,0:0:0:0:
64,192,53100,1,0,0:0:0:0:
192,192,53100,1,0,0:0:0:0:
320,192,53100,128,0,53200:0:0:0:0:
64,192,53500,128,0,53600:0:0:0:0:
192,192,53500,1,0,0:0:0:0:
448,192,53700,128,0,53800:0:0:0:0:
320,192,53700,1,0,0:0:0:0:
64,192,53900,128,0,54000:0:0:0:0:
192,192,53900,1,0,0:0:0:0:
448,192,54100,128,0,54200:0:0:0:0:
320,192,54100,1,0,0:0:0:0:
64,192,54300,128,0,54400:0:0:0:0:
192,192,54300,1,0,0:0:0:0:
192,192,54500,1,0,0:0:0:0:
320,192,54500,128,0,54600:0:0:0:0:
64,192,54700,1,0,0:0:0:0:
448,192,54700,128,0,54800:0:0:0:0:
192,192,54900,128,0,55000:0:0:0:0:
320,192,55100,128,0,55200:0:0:0:0:
448,192,55100,1,0,0:0:0:0:
192,192,55300,128,0,55400:0:0:0:0:
320,192,55300,1,0,0:0:0:0:
64,192,55500,128,0,55600:0:0:0:0:
192,192,55500,1,0,0:0:0:0:
320,192,55900,128,0,56000:0:0:0:0:
192,192,55900,1,0,0:0:0:0:
320,192,56300,1,0,0:0:0:0:
192,192,56300,128,0,56400:0:0:0:0:
192,192,56700,128,0,56800:0:0:0:0:
448,192,56700,1,0,0:0:0:0:
64,192,56900,1,0,0:0:0:0:
320,192,56900,128,0,57000:0:0:0:0:
192,192,57100,128,0,57200:0:0:0:0:
448,192,57100,1,0,0:0:0:0:
64,192,57300,1,0,0:0:0:0:
320,192,57300,128,0,57400:0:0:0:0:
192,192,57500,128,0,57600:0:0:0:0:
448,192,57500,1,0,0:0:0:0:
320,192,57700,1,0,0:0:0:0:
448,192,57700,128,0,57800:0:0:0:0:
192,192,57900,1,0,0:0:0:0:
64,192,57900,128,0,58000:0:0:0:0:
448,192,58300,128,0,58400:0:0:0:0:
320,192,58300,1,0,0:0:0:0:
320,192,58500,128,0,58600:0:0:0:0:
192,192,58500,1,0,0:0:0:0:
192,192,58700,128,0,58800:0:0:0:0:
64,192,58700,1,0,0:0:0:0:
448,192,59100,128,0,59200:0:0:0:0:
64,192,59100,1,0,0:0:0:0:
64,192,59500,1,0,0:0:0:0:
320,192,59500,128,0,59600:0:0:0:0:
448,192,59900,128,0,60000:0:0:0:0:
320,192,59900,1,0,0:0:0:0:
64,192,60100,128,0,60200:0:0:0:0:
192,192,60100,1,0,0:0:0:0:
448,192,60300,128,0,60400:0:0:0:0:
320,192,60300,1,0,0:0:0:0:
64,192,60500,128,0,60600:0:0:0:0:
192,192,60500,1,0,0:0:0:0:
448,192,60700,128,0,60800:0:0:0:0:
320,192,60700,1,0,0:0:0:0:
192,192,60900,128,0,61000:0:0:0:0:
320,192,60900,1,0,0:0:0:0:
64,192,61100,128,0,61200:0:0:0:0:
448,192,61100,1,0,0:0:0:0:
320,192,61300,128,0,61400:0:0:0:0:
192,192,61500,128,0,61600:0:0:0:0:
64,192,61500,1,0,0:0:0:0:
320,192,61700,128,0,61800:0:0:0:0:
192,192,61700,1,0,0:0:0:0:
448,192,61900,128,0,62000:0:0:0:0:
320,192,61900,1,0,0:0:0:0:
192,192,62300,128,0,62400:0:0:0:0:
320,192,62300,1,0,0:0:0:0:
320,192,62700,128,0,62800:0:0:0:0:
192,192,62700,1,0,0:0:0:0:
320,192,63100,128,0,63200:0:0:0:0:
64,192,63100,1,0,0:0:0:0:
192,192,63300,128,0,63400:0:0:0:0:
448,192,63300,1,0,0:0:0:0:
320,192,63500,128,0,63600:0:0:0:0:
64,192,63500,1,0,0:0:0:0:
192,192,63700,128,0,63800:0:0:0:0:
448,192,63700,1,0,0:0:0:0:
320,192,63900,128,0,64000:0:0:0:0:
64,192,63900,1,0,0:0:0:0:
64,192,64100,128,0,64200:0:0:0:0:
192,192,64100,1,0,0:0:0:0:
448,192,64300,128,0,64400:0:0:0:0:
320,192,64300,1,0,0:0:0:0:
64,192,64700,128,0,64800:0:0:0:0:
192,192,64700,1,0,0:0:0:0:
320,192,64900,5,0,0:0:0:0:
192,192,64900,128,0,65000:0:0:0:0:
320,192,65100,128,0,65200:0:0:0:0:
448,192,65100,1,0,0:0:0:0:
448,192,65500,128,0,65600:0:0:0:0:
64,192,65500,1,0,0:0:0:0:
192,192,65900,1,0,0:0:0:0:
448,192,65900,1,0,0:0:0:0:
64,192,65900,1,0,0:0:0:0:
320,192,65900,128,0,66000:0:0:0:0:
448,192,66300,128,0,66400:0:0:0:0:
320,192,66300,1,0,0:0:0:0:
192,192,66300,1,0,0:0:0:0:
64,192,66500,128,0,66600:0:0:0:0:
192,192,66500,1,0,0:0:0:0:
448,192,66700,128,0,66800:0:0:0:0:
320,192,66700,1,0,0:0:0:0:
64,192,66700,1,0,0:0:0:0:
64,192,66900,128,0,67000:0:0:0:0:
192,192,66900,1,0,0:0:0:0:
448,192,67100,128,0,67200:0:0:0:0:
320,192,67100,1,0,0:0:0:0:
192,192,67100,1,0,0:0:0:0:
192,192,67300,128,0,67400:0:0:0:0:
320,192,67300,1,0,0:0:0:0:
64,192,67500,128,0,67600:0:0:0:0:
448,192,67500,1,0,0:0:0:0:
320,192,67500,1,0,0:0:0:0:
320,192,67700,128,0,67800:0:0:0:0:
192,192,67900,128,0,68000:0:0:0:0:
64,192,67900,1,0,0:0:0:0:
448,192,67900,1,0,0:0:0:0:
320,192,68100,128,0,68200:0:0:0:0:
192,192,68100,1,0,0:0:0:0:
448,192,68300,128,0,68400:0:0:0:0:
320,192,68300,1,0,0:0:0:0:
64,192,68300,1,0,0:0:0:0:
192,192,68700,128,0,68800:0:0:0:0:
320,192,68700,1,0,0:0:0:0:
64,192,68700,1,0,0:0:0:0:
64,192,68900,1,0,0:0:0:0:
448,192,68900,1,0,0:0:0:0:
192,192,69100,128,0,69200:0:0:0:0:
320,192,69100,1,0,0:0:0:0:
448,192,69100,1,0,0:0:0:0:
320,192,69500,128,0,69600:0:0:0:0:
64,192,69500,1,0,0:0:0:0:
192,192,69500,1,0,0:0:0:0:
192,192,69700,128,0,69800:0:0:0:0:
448,192,69700,1,0,0:0:0:0:
320,192,69900,128,0,70000:0:0:0:0:
64,192,69900,1,0,0:0:0:0:
448,192,69900,1,0,0:0:0:0:
192,192,70100,128,0,70200:0:0:0:0:
448,192,70100,1,0,0:0:0:0:
320,192,70300,128,0,70400:0:0:0:0:
64,192,70300,1,0,0:0:0:0:
448,192,70300,1,0,0:0:0:0:
64,192,70500,128,0,70600:0:0:0:0:
192,192,70500,1,0,0:0:0:0:
448,192,70700,128,0,70800:0:0:0:0:
320,192,70700,1,0,0:0:0:0:
192,192,70700,1,0,0:0:0:0:
192,192,71100,1,0,0:0:0:0:
64,192,71100,128,0,71200:0:0:0:0:
448,192,71100,1,0,0:0:0:0:
320,192,71300,5,0,0:0:0:0:
192,192,71300,128,0,71400:0:0:0:0:
320,192,71500,128,0,71600:0:0:0:0:
448,192,71500,1,0,0:0:0:0:
64,192,71500,1,0,0:0:0:0:
448,192,71900,128,0,72000:0:0:0:0:
64,192,71900,1,0,0:0:0:0:
192,192,71900,1,0,0:0:0:0:
192,192,72100,1,0,0:0:0:0:
320,192,72100,1,0,0:0:0:0:
64,192,72300,1,0,0:0:0:0:
448,192,72300,1,0,0:0:0:0:
192,192,72500,1,0,0:0:0:0:
320,192,72500,1,0,0:0:0:0:
64,192,72700,1,0,0:0:0:0:
448,192,72700,1,0,0:0:0:0:
192,192,72900,1,0,0:0:0:0:
320,192,72900,1,0,0:0:0:0:
64,192,73100,1,0,0:0:0:0:
448,192,73100,1,0,0:0:0:0:
192,192,73300,1,0,0:0:0:0:
320,192,73300,1,0,0:0:0:0:
64,192,73500,1,0,0:0:0:0:
448,192,73500,1,0,0:0:0:0:
192,192,73700,1,0,0:0:0:0:
320,192,73700,1,0,0:0:0:0:
64,192,73900,1,0,0:0:0:0:
320,192,73900,1,0,0:0:0:0:
192,192,74100,1,0,0:0:0:0:
448,192,74100,1,0,0:0:0:0:
64,192,74300,1,0,0:0:0:0:
320,192,74300,1,0,0:0:0:0:
192,192,74500,1,0,0:0:0:0:
448,192,74500,1,0,0:0:0:0:
64,192,74700,1,0,0:0:0:0:
320,192,74700,1,0,0:0:0:0:
192,192,74900,1,0,0:0:0:0:
448,192,74900,1,0,0:0:0:0:
64,192,75100,1,0,0:0:0:0:
320,192,75100,1,0,0:0:0:0:
192,192,75300,1,0,0:0:0:0:
448,192,75300,1,0,0:0:0:0:
64,192,75500,1,0,0:0:0:0:
192,192,75500,1,0,0:0:0:0:
320,192,75600,1,0,0:0:0:0:
448,192,75700,1,0,0:0:0:0:
192,192,75700,1,0,0:0:0:0:
64,192,75800,1,0,0:0:0:0:
320,192,75900,1,0,0:0:0:0:
448,192,75900,1,0,0:0:0:0:
192,192,76000,1,0,0:0:0:0:
64,192,76100,1,0,0:0:0:0:
320,192,76100,1,0,0:0:0:0:
448,192,76200,1,0,0:0:0:0:
64,192,76300,1,0,0:0:0:0:
192,192,76300,1,0,0:0:0:0:
320,192,76400,1,0,0:0:0:0:
448,192,76400,1,0,0:0:0:0:
64,192,76500,1,0,0:0:0:0:
192,192,76500,1,0,0:0:0:0:
320,192,76600,1,0,0:0:0:0:
448,192,76600,1,0,0:0:0:0:
64,192,76700,1,0,0:0:0:0:
192,192,76700,1,0,0:0:0:0:
320,192,76800,1,0,0:0:0:0:
448,192,76800,1,0,0:0:0:0:
64,192,76900,1,0,0:0:0:0:
192,192,76900,1,0,0:0:0:0:
320,192,77000,1,0,0:0:0:0:
448,192,77000,1,0,0:0:0:0:
64,192,77100,128,0,78100:0:0:0:0:
192,192,77100,1,0,0:0:0:0:
320,192,77200,1,0,0:0:0:0:
448,192,77300,1,0,0:0:0:0:
192,192,77400,1,0,0:0:0:0:
320,192,77500,1,0,0:0:0:0:
448,192,77600,1,0,0:0:0:0:
192,192,77700,1,0,0:0:0:0:
320,192,77800,1,0,0:0:0:0:
448,192,77900,1,0,0:0:0:0:
192,192,78000,1,0,0:0:0:0:
320,192,78100,1,0,0:0:0:0:
448,192,78100,1,0,0:0:0:0:
192,192,78300,1,0,0:0:0:0:
320,192,78300,1,0,0:0:0:0:
64,192,78500,1,0,0:0:0:0:
192,192,78500,1,0,0:0:0:0:
64,192,78700,1,0,0:0:0:0:
320,192,78700,1,0,0:0:0:0:
448,192,78700,1,0,0:0:0:0:
192,192,78700,1,0,0:0:0:0:
192,192,79100,128,0,79200:0:0:0:0:
64,192,79100,128,0,79400:0:0:0:0:
320,192,79100,1,0,0:0:0:0:
448,192,79300,1,0,0:0:0:0:
192,192,79300,128,0,79800:0:0:0:0:
320,192,79500,1,0,0:0:0:0:
448,192,79500,1,0,0:0:0:0:
64,192,79500,128,0,80200:0:0:0:0:
320,192,79900,1,0,0:0:0:0:
192,192,79900,128,0,80800:0:0:0:0:
448,192,80100,1,0,0:0:0:0:
320,192,80200,1,0,0:0:0:0:
448,192,80300,1,0,0:0:0:0:
64,192,80300,128,0,81000:0:0:0:0:
448,192,80700,1,0,0:0:0:0:
320,192,80900,1,0,0:0:0:0:
192,192,80900,128,0,81400:0:0:0:0:
320,192,81100,1,0,0:0:0:0:
448,192,81100,1,0,0:0:0:0:
64,192,81100,128,0,81700:0:0:0:0:
448,192,81500,1,0,0:0:0:0:
192,192,81500,128,0,81700:0:0:0:0:
320,192,81700,1,0,0:0:0:0:
448,192,81700,1,0,0:0:0:0:
64,192,81900,1,0,0:0:0:0:
192,192,81900,1,0,0:0:0:0:
320,192,81900,1,0,0:0:0:0:
448,192,81900,1,0,0:0:0:0:
320,192,82300,128,0,82400:0:0:0:0:
448,192,82300,128,0,82600:0:0:0:0:
192,192,82300,1,0,0:0:0:0:
64,192,82500,1,0,0:0:0:0:
320,192,82500,128,0,83000:0:0:0:0:
192,192,82700,1,0,0:0:0:0:
64,192,82700,1,0,0:0:0:0:
448,192,82700,128,0,83400:0:0:0:0:
192,192,83100,1,0,0:0:0:0:
320,192,83100,128,0,84000:0:0:0:0:
64,192,83300,1,0,0:0:0:0:
192,192,83400,1,0,0:0:0:0:
64,192,83500,1,0,0:0:0:0:
448,192,83500,128,0,84200:0:0:0:0:
64,192,83900,1,0,0:0:0:0:
192,192,84100,1,0,0:0:0:0:
320,192,84100,128,0,84600:0:0:0:0:
192,192,84300,1,0,0:0:0:0:
64,192,84300,1,0,0:0:0:0:
448,192,84300,128,0,84900:0:0:0:0:
192,192,84500,1,0,0:0:0:0:
64,192,84500,1,0,0:0:0:0:
192,192,84700,1,0,0:0:0:0:
320,192,84700,128,0,84900:0:0:0:0:
64,192,84700,1,0,0:0:0:0:
192,192,84900,1,0,0:0:0:0:
64,192,84900,1,0,0:0:0:0:
448,192,85100,1,0,0:0:0:0:
320,192,85100,1,0,0:0:0:0:
192,192,85100,1,0,0:0:0:0:
64,192,85100,1,0,0:0:0:0:
64,192,85500,128,0,85800:0:0:0:0:
448,192,85500,128,0,85600:0:0:0:0:
192,192,85500,1,0,0:0:0:0:
448,192,85700,128,0,86200:0:0:0:0:
320,192,85700,1,0,0:0:0:0:
64,192,85900,128,0,86600:0:0:0:0:
320,192,85900,1,0,0:0:0:0:
192,192,85900,1,0,0:0:0:0:
448,192,86300,128,0,87200:0:0:0:0:
320,192,86300,1,0,0:0:0:0:
192,192,86500,1,0,0:0:0:0:
320,192,86600,1,0,0:0:0:0:
192,192,86700,1,0,0:0:0:0:
64,192,86700,128,0,87400:0:0:0:0:
192,192,87100,1,0,0:0:0:0:
448,192,87300,128,0,87800:0:0:0:0:
320,192,87300,1,0,0:0:0:0:
64,192,87500,128,0,88100:0:0:0:0:
320,192,87500,1,0,0:0:0:0:
192,192,87500,1,0,0:0:0:0:
448,192,87900,128,0,88100:0:0:0:0:
192,192,87900,1,0,0:0:0:0:
320,192,88100,1,0,0:0:0:0:
192,192,88100,1,0,0:0:0:0:
320,192,88300,1,0,0:0:0:0:
448,192,88300,1,0,0:0:0:0:
64,192,88300,1,0,0:0:0:0:
192,192,88300,1,0,0:0:0:0:
192,192,88700,128,0,89000:0:0:0:0:
320,192,88700,128,0,88800:0:0:0:0:
64,192,88700,1,0,0:0:0:0:
320,192,88900,128,0,89400:0:0:0:0:
448,192,88900,1,0,0:0:0:0:
192,192,89100,128,0,89700:0:0:0:0:
64,192,89100,1,0,0:0:0:0:
448,192,89100,1,0,0:0:0:0:
448,192,89500,1,0,0:0:0:0:
320,192,89500,128,0,89700:0:0:0:0:
64,192,89700,1,0,0:0:0:0:
448,192,89800,1,0,0:0:0:0:
64,192,89900,5,0,0:0:0:0:
192,192,89900,1,0,0:0:0:0:
320,192,90000,1,0,0:0:0:0:
448,192,90000,1,0,0:0:0:0:
64,192,90100,1,0,0:0:0:0:
192,192,90100,1,0,0:0:0:0:
320,192,90200,1,0,0:0:0:0:
448,192,90200,1,0,0:0:0:0:
64,192,90300,1,0,0:0:0:0:
192,192,90300,1,0,0:0:0:0:
320,192,90400,1,0,0:0:0:0:
448,192,90400,1,0,0:0:0:0:
64,192,90500,1,0,0:0:0:0:
192,192,90500,1,0,0:0:0:0:
320,192,90600,1,0,0:0:0:0:
448,192,90600,1,0,0:0:0:0:
64,192,90700,1,0,0:0:0:0:
192,192,90700,1,0,0:0:0:0:
192,192,90900,1,0,0:0:0:0:
320,192,90900,1,0,0:0:0:0:
448,192,91100,1,0,0:0:0:0:
320,192,91100,1,0,0:0:0:0:
64,192,91300,1,0,0:0:0:0:
192,192,91300,1,0,0:0:0:0:
320,192,91500,1,0,0:0:0:0:
448,192,91500,1,0,0:0:0:0:
64,192,91500,1,0,0:0:0:0:
192,192,91500,1,0,0:0:0:0:
448,192,91700,1,0,0:0:0:0:
320,192,91766,1,0,0:0:0:0:
192,192,91833,1,0,0:0:0:0:
320,192,91900,1,0,0:0:0:0:
64,192,91900,1,0,0:0:0:0:
448,192,91966,1,0,0:0:0:0:
64,192,92033,1,0,0:0:0:0:
320,192,92100,1,0,0:0:0:0:
192,192,92100,1,0,0:0:0:0:
448,192,92166,1,0,0:0:0:0:
320,192,92233,1,0,0:0:0:0:
192,192,92300,1,0,0:0:0:0:
64,192,92300,1,0,0:0:0:0:
448,192,92366,1,0,0:0:0:0:
320,192,92433,1,0,0:0:0:0:
192,192,92500,1,0,0:0:0:0:
64,192,92566,1,0,0:0:0:0:
448,192,92633,1,0,0:0:0:0:
192,192,92700,1,0,0:0:0:0:
320,192,92700,1,0,0:0:0:0:
64,192,92766,1,0,0:0:0:0:
448,192,92833,1,0,0:0:0:0:
320,192,92900,1,0,0:0:0:0:
192,192,92966,1,0,0:0:0:0:
64,192,93033,1,0,0:0:0:0:
448,192,93100,1,0,0:0:0:0:
320,192,93100,1,0,0:0:0:0:
192,192,93166,1,0,0:0:0:0:
64,192,93233,1,0,0:0:0:0:
192,192,93300,1,0,0:0:0:0:
320,192,93366,1,0,0:0:0:0:
448,192,93433,1,0,0:0:0:0:
192,192,93500,1,0,0:0:0:0:
64,192,93500,1,0,0:0:0:0:
320,192,93566,1,0,0:0:0:0:
448,192,93633,1,0,0:0:0:0:
320,192,93700,1,0,0:0:0:0:
192,192,93700,1,0,0:0:0:0:
64,192,93766,1,0,0:0:0:0:
192,192,93833,1,0,0:0:0:0:
448,192,93900,1,0,0:0:0:0:
320,192,93900,1,0,0:0:0:0:
64,192,93966,1,0,0:0:0:0:
192,192,94033,1,0,0:0:0:0:
320,192,94100,1,0,0:0:0:0:
448,192,94166,1,0,0:0:0:0:
64,192,94233,1,0,0:0:0:0:
192,192,94300,1,0,0:0:0:0:
320,192,94300,1,0,0:0:0:0:
448,192,94366,1,0,0:0:0:0:
192,192,94433,1,0,0:0:0:0:
320,192,94500,1,0,0:0:0:0:
64,192,94500,1,0,0:0:0:0:
448,192,94566,1,0,0:0:0:0:
320,192,94633,1,0,0:0:0:0:
64,192,94700,1,0,0:0:0:0:
192,192,94700,1,0,0:0:0:0:
448,192,94766,1,0,0:0:0:0:
320,192,94833,1,0,0:0:0:0:
192,192,94900,1,0,0:0:0:0:
64,192,94966,1,0,0:0:0:0:
448,192,95033,1,0,0:0:0:0:
192,192,95100,1,0,0:0:0:0:
320,192,95100,1,0,0:0:0:0:
64,192,95166,1,0,0:0:0:0:
192,192,95233,1,0,0:0:0:0:
448,192,95300,1,0,0:0:0:0:
320,192,95300,1,0,0:0:0:0:
64,192,95366,1,0,0:0:0:0:
192,192,95433,1,0,0:0:0:0:
320,192,95500,1,0,0:0:0:0:
448,192,95500,1,0,0:0:0:0:
64,192,95566,1,0,0:0:0:0:
192,192,95633,1,0,0:0:0:0:
320,192,95700,1,0,0:0:0:0:
448,192,95766,1,0,0:0:0:0:
320,192,95833,1,0,0:0:0:0:
64,192,95900,1,0,0:0:0:0:
192,192,95900,1,0,0:0:0:0:
448,192,95966,1,0,0:0:0:0:
320,192,96033,1,0,0:0:0:0:
192,192,96100,1,0,0:0:0:0:
64,192,96166,1,0,0:0:0:0:
448,192,96233,1,0,0:0:0:0:
64,192,96300,1,0,0:0:0:0:
320,192,96300,1,0,0:0:0:0:
192,192,96366,1,0,0:0:0:0:
320,192,96433,1,0,0:0:0:0:
448,192,96500,1,0,0:0:0:0:
64,192,96566,1,0,0:0:0:0:
192,192,96633,1,0,0:0:0:0:
320,192,96700,1,0,0:0:0:0:
448,192,96700,1,0,0:0:0:0:
192,192,96766,1,0,0:0:0:0:
64,192,96833,1,0,0:0:0:0:
320,192,96900,1,0,0:0:0:0:
448,192,96900,1,0,0:0:0:0:
192,192,96966,1,0,0:0:0:0:
64,192,97033,1,0,0:0:0:0:
192,192,97100,1,0,0:0:0:0:
448,192,97100,1,0,0:0:0:0:
320,192,97166,1,0,0:0:0:0:
192,192,97233,1,0,0:0:0:0:
64,192,97300,1,0,0:0:0:0:
448,192,97300,1,0,0:0:0:0:
320,192,97366,1,0,0:0:0:0:
192,192,97433,1,0,0:0:0:0:
64,192,97500,1,0,0:0:0:0:
320,192,97500,1,0,0:0:0:0:
448,192,97566,1,0,0:0:0:0:
64,192,97633,1,0,0:0:0:0:
192,192,97700,1,0,0:0:0:0:
320,192,97700,1,0,0:0:0:0:
448,192,97766,1,0,0:0:0:0:
64,192,97833,1,0,0:0:0:0:
192,192,97900,1,0,0:0:0:0:
448,192,97900,1,0,0:0:0:0:
320,192,97966,1,0,0:0:0:0:
192,192,98033,1,0,0:0:0:0:
64,192,98100,1,0,0:0:0:0:
448,192,98166,1,0,0:0:0:0:
320,192,98233,1,0,0:0:0:0:
64,192,98300,1,0,0:0:0:0:
192,192,98300,1,0,0:0:0:0:
448,192,98366,1,0,0:0:0:0:
320,192,98433,1,0,0:0:0:0:
448,192,98500,1,0,0:0:0:0:
192,192,98500,1,0,0:0:0:0:
64,192,98566,1,0,0:0:0:0:
192,192,98633,1,0,0:0:0:0:
320,192,98700,1,0,0:0:0:0:
448,192,98700,1,0,0:0:0:0:
64,192,98766,1,0,0:0:0:0:
192,192,98833,1,0,0:0:0:0:
320,192,98900,1,0,0:0:0:0:
448,192,98966,1,0,0:0:0:0:
320,192,99033,1,0,0:0:0:0:
64,192,99100,1,0,0:0:0:0:
192,192,99100,1,0,0:0:0:0:
448,192,99166,1,0,0:0:0:0:
320,192,99233,1,0,0:0:0:0:
192,192,99300,1,0,0:0:0:0:
64,192,99366,1,0,0:0:0:0:
448,192,99433,1,0,0:0:0:0:
320,192,99500,1,0,0:0:0:0:
192,192,99500,1,0,0:0:0:0:
64,192,99566,1,0,0:0:0:0:
192,192,99633,1,0,0:0:0:0:
320,192,99700,1,0,0:0:0:0:
448,192,99766,1,0,0:0:0:0:
64,192,99833,1,0,0:0:0:0:
192,192,99900,1,0,0:0:0:0:
320,192,99900,1,0,0:0:0:0:
448,192,99966,1,0,0:0:0:0:
64,192,100033,1,0,0:0:0:0:
192,192,100100,1,0,0:0:0:0:
448,192,100100,1,0,0:0:0:0:
320,192,100166,1,0,0:0:0:0:
192,192,100233,1,0,0:0:0:0:
64,192,100300,1,0,0:0:0:0:
448,192,100300,1,0,0:0:0:0:
320,192,100366,1,0,0:0:0:0:
192,192,100433,1,0,0:0:0:0:
64,192,100500,1,0,0:0:0:0:
448,192,100566,1,0,0:0:0:0:
320,192,100633,1,0,0:0:0:0:
192,192,100700,1,0,0:0:0:0:
448,192,100700,1,0,0:0:0:0:
64,192,100766,1,0,0:0:0:0:
320,192,100833,1,0,0:0:0:0:
192,192,100900,1,0,0:0:0:0:
64,192,100900,1,0,0:0:0:0:
320,192,100966,1,0,0:0:0:0:
448,192,101033,1,0,0:0:0:0:
64,192,101100,1,0,0:0:0:0:
192,192,101100,1,0,0:0:0:0:
320,192,101166,1,0,0:0:0:0:
448,192,101233,1,0,0:0:0:0:
64,192,101300,1,0,0:0:0:0:
192,192,101366,1,0,0:0:0:0:
320,192,101433,1,0,0:0:0:0:
448,192,101500,1,0,0:0:0:0:
192,192,101500,1,0,0:0:0:0:
64,192,101566,1,0,0:0:0:0:
192,192,101633,1,0,0:0:0:0:
448,192,101700,1,0,0:0:0:0:
320,192,101700,1,0,0:0:0:0:
64,192,101766,1,0,0:0:0:0:
192,192,101833,1,0,0:0:0:0:
448,192,101900,1,0,0:0:0:0:
320,192,101900,1,0,0:0:0:0:
64,192,101966,1,0,0:0:0:0:
192,192,102033,1,0,0:0:0:0:
448,192,102100,1,0,0:0:0:0:
320,192,102166,1,0,0:0:0:0:
192,192,102233,1,0,0:0:0:0:
448,192,102300,1,0,0:0:0:0:
64,192,102300,1,0,0:0:0:0:
320,192,102366,5,0,0:0:0:0:
192,192,102433,1,0,0:0:0:0:
64,192,102500,1,0,0:0:0:0:
192,192,102566,1,0,0:0:0:0:
320,192,102633,1,0,0:0:0:0:
64,192,102700,1,0,0:0:0:0:
192,192,102700,1,0,0:0:0:0:
448,192,102700,128,0,103500:0:0:0:0:
64,192,102900,1,0,0:0:0:0:
192,192,103100,1,0,0:0:0:0:
320,192,103100,1,0,0:0:0:0:
192,192,103300,1,0,0:0:0:0:
64,192,103500,5,0,0:0:0:0:
192,192,103566,1,0,0:0:0:0:
320,192,103633,1,0,0:0:0:0:
448,192,103700,1,0,0:0:0:0:
64,192,103700,1,0,0:0:0:0:
448,192,103900,1,0,0:0:0:0:
320,192,103966,1,0,0:0:0:0:
192,192,104033,1,0,0:0:0:0:
64,192,104100,1,0,0:0:0:0:
448,192,104100,1,0,0:0:0:0:
64,192,104300,1,0,0:0:0:0:
192,192,104300,1,0,0:0:0:0:
320,192,104300,1,0,0:0:0:0:
448,192,104300,1,0,0:0:0:0:
192,192,104500,1,0,0:0:0:0:
320,192,104700,1,0,0:0:0:0:
448,192,104900,1,0,0:0:0:0:
64,192,104900,1,0,0:0:0:0:
320,192,105100,1,0,0:0:0:0:
192,192,105300,1,0,0:0:0:0:
64,192,105500,1,0,0:0:0:0:
320,192,105500,1,0,0:0:0:0:
64,192,105900,1,0,0:0:0:0:
320,192,105900,1,0,0:0:0:0:
448,192,106100,1,0,0:0:0:0:
192,192,106300,1,0,0:0:0:0:
448,192,106500,1,0,0:0:0:0:
320,192,106500,1,0,0:0:0:0:
64,192,106700,1,0,0:0:0:0:
64,192,107100,1,0,0:0:0:0:
192,192,107100,1,0,0:0:0:0:
64,192,107500,1,0,0:0:0:0:
192,192,107500,1,0,0:0:0:0:
448,192,107700,1,0,0:0:0:0:
64,192,107900,1,0,0:0:0:0:
320,192,108100,1,0,0:0:0:0:
192,192,108100,1,0,0:0:0:0:
448,192,108300,1,0,0:0:0:0:
64,192,108500,1,0,0:0:0:0:
192,192,108700,1,0,0:0:0:0:
448,192,108700,1,0,0:0:0:0:
320,192,108900,1,0,0:0:0:0:
64,192,109000,1,0,0:0:0:0:
192,192,109100,1,0,0:0:0:0:
448,192,109100,1,0,0:0:0:0:
64,192,109300,1,0,0:0:0:0:
320,192,109500,1,0,0:0:0:0:
64,192,109700,1,0,0:0:0:0:
192,192,109700,1,0,0:0:0:0:
448,192,109900,1,0,0:0:0:0:
192,192,110100,1,0,0:0:0:0:
448,192,110300,1,0,0:0:0:0:
320,192,110300,1,0,0:0:0:0:
64,192,110500,1,0,0:0:0:0:
320,192,110700,1,0,0:0:0:0:
448,192,110700,1,0,0:0:0:0:
192,192,110900,1,0,0:0:0:0:
448,192,111100,1,0,0:0:0:0:
64,192,111300,1,0,0:0:0:0:
320,192,111300,1,0,0:0:0:0:
192,192,111500,1,0,0:0:0:0:
448,192,111700,1,0,0:0:0:0:
64,192,111900,1,0,0:0:0:0:
192,192,111900,1,0,0:0:0:0:
64,192,112300,1,0,0:0:0:0:
192,192,112300,1,0,0:0:0:0:
448,192,112500,1,0,0:0:0:0:
320,192,112700,1,0,0:0:0:0:
192,192,112900,1,0,0:0:0:0:
64,192,112900,1,0,0:0:0:0:
320,192,113100,1,0,0:0:0:0:
448,192,113500,1,0,0:0:0:0:
192,192,113500,1,0,0:0:0:0:
192,192,113900,1,0,0:0:0:0:
448,192,113900,1,0,0:0:0:0:
320,192,114100,1,0,0:0:0:0:
64,192,114300,1,0,0:0:0:0:
320,192,114500,1,0,0:0:0:0:
192,192,114500,1,0,0:0:0:0:
448,192,114700,1,0,0:0:0:0:
192,192,114900,1,0,0:0:0:0:
320,192,115000,1,0,0:0:0:0:
64,192,115100,1,0,0:0:0:0:
448,192,115100,1,0,0:0:0:0:
192,192,115300,1,0,0:0:0:0:
64,192,115500,1,0,0:0:0:0:
448,192,115500,1,0,0:0:0:0:
192,192,115600,1,0,0:0:0:0:
448,192,115700,1,0,0:0:0:0:
320,192,115800,1,0,0:0:0:0:
192,192,115900,1,0,0:0:0:0:
64,192,116000,1,0,0:0:0:0:
448,192,116100,1,0,0:0:0:0:
320,192,116200,1,0,0:0:0:0:
448,192,116300,128,0,116700:0:0:0:0:
192,192,116300,1,0,0:0:0:0:
64,192,116400,1,0,0:0:0:0:
320,192,116500,1,0,0:0:0:0:
192,192,116600,1,0,0:0:0:0:
64,192,116700,1,0,0:0:0:0:
192,192,116750,1,0,0:0:0:0:
320,192,116800,1,0,0:0:0:0:
448,192,116900,1,0,0:0:0:0:
320,192,116950,1,0,0:0:0:0:
192,192,117000,1,0,0:0:0:0:
64,192,117100,1,0,0:0:0:0:
448,192,117100,1,0,0:0:0:0:
320,192,117100,1,0,0:0:0:0:
192,192,117300,1,0,0:0:0:0:
320,192,117500,1,0,0:0:0:0:
64,192,117500,1,0,0:0:0:0:
448,192,117700,1,0,0:0:0:0:
192,192,117700,1,0,0:0:0:0:
64,192,117900,1,0,0:0:0:0:
192,192,117900,1,0,0:0:0:0:
320,192,117900,1,0,0:0:0:0:
448,192,118100,1,0,0:0:0:0:
64,192,118100,1,0,0:0:0:0:
192,192,118300,1,0,0:0:0:0:
320,192,118300,1,0,0:0:0:0:
64,192,118500,1,0,0:0:0:0:
192,192,118600,1,0,0:0:0:0:
320,192,118700,1,0,0:0:0:0:
448,192,118700,1,0,0:0:0:0:
64,192,118900,1,0,0:0:0:0:
192,192,118900,1,0,0:0:0:0:
192,192,119100,1,0,0:0:0:0:
320,192,119100,1,0,0:0:0:0:
448,192,119300,1,0,0:0:0:0:
320,192,119300,1,0,0:0:0:0:
64,192,119500,1,0,0:0:0:0:
192,192,119500,1,0,0:0:0:0:
320,192,119500,1,0,0:0:0:0:
448,192,119700,1,0,0:0:0:0:
64,192,119700,1,0,0:0:0:0:
64,192,119900,1,0,0:0:0:0:
192,192,119900,1,0,0:0:0:0:
192,192,120100,1,0,0:0:0:0:
320,192,120100,1,0,0:0:0:0:
320,192,120300,1,0,0:0:0:0:
448,192,120300,1,0,0:0:0:0:
192,192,120500,1,0,0:0:0:0:
320,192,120700,1,0,0:0:0:0:
448,192,120700,1,0,0:0:0:0:
64,192,120900,1,0,0:0:0:0:
192,192,120900,1,0,0:0:0:0:
192,192,121100,1,0,0:0:0:0:
320,192,121100,1,0,0:0:0:0:
448,192,121100,1,0,0:0:0:0:
64,192,121300,1,0,0:0:0:0:
320,192,121300,1,0,0:0:0:0:
448,192,121500,1,0,0:0:0:0:
192,192,121500,1,0,0:0:0:0:
320,192,121700,1,0,0:0:0:0:
192,192,121800,1,0,0:0:0:0:
448,192,121900,1,0,0:0:0:0:
64,192,121900,1,0,0:0:0:0:
320,192,122100,1,0,0:0:0:0:
448,192,122300,1,0,0:0:0:0:
192,192,122300,1,0,0:0:0:0:
64,192,122500,1,0,0:0:0:0:
320,192,122500,1,0,0:0:0:0:
192,192,122700,1,0,0:0:0:0:
64,192,122700,1,0,0:0:0:0:
448,192,122700,1,0,0:0:0:0:
448,192,122900,1,0,0:0:0:0:
320,192,122900,1,0,0:0:0:0:
192,192,123100,1,0,0:0:0:0:
320,192,123100,1,0,0:0:0:0:
64,192,123300,1,0,0:0:0:0:
192,192,123300,1,0,0:0:0:0:
64,192,123500,1,0,0:0:0:0:
320,192,123500,1,0,0:0:0:0:
448,192,123700,1,0,0:0:0:0:
320,192,123900,1,0,0:0:0:0:
192,192,123900,1,0,0:0:0:0:
320,192,124100,1,0,0:0:0:0:
64,192,124100,1,0,0:0:0:0:
448,192,124300,1,0,0:0:0:0:
192,192,124300,1,0,0:0:0:0:
320,192,124300,1,0,0:0:0:0:
448,192,124500,1,0,0:0:0:0:
64,192,124500,1,0,0:0:0:0:
192,192,124700,1,0,0:0:0:0:
320,192,124700,1,0,0:0:0:0:
64,192,124900,1,0,0:0:0:0:
448,192,125000,1,0,0:0:0:0:
320,192,125100,1,0,0:0:0:0:
192,192,125100,1,0,0:0:0:0:
64,192,125300,1,0,0:0:0:0:
320,192,125300,1,0,0:0:0:0:
192,192,125500,1,0,0:0:0:0:
448,192,125500,1,0,0:0:0:0:
448,192,125700,1,0,0:0:0:0:
320,192,125700,1,0,0:0:0:0:
64,192,125900,1,0,0:0:0:0:
192,192,125900,1,0,0:0:0:0:
320,192,125900,1,0,0:0:0:0:
448,192,126100,1,0,0:0:0:0:
64,192,126100,1,0,0:0:0:0:
64,192,126300,1,0,0:0:0:0:
192,192,126300,1,0,0:0:0:0:
192,192,126500,1,0,0:0:0:0:
320,192,126500,1,0,0:0:0:0:
320,192,126700,1,0,0:0:0:0:
448,192,126700,1,0,0:0:0:0:
192,192,126900,1,0,0:0:0:0:
64,192,127100,1,0,0:0:0:0:
320,192,127100,1,0,0:0:0:0:
448,192,127300,1,0,0:0:0:0:
192,192,127300,1,0,0:0:0:0:
320,192,127500,1,0,0:0:0:0:
64,192,127500,1,0,0:0:0:0:
448,192,127500,1,0,0:0:0:0:
192,192,127700,1,0,0:0:0:0:
320,192,127700,1,0,0:0:0:0:
448,192,127900,1,0,0:0:0:0:
64,192,127900,1,0,0:0:0:0:
448,192,128100,1,0,0:0:0:0:
320,192,128200,1,0,0:0:0:0:
192,192,128300,1,0,0:0:0:0:
64,192,128300,1,0,0:0:0:0:
320,192,128400,1,0,0:0:0:0:
448,192,128500,1,0,0:0:0:0:
64,192,128600,1,0,0:0:0:0:
320,192,128700,1,0,0:0:0:0:
192,192,128700,1,0,0:0:0:0:
448,192,128800,1,0,0:0:0:0:
64,192,128900,1,0,0:0:0:0:
320,192,128900,1,0,0:0:0:0:
192,192,129100,1,0,0:0:0:0:
320,192,129100,1,0,0:0:0:0:
448,192,129100,1,0,0:0:0:0:
64,192,129200,1,0,0:0:0:0:
448,192,129300,1,0,0:0:0:0:
320,192,129300,1,0,0:0:0:0:
192,192,129350,1,0,0:0:0:0:
64,192,129400,1,0,0:0:0:0:
448,192,129450,1,0,0:0:0:0:
192,192,129500,1,0,0:0:0:0:
320,192,129500,1,0,0:0:0:0:
64,192,129600,1,0,0:0:0:0:
320,192,129700,1,0,0:0:0:0:
448,192,129700,1,0,0:0:0:0:
192,192,129800,1,0,0:0:0:0:
64,192,129900,1,0,0:0:0:0:
320,192,129900,1,0,0:0:0:0:
192,192,130100,1,0,0:0:0:0:
448,192,130300,1,0,0:0:0:0:
320,192,130300,1,0,0:0:0:0:
192,192,130500,1,0,0:0:0:0:
64,192,130500,1,0,0:0:0:0:
320,192,130700,1,0,0:0:0:0:
448,192,130700,1,0,0:0:0:0:
64,192,130700,1,0,0:0:0:0:
192,192,130900,1,0,0:0:0:0:
320,192,130900,1,0,0:0:0:0:
448,192,131100,1,0,0:0:0:0:
64,192,131100,1,0,0:0:0:0:
192,192,131300,1,0,0:0:0:0:
320,192,131400,1,0,0:0:0:0:
448,192,131500,1,0,0:0:0:0:
64,192,131500,1,0,0:0:0:0:
192,192,131700,1,0,0:0:0:0:
64,192,131700,1,0,0:0:0:0:
320,192,131900,1,0,0:0:0:0:
192,192,131900,1,0,0:0:0:0:
320,192,132100,1,0,0:0:0:0:
448,192,132100,1,0,0:0:0:0:
320,192,132300,1,0,0:0:0:0:
192,192,132300,1,0,0:0:0:0:
64,192,132300,1,0,0:0:0:0:
192,192,132500,1,0,0:0:0:0:
448,192,132500,1,0,0:0:0:0:
448,192,132700,1,0,0:0:0:0:
64,192,132700,1,0,0:0:0:0:
320,192,132900,1,0,0:0:0:0:
64,192,132900,1,0,0:0:0:0:
320,192,133100,1,0,0:0:0:0:
192,192,133100,1,0,0:0:0:0:
448,192,133300,1,0,0:0:0:0:
192,192,133500,1,0,0:0:0:0:
64,192,133500,1,0,0:0:0:0:
320,192,133700,1,0,0:0:0:0:
192,192,133700,1,0,0:0:0:0:
448,192,133900,1,0,0:0:0:0:
64,192,133900,1,0,0:0:0:0:
320,192,133900,1,0,0:0:0:0:
448,192,134100,1,0,0:0:0:0:
192,192,134100,1,0,0:0:0:0:
64,192,134300,1,0,0:0:0:0:
320,192,134300,1,0,0:0:0:0:
448,192,134500,1,0,0:0:0:0:
320,192,134600,1,0,0:0:0:0:
64,192,134700,1,0,0:0:0:0:
192,192,134700,1,0,0:0:0:0:
320,192,134900,1,0,0:0:0:0:
64,192,135100,1,0,0:0:0:0:
448,192,135100,1,0,0:0:0:0:
448,192,135300,1,0,0:0:0:0:
192,192,135300,1,0,0:0:0:0:
448,192,135500,1,0,0:0:0:0:
64,192,135500,1,0,0:0:0:0:
320,192,135500,1,0,0:0:0:0:
192,192,135700,1,0,0:0:0:0:
64,192,135700,1,0,0:0:0:0:
320,192,135750,1,0,0:0:0:0:
448,192,135800,1,0,0:0:0:0:
64,192,135850,1,0,0:0:0:0:
320,192,135900,1,0,0:0:0:0:
192,192,135900,1,0,0:0:0:0:
448,192,136100,1,0,0:0:0:0:
320,192,136100,1,0,0:0:0:0:
192,192,136300,1,0,0:0:0:0:
64,192,136300,1,0,0:0:0:0:
192,192,136500,1,0,0:0:0:0:
320,192,136700,1,0,0:0:0:0:
64,192,136700,1,0,0:0:0:0:
448,192,136900,1,0,0:0:0:0:
320,192,136900,1,0,0:0:0:0:
64,192,137100,1,0,0:0:0:0:
192,192,137100,1,0,0:0:0:0:
448,192,137100,1,0,0:0:0:0:
320,192,137300,1,0,0:0:0:0:
64,192,137300,1,0,0:0:0:0:
192,192,137500,1,0,0:0:0:0:
320,192,137500,1,0,0:0:0:0:
448,192,137700,1,0,0:0:0:0:
320,192,137800,1,0,0:0:0:0:
64,192,137900,1,0,0:0:0:0:
192,192,137900,1,0,0:0:0:0:
64,192,138100,1,0,0:0:0:0:
320,192,138100,1,0,0:0:0:0:
192,192,138300,1,0,0:0:0:0:
320,192,138300,1,0,0:0:0:0:
448,192,138500,1,0,0:0:0:0:
192,192,138500,1,0,0:0:0:0:
64,192,138700,1,0,0:0:0:0:
192,192,138700,1,0,0:0:0:0:
320,192,138700,1,0,0:0:0:0:
448,192,138900,1,0,0:0:0:0:
64,192,138900,1,0,0:0:0:0:
320,192,139100,1,0,0:0:0:0:
448,192,139100,1,0,0:0:0:0:
192,192,139300,1,0,0:0:0:0:
320,192,139300,1,0,0:0:0:0:
64,192,139500,1,0,0:0:0:0:
192,192,139500,1,0,0:0:0:0:
320,192,139700,1,0,0:0:0:0:
64,192,139900,1,0,0:0:0:0:
448,192,139900,1,0,0:0:0:0:
448,192,140100,1,0,0:0:0:0:
192,192,140100,1,0,0:0:0:0:
192,192,140300,1,0,0:0:0:0:
64,192,140300,1,0,0:0:0:0:
320,192,140300,1,0,0:0:0:0:
320,192,140500,1,0,0:0:0:0:
448,192,140500,1,0,0:0:0:0:
64,192,140700,1,0,0:0:0:0:
192,192,140700,1,0,0:0:0:0:
448,192,140900,1,0,0:0:0:0:
320,192,141000,1,0,0:0:0:0:
192,192,141100,1,0,0:0:0:0:
64,192,141100,1,0,0:0:0:0:
320,192,141200,1,0,0:0:0:0:
448,192,141300,1,0,0:0:0:0:
64,192,141400,1,0,0:0:0:0:
320,192,141500,1,0,0:0:0:0:
192,192,141500,1,0,0:0:0:0:
448,192,141600,5,0,0:0:0:0:
64,192,141700,5,0,0:0:0:0:
320,192,141700,1,0,0:0:0:0:
192,192,141800,1,0,0:0:0:0:
320,192,141900,1,0,0:0:0:0:
448,192,141900,1,0,0:0:0:0:
64,192,141900,1,0,0:0:0:0:
192,192,142000,1,0,0:0:0:0:
320,192,142100,1,0,0:0:0:0:
448,192,142100,1,0,0:0:0:0:
64,192,142200,1,0,0:0:0:0:
448,192,142300,1,0,0:0:0:0:
192,192,142300,1,0,0:0:0:0:
320,192,142400,1,0,0:0:0:0:
192,192,142500,1,0,0:0:0:0:
64,192,142500,1,0,0:0:0:0:
448,192,142600,1,0,0:0:0:0:
64,192,142700,1,0,0:0:0:0:
192,192,142700,1,0,0:0:0:0:
320,192,142700,1,0,0:0:0:0:
192,192,143100,1,0,0:0:0:0:
320,192,143100,1,0,0:0:0:0:
448,192,143100,1,0,0:0:0:0:
192,192,143500,1,0,0:0:0:0:
448,192,143500,1,0,0:0:0:0:
64,192,143500,1,0,0:0:0:0:
64,192,143900,1,0,0:0:0:0:
448,192,143900,1,0,0:0:0:0:
320,192,143900,1,0,0:0:0:0:
64,192,144300,1,0,0:0:0:0:
320,192,144300,1,0,0:0:0:0:
192,192,144300,1,0,0:0:0:0:
192,192,144700,1,0,0:0:0:0:
320,192,144700,1,0,0:0:0:0:
448,192,144700,1,0,0:0:0:0:
448,192,145100,1,0,0:0:0:0:
192,192,145100,1,0,0:0:0:0:
64,192,145100,1,0,0:0:0:0:
64,192,145500,1,0,0:0:0:0:
448,192,145500,1,0,0:0:0:0:
320,192,145500,1,0,0:0:0:0:
320,192,145900,1,0,0:0:0:0:
64,192,145900,1,0,0:0:0:0:
192,192,145900,1,0,0:0:0:0:
320,192,146300,1,0,0:0:0:0:
192,192,146300,1,0,0:0:0:0:
64,192,146300,1,0,0:0:0:0:
192,192,146700,1,0,0:0:0:0:
448,192,146700,1,0,0:0:0:0:
320,192,146700,1,0,0:0:0:0:
448,192,147100,1,0,0:0:0:0:
192,192,147100,1,0,0:0:0:0:
320,192,147100,1,0,0:0:0:0:
64,192,147500,1,0,0:0:0:0:
192,192,147500,1,0,0:0:0:0:
320,192,147500,1,0,0:0:0:0:
64,192,147900,1,0,0:0:0:0:
192,192,147900,1,0,0:0:0:0:
320,192,147900,1,0,0:0:0:0:
192,192,148300,1,0,0:0:0:0:
320,192,148300,1,0,0:0:0:0:
448,192,148300,1,0,0:0:0:0:
192,192,148700,1,0,0:0:0:0:
320,192,148700,1,0,0:0:0:0:
448,192,148700,1,0,0:0:0:0:
64,192,149100,1,0,0:0:0:0:
192,192,149100,1,0,0:0:0:0:
448,192,149100,1,0,0:0:0:0:
64,192,149500,1,0,0:0:0:0:
192,192,149500,1,0,0:0:0:0:
448,192,149500,1,0,0:0:0:0:
64,192,149900,1,0,0:0:0:0:
320,192,149900,1,0,0:0:0:0:
448,192,149900,1,0,0:0:0:0:
64,192,150300,1,0,0:0:0:0:
320,192,150300,1,0,0:0:0:0:
448,192,150300,1,0,0:0:0:0:
64,192,150700,1,0,0:0:0:0:
192,192,150700,1,0,0:0:0:0:
448,192,150700,1,0,0:0:0:0:
64,192,151100,1,0,0:0:0:0:
320,192,151100,1,0,0:0:0:0:
448,192,151100,1,0,0:0:0:0:
192,192,151500,1,0,0:0:0:0:
64,192,151500,1,0,0:0:0:0:
320,192,151500,1,0,0:0:0:0:
192,192,151900,1,0,0:0:0:0:
320,192,151900,1,0,0:0:0:0:
448,192,151900,1,0,0:0:0:0:
64,192,152300,1,0,0:0:0:0:
192,192,152300,1,0,0:0:0:0:
448,192,152300,1,0,0:0:0:0:
64,192,152700,1,0,0:0:0:0:
192,192,152700,1,0,0:0:0:0:
448,192,152700,1,0,0:0:0:0:
192,192,153100,1,0,0:0:0:0:
320,192,153100,1,0,0:0:0:0:
448,192,153100,1,0,0:0:0:0:
192,192,153500,1,0,0:0:0:0:
320,192,153500,1,0,0:0:0:0:
448,192,153500,1,0,0:0:0:0:
64,192,153900,1,0,0:0:0:0:
320,192,153900,1,0,0:0:0:0:
448,192,153900,1,0,0:0:0:0:
64,192,154300,1,0,0:0:0:0:
320,192,154300,1,0,0:0:0:0:
448,192,154300,1,0,0:0:0:0:
64,192,154700,1,0,0:0:0:0:
192,192,154700,1,0,0:0:0:0:
320,192,154700,1,0,0:0:0:0:
64,192,155100,1,0,0:0:0:0:
192,192,155100,1,0,0:0:0:0:
320,192,155100,1,0,0:0:0:0:
64,192,155500,1,0,0:0:0:0:
320,192,155500,1,0,0:0:0:0:
448,192,155500,128,0,155600:0:0:0:0:
64,192,155800,1,0,0:0:0:0:
448,192,155900,128,0,156000:0:0:0:0:
320,192,155900,1,0,0:0:0:0:
192,192,155900,1,0,0:0:0:0:
64,192,156100,128,0,156200:0:0:0:0:
192,192,156100,1,0,0:0:0:0:
448,192,156300,128,0,156400:0:0:0:0:
320,192,156300,1,0,0:0:0:0:
64,192,156300,1,0,0:0:0:0:
64,192,156500,128,0,156600:0:0:0:0:
192,192,156500,1,0,0:0:0:0:
448,192,156600,1,0,0:0:0:0:
448,192,156700,128,0,156800:0:0:0:0:
320,192,156700,1,0,0:0:0:0:
192,192,156700,1,0,0:0:0:0:
192,192,156900,128,0,157000:0:0:0:0:
320,192,156900,1,0,0:0:0:0:
64,192,157100,128,0,157200:0:0:0:0:
448,192,157100,1,0,0:0:0:0:
320,192,157100,1,0,0:0:0:0:
320,192,157300,128,0,157400:0:0:0:0:
448,192,157400,1,0,0:0:0:0:
192,192,157500,128,0,157600:0:0:0:0:
64,192,157500,1,0,0:0:0:0:
320,192,157500,1,0,0:0:0:0:
320,192,157700,128,0,157800:0:0:0:0:
192,192,157700,1,0,0:0:0:0:
448,192,157900,128,0,158000:0:0:0:0:
320,192,157900,1,0,0:0:0:0:
64,192,157900,1,0,0:0:0:0:
448,192,158200,1,0,0:0:0:0:
192,192,158300,128,0,158400:0:0:0:0:
320,192,158300,1,0,0:0:0:0:
64,192,158300,1,0,0:0:0:0:
64,192,158500,1,0,0:0:0:0:
448,192,158500,1,0,0:0:0:0:
192,192,158700,128,0,158800:0:0:0:0:
320,192,158700,1,0,0:0:0:0:
448,192,158700,1,0,0:0:0:0:
448,192,159000,1,0,0:0:0:0:
320,192,159100,128,0,159200:0:0:0:0:
64,192,159100,1,0,0:0:0:0:
192,192,159100,1,0,0:0:0:0:
192,192,159300,128,0,159400:0:0:0:0:
448,192,159300,1,0,0:0:0:0:
320,192,159500,128,0,159600:0:0:0:0:
64,192,159500,1,0,0:0:0:0:
448,192,159500,1,0,0:0:0:0:
192,192,159700,128,0,159800:0:0:0:0:
448,192,159700,1,0,0:0:0:0:
320,192,159800,1,0,0:0:0:0:
192,192,159900,128,0,160000:0:0:0:0:
64,192,159900,1,0,0:0:0:0:
448,192,159900,1,0,0:0:0:0:
64,192,160100,128,0,160200:0:0:0:0:
320,192,160100,1,0,0:0:0:0:
448,192,160300,128,0,160400:0:0:0:0:
320,192,160300,1,0,0:0:0:0:
192,192,160300,1,0,0:0:0:0:
320,192,160600,1,0,0:0:0:0:
192,192,160700,1,0,0:0:0:0:
64,192,160700,128,0,160800:0:0:0:0:
448,192,160700,1,0,0:0:0:0:
320,192,160900,5,0,0:0:0:0:
192,192,160900,128,0,161000:0:0:0:0:
320,192,161100,128,0,161200:0:0:0:0:
448,192,161100,1,0,0:0:0:0:
64,192,161100,1,0,0:0:0:0:
320,192,161400,1,0,0:0:0:0:
448,192,161500,128,0,161600:0:0:0:0:
64,192,161500,1,0,0:0:0:0:
192,192,161500,1,0,0:0:0:0:
64,192,161700,1,0,0:0:0:0:
320,192,161700,1,0,0:0:0:0:
448,192,161900,5,0,0:0:0:0:
192,192,161900,1,0,0:0:0:0:
192,192,162100,1,0,0:0:0:0:
448,192,162100,1,0,0:0:0:0:
192,192,162300,1,0,0:0:0:0:
448,192,162300,1,0,0:0:0:0:
192,192,162500,1,0,0:0:0:0:
448,192,162500,1,0,0:0:0:0:
64,192,162700,1,0,0:0:0:0:
320,192,162700,1,0,0:0:0:0:
64,192,162900,1,0,0:0:0:0:
320,192,162900,1,0,0:0:0:0:
64,192,163100,1,0,0:0:0:0:
320,192,163100,1,0,0:0:0:0:
64,192,163300,1,0,0:0:0:0:
320,192,163300,1,0,0:0:0:0:
64,192,163500,1,0,0:0:0:0:
448,192,163500,1,0,0:0:0:0:
64,192,163700,1,0,0:0:0:0:
448,192,163700,1,0,0:0:0:0:
64,192,163900,1,0,0:0:0:0:
448,192,163900,1,0,0:0:0:0:
64,192,164100,1,0,0:0:0:0:
448,192,164100,1,0,0:0:0:0:
192,192,164300,1,0,0:0:0:0:
320,192,164300,1,0,0:0:0:0:
192,192,164500,1,0,0:0:0:0:
320,192,164500,1,0,0:0:0:0:
192,192,164700,1,0,0:0:0:0:
320,192,164700,1,0,0:0:0:0:
192,192,164900,1,0,0:0:0:0:
320,192,164900,1,0,0:0:0:0:
64,192,165100,1,0,0:0:0:0:
192,192,165100,1,0,0:0:0:0:
448,192,165200,1,0,0:0:0:0:
320,192,165300,1,0,0:0:0:0:
192,192,165300,1,0,0:0:0:0:
64,192,165400,1,0,0:0:0:0:
320,192,165500,1,0,0:0:0:0:
448,192,165500,1,0,0:0:0:0:
192,192,165600,1,0,0:0:0:0:
64,192,165700,1,0,0:0:0:0:
448,192,165700,1,0,0:0:0:0:
320,192,165800,1,0,0:0:0:0:
192,192,165900,1,0,0:0:0:0:
64,192,165900,1,0,0:0:0:0:
64,192,166000,1,0,0:0:0:0:
192,192,166000,1,0,0:0:0:0:
320,192,166100,1,0,0:0:0:0:
448,192,166100,1,0,0:0:0:0:
320,192,166200,1,0,0:0:0:0:
448,192,166200,1,0,0:0:0:0:
64,192,166300,1,0,0:0:0:0:
192,192,166300,1,0,0:0:0:0:
192,192,166400,1,0,0:0:0:0:
64,192,166400,1,0,0:0:0:0:
320,192,166500,1,0,0:0:0:0:
448,192,166500,1,0,0:0:0:0:
320,192,166600,1,0,0:0:0:0:
448,192,166600,1,0,0:0:0:0:
192,192,166700,1,0,0:0:0:0:
64,192,166700,128,0,167700:0:0:0:0:
448,192,166800,5,0,0:0:0:0:
320,192,166900,1,0,0:0:0:0:
192,192,167000,1,0,0:0:0:0:
448,192,167100,1,0,0:0:0:0:
320,192,167200,1,0,0:0:0:0:
192,192,167300,1,0,0:0:0:0:
448,192,167400,1,0,0:0:0:0:
320,192,167500,1,0,0:0:0:0:
192,192,167600,1,0,0:0:0:0:
448,192,167700,1,0,0:0:0:0:
320,192,167700,1,0,0:0:0:0:
320,192,167900,5,0,0:0:0:0:
192,192,167900,1,0,0:0:0:0:
192,192,168100,1,0,0:0:0:0:
64,192,168100,1,0,0:0:0:0:
64,192,168300,5,0,0:0:0:0:
320,192,168300,1,0,0:0:0:0:
448,192,168300,1,0,0:0:0:0:
192,192,168600,1,0,0:0:0:0:
320,192,168600,1,0,0:0:0:0:
64,192,168700,128,0,168800:0:0:0:0:
320,192,168700,1,0,0:0:0:0:
448,192,168700,1,0,0:0:0:0:
192,192,168800,128,0,168900:0:0:0:0:
64,192,168900,128,0,169100:0:0:0:0:
448,192,168900,1,0,0:0:0:0:
192,192,169100,1,0,0:0:0:0:
320,192,169100,128,0,169200:0:0:0:0:
448,192,169100,1,0,0:0:0:0:
448,192,169200,128,0,169300:0:0:0:0:
320,192,169300,128,0,169500:0:0:0:0:
64,192,169400,1,0,0:0:0:0:
64,192,169500,128,0,169600:0:0:0:0:
448,192,169500,1,0,0:0:0:0:
192,192,169500,1,0,0:0:0:0:
192,192,169600,128,0,169700:0:0:0:0:
64,192,169700,128,0,169900:0:0:0:0:
448,192,169700,1,0,0:0:0:0:
192,192,169900,1,0,0:0:0:0:
448,192,169900,1,0,0:0:0:0:
320,192,169900,128,0,170000:0:0:0:0:
448,192,170000,128,0,170100:0:0:0:0:
320,192,170100,128,0,170300:0:0:0:0:
64,192,170200,1,0,0:0:0:0:
64,192,170300,128,0,170400:0:0:0:0:
192,192,170300,1,0,0:0:0:0:
448,192,170300,1,0,0:0:0:0:
192,192,170400,128,0,170500:0:0:0:0:
64,192,170500,128,0,170700:0:0:0:0:
448,192,170500,1,0,0:0:0:0:
320,192,170700,128,0,170800:0:0:0:0:
192,192,170700,1,0,0:0:0:0:
448,192,170700,1,0,0:0:0:0:
448,192,170800,128,0,170900:0:0:0:0:
320,192,170900,128,0,171100:0:0:0:0:
64,192,171000,1,0,0:0:0:0:
64,192,171100,128,0,171200:0:0:0:0:
192,192,171100,1,0,0:0:0:0:
448,192,171100,1,0,0:0:0:0:
192,192,171200,128,0,171300:0:0:0:0:
64,192,171300,128,0,171400:0:0:0:0:
448,192,171300,1,0,0:0:0:0:
192,192,171500,1,0,0:0:0:0:
320,192,171500,1,0,0:0:0:0:
448,192,171500,1,0,0:0:0:0:
448,192,171800,1,0,0:0:0:0:
64,192,171800,1,0,0:0:0:0:
448,192,171900,128,0,172000:0:0:0:0:
192,192,171900,1,0,0:0:0:0:
320,192,171900,1,0,0:0:0:0:
64,192,172000,128,0,172100:0:0:0:0:
448,192,172100,128,0,172300:0:0:0:0:
192,192,172100,1,0,0:0:0:0:
320,192,172300,128,0,172400:0:0:0:0:
64,192,172300,1,0,0:0:0:0:
192,192,172300,1,0,0:0:0:0:
192,192,172400,128,0,172500:0:0:0:0:
320,192,172500,128,0,172700:0:0:0:0:
448,192,172600,1,0,0:0:0:0:
448,192,172700,128,0,172800:0:0:0:0:
64,192,172700,1,0,0:0:0:0:
192,192,172700,1,0,0:0:0:0:
64,192,172800,128,0,172900:0:0:0:0:
448,192,172900,128,0,173100:0:0:0:0:
192,192,172900,1,0,0:0:0:0:
320,192,173100,128,0,173200:0:0:0:0:
64,192,173100,1,0,0:0:0:0:
192,192,173100,1,0,0:0:0:0:
192,192,173200,128,0,173300:0:0:0:0:
320,192,173300,128,0,173500:0:0:0:0:
448,192,173400,1,0,0:0:0:0:
448,192,173500,128,0,173600:0:0:0:0:
64,192,173500,1,0,0:0:0:0:
192,192,173500,1,0,0:0:0:0:
64,192,173600,128,0,173700:0:0:0:0:
448,192,173700,128,0,173900:0:0:0:0:
192,192,173700,1,0,0:0:0:0:
320,192,173900,128,0,174000:0:0:0:0:
64,192,173900,1,0,0:0:0:0:
192,192,173900,1,0,0:0:0:0:
192,192,174000,128,0,174100:0:0:0:0:
320,192,174100,128,0,174300:0:0:0:0:
448,192,174100,1,0,0:0:0:0:
64,192,174300,1,0,0:0:0:0:
448,192,174300,1,0,0:0:0:0:
192,192,174366,1,0,0:0:0:0:
320,192,174433,1,0,0:0:0:0:
448,192,174500,1,0,0:0:0:0:
64,192,174500,1,0,0:0:0:0:
64,192,174700,1,0,0:0:0:0:
192,192,174700,1,0,0:0:0:0:
320,192,174700,1,0,0:0:0:0:
64,192,175000,1,0,0:0:0:0:
320,192,175000,1,0,0:0:0:0:
320,192,175100,128,0,175200:0:0:0:0:
192,192,175100,1,0,0:0:0:0:
448,192,175100,1,0,0:0:0:0:
64,192,175200,128,0,175300:0:0:0:0:
320,192,175300,128,0,175500:0:0:0:0:
448,192,175300,1,0,0:0:0:0:
64,192,175500,1,0,0:0:0:0:
192,192,175500,128,0,175600:0:0:0:0:
448,192,175500,1,0,0:0:0:0:
448,192,175600,128,0,175700:0:0:0:0:
192,192,175700,128,0,175900:0:0:0:0:
320,192,175800,1,0,0:0:0:0:
320,192,175900,128,0,176000:0:0:0:0:
448,192,175900,1,0,0:0:0:0:
64,192,175900,1,0,0:0:0:0:
64,192,176000,128,0,176100:0:0:0:0:
320,192,176100,128,0,176300:0:0:0:0:
192,192,176100,1,0,0:0:0:0:
64,192,176300,1,0,0:0:0:0:
448,192,176300,1,0,0:0:0:0:
192,192,176300,128,0,176400:0:0:0:0:
448,192,176400,128,0,176500:0:0:0:0:
192,192,176500,128,0,176700:0:0:0:0:
320,192,176600,1,0,0:0:0:0:
320,192,176700,128,0,176800:0:0:0:0:
448,192,176700,1,0,0:0:0:0:
64,192,176700,1,0,0:0:0:0:
64,192,176800,128,0,176900:0:0:0:0:
320,192,176900,128,0,177100:0:0:0:0:
192,192,176900,1,0,0:0:0:0:
192,192,177100,128,0,177200:0:0:0:0:
64,192,177100,1,0,0:0:0:0:
448,192,177100,1,0,0:0:0:0:
448,192,177200,128,0,177300:0:0:0:0:
192,192,177300,128,0,177500:0:0:0:0:
320,192,177400,1,0,0:0:0:0:
320,192,177500,128,0,177600:0:0:0:0:
448,192,177500,1,0,0:0:0:0:
64,192,177500,1,0,0:0:0:0:
64,192,177600,128,0,177700:0:0:0:0:
320,192,177700,128,0,177800:0:0:0:0:
448,192,177700,1,0,0:0:0:0:
192,192,177900,1,0,0:0:0:0:
64,192,177900,1,0,0:0:0:0:
448,192,177900,1,0,0:0:0:0:
448,192,178200,1,0,0:0:0:0:
448,192,178300,128,0,178400:0:0:0:0:
64,192,178300,1,0,0:0:0:0:
320,192,178300,1,0,0:0:0:0:
192,192,178400,128,0,178500:0:0:0:0:
448,192,178500,128,0,178700:0:0:0:0:
320,192,178500,1,0,0:0:0:0:
320,192,178700,1,0,0:0:0:0:
64,192,178700,128,0,178800:0:0:0:0:
192,192,178700,1,0,0:0:0:0:
320,192,178800,128,0,178900:0:0:0:0:
64,192,178900,128,0,179100:0:0:0:0:
448,192,179000,1,0,0:0:0:0:
320,192,179100,1,0,0:0:0:0:
448,192,179100,128,0,179200:0:0:0:0:
192,192,179100,1,0,0:0:0:0:
192,192,179200,128,0,179300:0:0:0:0:
448,192,179300,128,0,179500:0:0:0:0:
64,192,179300,1,0,0:0:0:0:
320,192,179500,1,0,0:0:0:0:
64,192,179500,128,0,179600:0:0:0:0:
192,192,179500,1,0,0:0:0:0:
320,192,179600,128,0,179700:0:0:0:0:
64,192,179700,128,0,179900:0:0:0:0:
448,192,179800,1,0,0:0:0:0:
448,192,179900,128,0,180000:0:0:0:0:
192,192,179900,1,0,0:0:0:0:
320,192,179900,1,0,0:0:0:0:
192,192,180000,128,0,180100:0:0:0:0:
448,192,180100,128,0,180300:0:0:0:0:
320,192,180100,1,0,0:0:0:0:
64,192,180300,1,0,0:0:0:0:
192,192,180300,1,0,0:0:0:0:
320,192,180400,1,0,0:0:0:0:
448,192,180400,1,0,0:0:0:0:
192,192,180500,1,0,0:0:0:0:
64,192,180500,1,0,0:0:0:0:
320,192,180600,1,0,0:0:0:0:
448,192,180600,1,0,0:0:0:0:
64,192,180700,1,0,0:0:0:0:
192,192,180700,1,0,0:0:0:0:
448,192,180900,1,0,0:0:0:0:
64,192,180900,1,0,0:0:0:0:
320,192,180950,1,0,0:0:0:0:
192,192,181000,1,0,0:0:0:0:
64,192,181050,1,0,0:0:0:0:
192,192,181100,1,0,0:0:0:0:
320,192,181100,1,0,0:0:0:0:
448,192,181100,1,0,0:0:0:0:
64,192,181166,1,0,0:0:0:0:
192,192,181233,1,0,0:0:0:0:
448,192,181300,1,0,0:0:0:0:
320,192,181366,1,0,0:0:0:0:
192,192,181433,1,0,0:0:0:0:
64,192,181500,1,0,0:0:0:0:
448,192,181500,1,0,0:0:0:0:
320,192,181500,128,0,181700:0:0:0:0:
64,192,181700,1,0,0:0:0:0:
192,192,181700,1,0,0:0:0:0:
448,192,181700,1,0,0:0:0:0:
64,192,181900,1,0,0:0:0:0:
320,192,181900,1,0,0:0:0:0:
192,192,181900,1,0,0:0:0:0:
448,192,181966,1,0,0:0:0:0:
64,192,182033,1,0,0:0:0:0:
192,192,182100,1,0,0:0:0:0:
320,192,182166,1,0,0:0:0:0:
448,192,182233,1,0,0:0:0:0:
192,192,182300,1,0,0:0:0:0:
320,192,182300,1,0,0:0:0:0:
64,192,182300,128,0,182500:0:0:0:0:
192,192,182500,1,0,0:0:0:0:
320,192,182500,1,0,0:0:0:0:
448,192,182500,1,0,0:0:0:0:
320,192,182700,1,0,0:0:0:0:
192,192,182700,1,0,0:0:0:0:
64,192,182700,1,0,0:0:0:0:
448,192,182766,1,0,0:0:0:0:
320,192,182833,1,0,0:0:0:0:
64,192,182900,1,0,0:0:0:0:
192,192,182966,1,0,0:0:0:0:
320,192,183033,1,0,0:0:0:0:
448,192,183100,1,0,0:0:0:0:
64,192,183100,1,0,0:0:0:0:
192,192,183100,128,0,183300:0:0:0:0:
320,192,183300,1,0,0:0:0:0:
64,192,183300,1,0,0:0:0:0:
448,192,183300,1,0,0:0:0:0:
64,192,183500,1,0,0:0:0:0:
192,192,183500,1,0,0:0:0:0:
448,192,183500,1,0,0:0:0:0:
320,192,183566,1,0,0:0:0:0:
192,192,183633,1,0,0:0:0:0:
64,192,183700,1,0,0:0:0:0:
320,192,183766,1,0,0:0:0:0:
448,192,183833,1,0,0:0:0:0:
64,192,183900,1,0,0:0:0:0:
192,192,183900,1,0,0:0:0:0:
320,192,183900,1,0,0:0:0:0:
448,192,184100,1,0,0:0:0:0:
192,192,184100,1,0,0:0:0:0:
320,192,184100,1,0,0:0:0:0:
320,192,184300,1,0,0:0:0:0:
192,192,184300,1,0,0:0:0:0:
64,192,184300,1,0,0:0:0:0:
448,192,184366,1,0,0:0:0:0:
320,192,184433,1,0,0:0:0:0:
192,192,184500,1,0,0:0:0:0:
64,192,184566,1,0,0:0:0:0:
192,192,184633,1,0,0:0:0:0:
448,192,184700,1,0,0:0:0:0:
64,192,184700,1,0,0:0:0:0:
320,192,184700,128,0,184900:0:0:0:0:
64,192,184900,1,0,0:0:0:0:
192,192,184900,1,0,0:0:0:0:
448,192,184900,1,0,0:0:0:0:
64,192,185100,1,0,0:0:0:0:
448,192,185100,1,0,0:0:0:0:
320,192,185100,1,0,0:0:0:0:
192,192,185166,1,0,0:0:0:0:
64,192,185233,1,0,0:0:0:0:
192,192,185300,1,0,0:0:0:0:
448,192,185366,1,0,0:0:0:0:
320,192,185433,1,0,0:0:0:0:
64,192,185500,1,0,0:0:0:0:
448,192,185500,1,0,0:0:0:0:
192,192,185500,128,0,185700:0:0:0:0:
448,192,185700,1,0,0:0:0:0:
64,192,185700,1,0,0:0:0:0:
320,192,185700,1,0,0:0:0:0:
448,192,185900,1,0,0:0:0:0:
192,192,185900,1,0,0:0:0:0:
64,192,185900,1,0,0:0:0:0:
320,192,185966,1,0,0:0:0:0:
448,192,186033,1,0,0:0:0:0:
320,192,186100,1,0,0:0:0:0:
192,192,186166,1,0,0:0:0:0:
64,192,186233,1,0,0:0:0:0:
320,192,186300,1,0,0:0:0:0:
192,192,186300,1,0,0:0:0:0:
448,192,186300,128,0,186500:0:0:0:0:
320,192,186500,1,0,0:0:0:0:
192,192,186500,1,0,0:0:0:0:
64,192,186500,1,0,0:0:0:0:
320,192,186700,1,0,0:0:0:0:
192,192,186700,1,0,0:0:0:0:
448,192,186700,1,0,0:0:0:0:
64,192,186766,1,0,0:0:0:0:
320,192,186833,1,0,0:0:0:0:
448,192,186900,1,0,0:0:0:0:
64,192,186966,1,0,0:0:0:0:
192,192,187033,1,0,0:0:0:0:
320,192,187100,1,0,0:0:0:0:
448,192,187100,1,0,0:0:0:0:
64,192,187100,1,0,0:0:0:0:
320,192,187300,1,0,0:0:0:0:
448,192,187300,1,0,0:0:0:0:
192,192,187350,1,0,0:0:0:0:
64,192,187400,1,0,0:0:0:0:
448,192,187450,1,0,0:0:0:0:
64,192,187500,1,0,0:0:0:0:
192,192,187500,1,0,0:0:0:0:
320,192,187566,1,0,0:0:0:0:
448,192,187633,1,0,0:0:0:0:
64,192,187700,1,0,0:0:0:0:
192,192,187766,1,0,0:0:0:0:
320,192,187833,1,0,0:0:0:0:
64,192,187900,1,0,0:0:0:0:
448,192,187900,1,0,0:0:0:0:
192,192,187900,128,0,188100:0:0:0:0:
448,192,188100,1,0,0:0:0:0:
64,192,188100,1,0,0:0:0:0:
320,192,188100,1,0,0:0:0:0:
64,192,188300,1,0,0:0:0:0:
192,192,188300,1,0,0:0:0:0:
448,192,188300,1,0,0:0:0:0:
320,192,188366,1,0,0:0:0:0:
64,192,188433,1,0,0:0:0:0:
192,192,188500,1,0,0:0:0:0:
320,192,188566,1,0,0:0:0:0:
448,192,188633,1,0,0:0:0:0:
192,192,188700,1,0,0:0:0:0:
320,192,188700,1,0,0:0:0:0:
64,192,188700,128,0,188900:0:0:0:0:
448,192,188900,1,0,0:0:0:0:
192,192,188900,1,0,0:0:0:0:
320,192,188900,1,0,0:0:0:0:
448,192,189100,1,0,0:0:0:0:
192,192,189100,1,0,0:0:0:0:
64,192,189100,1,0,0:0:0:0:
320,192,189166,1,0,0:0:0:0:
192,192,189233,1,0,0:0:0:0:
64,192,189300,1,0,0:0:0:0:
320,192,189366,1,0,0:0:0:0:
192,192,189433,1,0,0:0:0:0:
448,192,189500,1,0,0:0:0:0:
64,192,189500,1,0,0:0:0:0:
320,192,189500,128,0,189700:0:0:0:0:
64,192,189700,1,0,0:0:0:0:
192,192,189700,1,0,0:0:0:0:
448,192,189700,1,0,0:0:0:0:
320,192,189900,1,0,0:0:0:0:
448,192,189900,1,0,0:0:0:0:
64,192,189900,1,0,0:0:0:0:
192,192,189966,1,0,0:0:0:0:
64,192,190033,1,0,0:0:0:0:
448,192,190100,1,0,0:0:0:0:
320,192,190166,1,0,0:0:0:0:
192,192,190233,1,0,0:0:0:0:
320,192,190300,1,0,0:0:0:0:
448,192,190300,1,0,0:0:0:0:
64,192,190300,1,0,0:0:0:0:
64,192,190500,1,0,0:0:0:0:
192,192,190500,1,0,0:0:0:0:
448,192,190500,1,0,0:0:0:0:
64,192,190700,1,0,0:0:0:0:
448,192,190700,1,0,0:0:0:0:
320,192,190700,1,0,0:0:0:0:
192,192,190766,1,0,0:0:0:0:
64,192,190833,1,0,0:0:0:0:
320,192,190900,1,0,0:0:0:0:
192,192,190966,1,0,0:0:0:0:
64,192,191033,1,0,0:0:0:0:
192,192,191100,1,0,0:0:0:0:
320,192,191100,1,0,0:0:0:0:
448,192,191100,128,0,191300:0:0:0:0:
64,192,191300,1,0,0:0:0:0:
192,192,191300,1,0,0:0:0:0:
320,192,191300,1,0,0:0:0:0:
448,192,191500,1,0,0:0:0:0:
192,192,191500,1,0,0:0:0:0:
320,192,191500,1,0,0:0:0:0:
64,192,191566,1,0,0:0:0:0:
192,192,191633,1,0,0:0:0:0:
320,192,191700,1,0,0:0:0:0:
64,192,191766,1,0,0:0:0:0:
192,192,191833,1,0,0:0:0:0:
64,192,191900,1,0,0:0:0:0:
448,192,191900,1,0,0:0:0:0:
320,192,191900,128,0,192100:0:0:0:0:
448,192,192100,1,0,0:0:0:0:
192,192,192100,1,0,0:0:0:0:
64,192,192100,1,0,0:0:0:0:
192,192,192300,1,0,0:0:0:0:
64,192,192300,1,0,0:0:0:0:
320,192,192400,5,0,0:0:0:0:
448,192,192500,1,0,0:0:0:0:
192,192,192700,1,0,0:0:0:0:
64,192,192700,1,0,0:0:0:0:
320,192,192800,1,0,0:0:0:0:
448,192,192900,1,0,0:0:0:0:
64,192,193100,1,0,0:0:0:0:
320,192,193100,1,0,0:0:0:0:
192,192,193200,1,0,0:0:0:0:
448,192,193300,1,0,0:0:0:0:
320,192,193300,1,0,0:0:0:0:
192,192,193400,1,0,0:0:0:0:
64,192,193500,5,0,0:0:0:0:
192,192,193550,1,0,0:0:0:0:
320,192,193600,1,0,0:0:0:0:
448,192,193700,1,0,0:0:0:0:
320,192,193750,1,0,0:0:0:0:
192,192,193800,1,0,0:0:0:0:
64,192,193900,1,0,0:0:0:0:
448,192,193900,1,0,0:0:0:0:
192,192,194100,1,0,0:0:0:0:
320,192,194300,1,0,0:0:0:0:
64,192,194500,1,0,0:0:0:0:
448,192,194500,1,0,0:0:0:0:
192,192,194700,1,0,0:0:0:0:
320,192,194700,1,0,0:0:0:0:
448,192,194700,1,0,0:0:0:0:
320,192,195000,1,0,0:0:0:0:
64,192,195100,1,0,0:0:0:0:
192,192,195100,1,0,0:0:0:0:
448,192,195300,1,0,0:0:0:0:
320,192,195400,1,0,0:0:0:0:
192,192,195500,1,0,0:0:0:0:
64,192,195500,1,0,0:0:0:0:
448,192,195700,1,0,0:0:0:0:
64,192,195900,1,0,0:0:0:0:
192,192,196100,1,0,0:0:0:0:
320,192,196100,1,0,0:0:0:0:
64,192,196300,1,0,0:0:0:0:
320,192,196300,1,0,0:0:0:0:
448,192,196300,1,0,0:0:0:0:
192,192,196500,1,0,0:0:0:0:
448,192,196500,1,0,0:0:0:0:
320,192,196600,1,0,0:0:0:0:
64,192,196700,1,0,0:0:0:0:
192,192,196700,1,0,0:0:0:0:
192,192,196900,1,0,0:0:0:0:
448,192,196900,1,0,0:0:0:0:
320,192,196900,1,0,0:0:0:0:
320,192,197100,1,0,0:0:0:0:
64,192,197100,1,0,0:0:0:0:
448,192,197300,1,0,0:0:0:0:
320,192,197500,1,0,0:0:0:0:
64,192,197700,1,0,0:0:0:0:
192,192,197700,1,0,0:0:0:0:
64,192,197900,1,0,0:0:0:0:
320,192,197900,1,0,0:0:0:0:
448,192,197900,1,0,0:0:0:0:
192,192,198200,1,0,0:0:0:0:
320,192,198300,1,0,0:0:0:0:
448,192,198300,1,0,0:0:0:0:
64,192,198500,1,0,0:0:0:0:
192,192,198600,1,0,0:0:0:0:
448,192,198700,1,0,0:0:0:0:
320,192,198700,1,0,0:0:0:0:
192,192,198900,1,0,0:0:0:0:
320,192,199100,1,0,0:0:0:0:
192,192,199300,1,0,0:0:0:0:
448,192,199300,1,0,0:0:0:0:
64,192,199500,1,0,0:0:0:0:
192,192,199500,1,0,0:0:0:0:
320,192,199500,1,0,0:0:0:0:
320,192,199700,1,0,0:0:0:0:
448,192,199700,1,0,0:0:0:0:
192,192,199800,1,0,0:0:0:0:
64,192,199900,1,0,0:0:0:0:
448,192,199900,1,0,0:0:0:0:
192,192,200100,1,0,0:0:0:0:
320,192,200100,1,0,0:0:0:0:
64,192,200300,1,0,0:0:0:0:
448,192,200300,1,0,0:0:0:0:
192,192,200500,1,0,0:0:0:0:
320,192,200700,1,0,0:0:0:0:
448,192,200900,1,0,0:0:0:0:
192,192,200900,1,0,0:0:0:0:
448,192,201100,1,0,0:0:0:0:
320,192,201100,1,0,0:0:0:0:
64,192,201100,1,0,0:0:0:0:
192,192,201400,1,0,0:0:0:0:
320,192,201500,1,0,0:0:0:0:
64,192,201500,1,0,0:0:0:0:
192,192,201700,1,0,0:0:0:0:
448,192,201800,1,0,0:0:0:0:
64,192,201900,1,0,0:0:0:0:
320,192,201900,1,0,0:0:0:0:
448,192,202100,1,0,0:0:0:0:
192,192,202300,1,0,0:0:0:0:
320,192,202500,1,0,0:0:0:0:
64,192,202500,1,0,0:0:0:0:
448,192,202700,1,0,0:0:0:0:
320,192,202700,1,0,0:0:0:0:
192,192,202700,1,0,0:0:0:0:
64,192,202900,1,0,0:0:0:0:
448,192,202900,1,0,0:0:0:0:
320,192,203000,1,0,0:0:0:0:
192,192,203100,1,0,0:0:0:0:
64,192,203100,1,0,0:0:0:0:
448,192,203300,1,0,0:0:0:0:
320,192,203300,1,0,0:0:0:0:
64,192,203500,1,0,0:0:0:0:
192,192,203500,1,0,0:0:0:0:
320,192,203700,1,0,0:0:0:0:
448,192,203900,1,0,0:0:0:0:
64,192,204100,1,0,0:0:0:0:
192,192,204100,1,0,0:0:0:0:
192,192,204300,1,0,0:0:0:0:
320,192,204300,1,0,0:0:0:0:
448,192,204300,1,0,0:0:0:0:
64,192,204600,1,0,0:0:0:0:
192,192,204700,1,0,0:0:0:0:
448,192,204700,1,0,0:0:0:0:
64,192,204900,1,0,0:0:0:0:
320,192,205000,1,0,0:0:0:0:
192,192,205100,1,0,0:0:0:0:
448,192,205100,1,0,0:0:0:0:
320,192,205300,1,0,0:0:0:0:
192,192,205500,1,0,0:0:0:0:
64,192,205700,1,0,0:0:0:0:
320,192,205700,1,0,0:0:0:0:
192,192,205900,1,0,0:0:0:0:
320,192,205900,1,0,0:0:0:0:
448,192,205900,1,0,0:0:0:0:
192,192,206100,1,0,0:0:0:0:
320,192,206100,1,0,0:0:0:0:
64,192,206200,1,0,0:0:0:0:
320,192,206300,1,0,0:0:0:0:
448,192,206300,1,0,0:0:0:0:
192,192,206500,1,0,0:0:0:0:
64,192,206500,1,0,0:0:0:0:
320,192,206700,1,0,0:0:0:0:
448,192,206700,1,0,0:0:0:0:
192,192,206900,1,0,0:0:0:0:
64,192,207100,1,0,0:0:0:0:
448,192,207300,1,0,0:0:0:0:
320,192,207300,1,0,0:0:0:0:
448,192,207500,1,0,0:0:0:0:
64,192,207500,1,0,0:0:0:0:
192,192,207500,1,0,0:0:0:0:
448,192,207800,1,0,0:0:0:0:
320,192,207900,1,0,0:0:0:0:
64,192,207900,1,0,0:0:0:0:
448,192,208100,1,0,0:0:0:0:
192,192,208200,1,0,0:0:0:0:
64,192,208300,1,0,0:0:0:0:
320,192,208300,1,0,0:0:0:0:
192,192,208500,1,0,0:0:0:0:
320,192,208700,1,0,0:0:0:0:
448,192,208900,1,0,0:0:0:0:
192,192,208900,1,0,0:0:0:0:
448,192,209100,1,0,0:0:0:0:
320,192,209100,1,0,0:0:0:0:
64,192,209100,1,0,0:0:0:0:
192,192,209300,1,0,0:0:0:0:
320,192,209300,1,0,0:0:0:0:
64,192,209400,1,0,0:0:0:0:
448,192,209500,1,0,0:0:0:0:
192,192,209500,1,0,0:0:0:0:
320,192,209700,1,0,0:0:0:0:
64,192,209700,1,0,0:0:0:0:
192,192,209900,1,0,0:0:0:0:
448,192,209900,1,0,0:0:0:0:
320,192,210100,1,0,0:0:0:0:
64,192,210300,1,0,0:0:0:0:
192,192,210500,1,0,0:0:0:0:
448,192,210500,1,0,0:0:0:0:
64,192,210700,1,0,0:0:0:0:
320,192,210700,1,0,0:0:0:0:
448,192,210700,1,0,0:0:0:0:
448,192,211000,1,0,0:0:0:0:
64,192,211100,1,0,0:0:0:0:
192,192,211100,1,0,0:0:0:0:
320,192,211300,1,0,0:0:0:0:
448,192,211400,1,0,0:0:0:0:
192,192,211500,1,0,0:0:0:0:
64,192,211500,1,0,0:0:0:0:
320,192,211700,1,0,0:0:0:0:
448,192,211900,1,0,0:0:0:0:
64,192,212100,1,0,0:0:0:0:
320,192,212100,1,0,0:0:0:0:
192,192,212300,1,0,0:0:0:0:
320,192,212300,1,0,0:0:0:0:
448,192,212300,1,0,0:0:0:0:
64,192,212500,1,0,0:0:0:0:
320,192,212500,1,0,0:0:0:0:
192,192,212600,1,0,0:0:0:0:
64,192,212700,1,0,0:0:0:0:
448,192,212700,1,0,0:0:0:0:
192,192,212900,1,0,0:0:0:0:
320,192,212900,1,0,0:0:0:0:
448,192,213100,1,0,0:0:0:0:
64,192,213100,1,0,0:0:0:0:
320,192,213300,1,0,0:0:0:0:
192,192,213500,1,0,0:0:0:0:
64,192,213700,1,0,0:0:0:0:
448,192,213700,1,0,0:0:0:0:
192,192,213900,1,0,0:0:0:0:
64,192,213900,1,0,0:0:0:0:
448,192,213900,1,0,0:0:0:0:
448,192,214200,1,0,0:0:0:0:
64,192,214300,1,0,0:0:0:0:
320,192,214300,1,0,0:0:0:0:
192,192,214500,1,0,0:0:0:0:
448,192,214600,1,0,0:0:0:0:
320,192,214700,1,0,0:0:0:0:
64,192,214700,1,0,0:0:0:0:
192,192,214900,1,0,0:0:0:0:
448,192,215100,1,0,0:0:0:0:
192,192,215300,1,0,0:0:0:0:
320,192,215300,1,0,0:0:0:0:
64,192,215500,1,0,0:0:0:0:
320,192,215500,1,0,0:0:0:0:
448,192,215500,1,0,0:0:0:0:
192,192,215700,1,0,0:0:0:0:
320,192,215700,1,0,0:0:0:0:
448,192,215800,1,0,0:0:0:0:
64,192,215900,1,0,0:0:0:0:
192,192,215900,1,0,0:0:0:0:
320,192,216100,1,0,0:0:0:0:
448,192,216100,1,0,0:0:0:0:
192,192,216300,1,0,0:0:0:0:
64,192,216300,1,0,0:0:0:0:
320,192,216500,1,0,0:0:0:0:
448,192,216700,1,0,0:0:0:0:
192,192,216900,1,0,0:0:0:0:
64,192,216900,1,0,0:0:0:0:
448,192,217100,1,0,0:0:0:0:
320,192,217100,1,0,0:0:0:0:
192,192,217100,1,0,0:0:0:0:
448,192,217400,1,0,0:0:0:0:
192,192,217500,1,0,0:0:0:0:
320,192,217500,1,0,0:0:0:0:
448,192,217700,1,0,0:0:0:0:
64,192,217800,1,0,0:0:0:0:
320,192,217900,1,0,0:0:0:0:
192,192,217900,1,0,0:0:0:0:
448,192,218100,1,0,0:0:0:0:
64,192,218300,1,0,0:0:0:0:
192,192,218500,1,0,0:0:0:0:
448,192,218700,1,0,0:0:0:0:
64,192,218700,1,0,0:0:0:0:
192,192,219000,1,0,0:0:0:0:
320,192,219000,1,0,0:0:0:0:
448,192,219300,1,0,0:0:0:0:
192,192,219300,1,0,0:0:0:0:
