osu file format v14

[General]
AudioFilename: audio.mp3
AudioLeadIn: 0
PreviewTime: 37612
Countdown: 0
SampleSet: Normal
StackLeniency: 0.7
Mode: 3
LetterboxInBreaks: 0
SpecialStyle: 0
WidescreenStoryboard: 0

[Editor]
DistanceSpacing: 1
BeatDivisor: 4
GridSize: 8
TimelineZoom: 2.1

[Metadata]
Title:P*$$YRICH
TitleUnicode:P*$$YRICH
Artist:Yellow Claw Feat. Adje
ArtistUnicode:Yellow Claw Feat. Adje
Creator:Hilmi Ghazian
Version:Hard
Source:
Tags:Amsterdam Twerk Music Album leonita
BeatmapID:1007919
BeatmapSetID:471580

[Difficulty]
HPDrainRate:8
CircleSize:4
OverallDifficulty:8
ApproachRate:5
SliderMultiplier:3.59999990463257
SliderTickRate:4

[Events]
//Background and Video events
0,0,"maxresdefault.jpg",0,0
//Break Periods
//Storyboard Layer 0 (Background)
//Storyboard Layer 1 (Fail)
//Storyboard Layer 2 (Pass)
//Storyboard Layer 3 (Foreground)
//Storyboard Layer 4 (Overlay)
//Storyboard Sound Samples

[TimingPoints]
112,294.117647058824,4,1,1,50,1,0
37759,-100,4,1,1,50,0,1
75406,-100,4,1,1,50,0,0

[HitObjects]
64,192,112,5,2,0:0:0:0:
192,192,553,1,2,0:0:0:0:
448,192,700,1,0,0:0:0:0:
320,192,700,1,8,0:0:0:0:
64,192,994,1,2,0:0:0:0:
192,192,1582,1,2,0:0:0:0:
320,192,1876,1,0,0:0:0:0:
64,192,1876,1,8,0:0:0:0:
192,192,2464,1,2,0:0:0:0:
320,192,2906,1,2,0:0:0:0:
64,192,3053,1,8,0:0:0:0:
448,192,3053,1,0,0:0:0:0:
192,192,3347,1,2,0:0:0:0:
320,192,3935,1,2,0:0:0:0:
448,192,4229,1,8,0:0:0:0:
192,192,4229,1,0,0:0:0:0:
192,192,4817,1,2,0:0:0:0:
64,192,5259,1,2,0:0:0:0:
448,192,5406,1,8,0:0:0:0:
320,192,5406,1,0,0:0:0:0:
192,192,5700,1,2,0:0:0:0:
64,192,6288,1,2,0:0:0:0:
192,192,6582,1,0,0:0:0:0:
320,192,6582,1,8,0:0:0:0:
448,192,7170,1,2,0:0:0:0:
192,192,7612,1,2,0:0:0:0:
320,192,7759,1,8,0:0:0:0:
64,192,7759,1,0,0:0:0:0:
448,192,8053,1,2,0:0:0:0:
320,192,8641,1,2,0:0:0:0:
448,192,8935,1,8,0:0:0:0:
192,192,8935,1,0,0:0:0:0:
64,192,9523,1,0,0:0:0:0:
448,192,9523,1,8,0:0:0:0:
192,192,9817,1,0,0:0:0:0:
320,192,9817,1,8,0:0:0:0:
64,192,10112,1,0,0:0:0:0:
448,192,10112,1,8,0:0:0:0:
320,192,10406,1,0,0:0:0:0:
64,192,10406,1,8,0:0:0:0:
192,192,10700,1,0,0:0:0:0:
448,192,10700,1,8,0:0:0:0:
320,192,10994,1,0,0:0:0:0:
448,192,10994,1,8,0:0:0:0:
64,192,11288,1,8,0:0:0:0:
320,192,11288,1,0,0:0:0:0:
192,192,11582,1,0,0:0:0:0:
64,192,11582,1,8,0:0:0:0:
320,192,11729,1,0,0:0:0:0:
448,192,11729,1,8,0:0:0:0:
64,192,11876,1,8,0:0:0:0:
192,192,11876,1,0,0:0:0:0:
448,192,12170,1,8,0:0:0:0:
320,192,12170,1,0,0:0:0:0:
64,192,12464,1,8,0:0:0:0:
192,192,12464,1,0,0:0:0:0:
192,192,12759,1,0,0:0:0:0:
448,192,12759,1,8,0:0:0:0:
64,192,13053,1,8,0:0:0:0:
320,192,13053,1,0,0:0:0:0:
64,192,13347,1,8,0:0:0:0:
192,192,13347,1,0,0:0:0:0:
320,192,13641,1,0,0:0:0:0:
448,192,13641,1,8,0:0:0:0:
64,192,13935,1,8,0:0:0:0:
448,192,13935,1,0,0:0:0:0:
192,192,14082,1,8,0:0:0:0:
320,192,14082,1,0,0:0:0:0:
64,192,14229,1,8,0:0:0:0:
448,192,14229,1,0,0:0:0:0:
64,192,14523,1,8,0:0:0:0:
192,192,14523,1,0,0:0:0:0:
192,192,14817,1,0,0:0:0:0:
448,192,14817,1,8,0:0:0:0:
64,192,15112,1,8,0:0:0:0:
320,192,15112,1,0,0:0:0:0:
192,192,15406,1,8,0:0:0:0:
320,192,15406,1,0,0:0:0:0:
64,192,15700,1,8,0:0:0:0:
448,192,15700,1,0,0:0:0:0:
320,192,15994,1,8,0:0:0:0:
448,192,15994,1,0,0:0:0:0:
64,192,16288,1,8,0:0:0:0:
192,192,16288,1,0,0:0:0:0:
448,192,16435,1,8,0:0:0:0:
320,192,16435,1,0,0:0:0:0:
64,192,16582,1,8,0:0:0:0:
192,192,16582,1,0,0:0:0:0:
192,192,16876,1,0,0:0:0:0:
448,192,16876,1,8,0:0:0:0:
64,192,17170,1,8,0:0:0:0:
320,192,17170,1,0,0:0:0:0:
320,192,17464,1,0,0:0:0:0:
448,192,17464,1,8,0:0:0:0:
192,192,17612,1,0,0:0:0:0:
64,192,17612,1,8,0:0:0:0:
448,192,17759,1,8,0:0:0:0:
320,192,17759,1,0,0:0:0:0:
64,192,17906,1,8,0:0:0:0:
192,192,17906,1,0,0:0:0:0:
320,192,17979,1,0,0:0:0:0:
448,192,17979,1,8,0:0:0:0:
64,192,18053,1,8,0:0:0:0:
192,192,18053,1,0,0:0:0:0:
320,192,18200,1,0,0:0:0:0:
448,192,18200,1,8,0:0:0:0:
192,192,18347,1,0,0:0:0:0:
448,192,18347,1,8,0:0:0:0:
64,192,18494,1,8,0:0:0:0:
320,192,18494,1,0,0:0:0:0:
64,192,18641,1,0,0:0:0:0:
192,192,18641,1,8,0:0:0:0:
448,192,18788,1,0,0:0:0:0:
192,192,18788,1,8,0:0:0:0:
320,192,18935,1,2,0:0:0:0:
64,192,18935,1,8,0:0:0:0:
448,192,18935,1,0,0:0:0:0:
64,192,23347,1,8,0:0:0:0:
192,192,23420,1,8,0:0:0:0:
320,192,23494,1,8,0:0:0:0:
448,192,23567,1,8,0:0:0:0:
192,192,23641,1,0,0:0:0:0:
64,192,23641,1,8,0:0:0:0:
320,192,23935,1,0,0:0:0:0:
448,192,24082,1,0,0:0:0:0:
320,192,24229,1,0,0:0:0:0:
192,192,24523,1,0,0:0:0:0:
64,192,24817,1,0,0:0:0:0:
320,192,24964,1,0,0:0:0:0:
64,192,25112,1,0,0:0:0:0:
192,192,25406,1,0,0:0:0:0:
320,192,25700,128,0,25994:0:0:0:0:
64,192,25994,1,0,0:0:0:0:
448,192,26288,128,0,26582:0:0:0:0:
192,192,26582,1,0,0:0:0:0:
64,192,26876,128,0,27170:0:0:0:0:
320,192,27170,1,0,0:0:0:0:
448,192,27464,128,0,27759:0:0:0:0:
64,192,27759,1,0,0:0:0:0:
448,192,28053,1,8,0:0:0:0:
320,192,28126,1,8,0:0:0:0:
192,192,28200,1,8,0:0:0:0:
64,192,28273,1,8,0:0:0:0:
320,192,28347,1,8,0:0:0:0:
192,192,28347,1,0,0:0:0:0:
448,192,28641,1,0,0:0:0:0:
64,192,28641,1,8,0:0:0:0:
192,192,28935,1,8,0:0:0:0:
320,192,28935,1,0,0:0:0:0:
64,192,29229,1,8,0:0:0:0:
448,192,29229,1,0,0:0:0:0:
64,192,29523,1,8,0:0:0:0:
320,192,29523,1,0,0:0:0:0:
192,192,29817,1,0,0:0:0:0:
448,192,29817,1,8,0:0:0:0:
64,192,30112,1,8,0:0:0:0:
320,192,30112,1,0,0:0:0:0:
448,192,30406,1,8,0:0:0:0:
320,192,30479,1,8,0:0:0:0:
192,192,30553,1,8,0:0:0:0:
64,192,30626,1,8,0:0:0:0:
448,192,30700,1,8,0:0:0:0:
192,192,30700,1,0,0:0:0:0:
320,192,30994,1,0,0:0:0:0:
64,192,30994,1,8,0:0:0:0:
192,192,31288,1,8,0:0:0:0:
448,192,31288,1,0,0:0:0:0:
64,192,31582,1,8,0:0:0:0:
320,192,31582,1,0,0:0:0:0:
320,192,31876,1,8,0:0:0:0:
448,192,31876,1,0,0:0:0:0:
192,192,32170,1,0,0:0:0:0:
64,192,32170,1,8,0:0:0:0:
448,192,32464,1,8,0:0:0:0:
320,192,32464,1,0,0:0:0:0:
448,192,32759,1,8,0:0:0:0:
320,192,32832,1,8,0:0:0:0:
192,192,32906,1,8,0:0:0:0:
64,192,32979,1,8,0:0:0:0:
320,192,33053,1,0,0:0:0:0:
448,192,33053,1,8,0:0:0:0:
64,192,33200,1,8,0:0:0:0:
192,192,33200,1,0,0:0:0:0:
320,192,33347,1,0,0:0:0:0:
448,192,33347,1,8,0:0:0:0:
64,192,33494,1,8,0:0:0:0:
192,192,33494,1,0,0:0:0:0:
320,192,33641,1,0,0:0:0:0:
448,192,33641,1,8,0:0:0:0:
64,192,33788,1,8,0:0:0:0:
192,192,33788,1,0,0:0:0:0:
320,192,33935,1,0,0:0:0:0:
448,192,33935,1,8,0:0:0:0:
64,192,34082,1,8,0:0:0:0:
192,192,34082,1,0,0:0:0:0:
320,192,34229,1,0,0:0:0:0:
192,192,34229,1,8,0:0:0:0:
64,192,34376,1,8,0:0:0:0:
448,192,34376,1,0,0:0:0:0:
320,192,34523,1,0,0:0:0:0:
192,192,34523,1,8,0:0:0:0:
64,192,34670,1,8,0:0:0:0:
448,192,34670,1,0,0:0:0:0:
320,192,34817,1,0,0:0:0:0:
192,192,34817,1,8,0:0:0:0:
64,192,34964,1,8,0:0:0:0:
448,192,34964,1,0,0:0:0:0:
320,192,35112,1,0,0:0:0:0:
192,192,35112,1,8,0:0:0:0:
64,192,35259,1,8,0:0:0:0:
448,192,35259,1,0,0:0:0:0:
192,192,35406,1,8,0:0:0:0:
64,192,35406,1,0,0:0:0:0:
320,192,35479,1,8,0:0:0:0:
448,192,35553,1,8,0:0:0:0:
64,192,35626,1,8,0:0:0:0:
192,192,35700,1,8,0:0:0:0:
320,192,35773,1,8,0:0:0:0:
448,192,35847,1,8,0:0:0:0:
64,192,35920,1,8,0:0:0:0:
192,192,35994,1,8,0:0:0:0:
448,192,36067,1,8,0:0:0:0:
320,192,36141,1,8,0:0:0:0:
192,192,36214,1,8,0:0:0:0:
64,192,36288,1,8,0:0:0:0:
448,192,36362,1,8,0:0:0:0:
320,192,36435,1,8,0:0:0:0:
192,192,36509,1,8,0:0:0:0:
64,192,36582,1,8,0:0:0:0:
448,192,36582,1,0,0:0:0:0:
320,192,36729,1,8,0:0:0:0:
192,192,36803,1,8,0:0:0:0:
320,192,36876,1,8,0:0:0:0:
448,192,37023,1,8,0:0:0:0:
64,192,37170,128,0,37317:0:0:0:0:
448,192,37317,1,8,0:0:0:0:
64,192,37464,128,0,37612:0:0:0:0:
448,192,37612,1,8,0:0:0:0:
64,192,37759,1,2,0:0:0:0:
192,192,37759,1,0,0:0:0:0:
192,192,37906,1,0,0:0:0:0:
192,192,38053,128,0,38200:0:0:0:0:
64,192,38200,1,2,0:0:0:0:
448,192,38347,1,8,0:0:0:0:
192,192,38347,1,0,0:0:0:0:
192,192,38494,1,0,0:0:0:0:
192,192,38641,1,0,0:0:0:0:
320,192,38641,1,2,0:0:0:0:
320,192,38788,1,0,0:0:0:0:
320,192,38935,1,0,0:0:0:0:
320,192,39082,128,0,39229:0:0:0:0:
448,192,39229,1,2,0:0:0:0:
320,192,39376,1,0,0:0:0:0:
64,192,39523,1,8,0:0:0:0:
320,192,39523,128,0,39817:0:0:0:0:
192,192,39817,128,0,40112:0:0:0:0:
448,192,40112,1,0,0:0:0:0:
64,192,40112,1,2,0:0:0:0:
448,192,40259,1,0,0:0:0:0:
448,192,40406,128,0,40553:0:0:0:0:
192,192,40553,1,2,0:0:0:0:
64,192,40700,1,8,0:0:0:0:
448,192,40700,1,0,0:0:0:0:
448,192,40847,1,0,0:0:0:0:
320,192,40994,1,2,0:0:0:0:
448,192,40994,1,0,0:0:0:0:
320,192,41141,1,0,0:0:0:0:
320,192,41288,1,0,0:0:0:0:
320,192,41435,128,0,41582:0:0:0:0:
64,192,41582,1,2,0:0:0:0:
320,192,41729,1,0,0:0:0:0:
448,192,41876,1,8,0:0:0:0:
320,192,41876,128,0,42170:0:0:0:0:
64,192,42170,128,0,42464:0:0:0:0:
192,192,42464,1,0,0:0:0:0:
448,192,42464,1,2,0:0:0:0:
192,192,42612,1,0,0:0:0:0:
192,192,42759,128,0,42906:0:0:0:0:
448,192,42906,1,2,0:0:0:0:
320,192,43053,1,8,0:0:0:0:
192,192,43053,1,0,0:0:0:0:
192,192,43200,1,0,0:0:0:0:
64,192,43347,1,0,0:0:0:0:
192,192,43347,1,2,0:0:0:0:
64,192,43494,1,0,0:0:0:0:
64,192,43641,1,0,0:0:0:0:
64,192,43788,128,0,43935:0:0:0:0:
320,192,43935,1,2,0:0:0:0:
64,192,44082,1,0,0:0:0:0:
192,192,44229,1,8,0:0:0:0:
64,192,44229,128,0,44523:0:0:0:0:
448,192,44523,128,0,44817:0:0:0:0:
64,192,44817,1,2,0:0:0:0:
320,192,44817,1,0,0:0:0:0:
320,192,44964,1,0,0:0:0:0:
320,192,45112,128,0,45259:0:0:0:0:
192,192,45259,1,2,0:0:0:0:
64,192,45406,1,8,0:0:0:0:
320,192,45406,1,0,0:0:0:0:
320,192,45553,1,0,0:0:0:0:
320,192,45700,1,2,0:0:0:0:
192,192,45700,1,0,0:0:0:0:
192,192,45847,1,0,0:0:0:0:
192,192,45994,1,0,0:0:0:0:
192,192,46141,128,0,46288:0:0:0:0:
448,192,46288,1,2,0:0:0:0:
192,192,46435,1,0,0:0:0:0:
64,192,46582,1,8,0:0:0:0:
192,192,46582,128,0,46876:0:0:0:0:
448,192,46729,1,8,0:0:0:0:
448,192,46876,128,0,47170:0:0:0:0:
320,192,46876,1,8,0:0:0:0:
320,192,47170,1,0,0:0:0:0:
64,192,47170,1,8,0:0:0:0:
192,192,47464,1,8,0:0:0:0:
320,192,47464,1,0,0:0:0:0:
448,192,47612,1,0,0:0:0:0:
64,192,47612,1,8,0:0:0:0:
320,192,47759,1,0,0:0:0:0:
192,192,47759,1,8,0:0:0:0:
64,192,48053,1,8,0:0:0:0:
320,192,48053,1,0,0:0:0:0:
192,192,48200,1,8,0:0:0:0:
448,192,48200,1,0,0:0:0:0:
64,192,48347,1,8,0:0:0:0:
320,192,48347,1,0,0:0:0:0:
320,192,48641,1,0,0:0:0:0:
448,192,48641,1,8,0:0:0:0:
64,192,48935,1,8,0:0:0:0:
192,192,48935,1,0,0:0:0:0:
448,192,49229,1,8,0:0:0:0:
320,192,49303,1,8,0:0:0:0:
64,192,49376,1,8,0:0:0:0:
192,192,49450,1,8,0:0:0:0:
320,192,49523,1,0,0:0:0:0:
448,192,49523,1,8,0:0:0:0:
64,192,49817,1,8,0:0:0:0:
320,192,49817,1,0,0:0:0:0:
192,192,49964,1,8,0:0:0:0:
448,192,49964,1,0,0:0:0:0:
64,192,50112,1,8,0:0:0:0:
320,192,50112,1,0,0:0:0:0:
192,192,50406,1,8,0:0:0:0:
320,192,50406,1,0,0:0:0:0:
64,192,50553,1,8,0:0:0:0:
448,192,50553,1,0,0:0:0:0:
192,192,50700,1,8,0:0:0:0:
320,192,50700,1,0,0:0:0:0:
64,192,50994,1,8,0:0:0:0:
192,192,50994,1,0,0:0:0:0:
320,192,51288,1,0,0:0:0:0:
448,192,51288,1,8,0:0:0:0:
64,192,51435,1,8,0:0:0:0:
192,192,51435,1,0,0:0:0:0:
448,192,51582,1,8,0:0:0:0:
320,192,51656,1,8,0:0:0:0:
192,192,51729,1,8,0:0:0:0:
64,192,51803,1,8,0:0:0:0:
320,192,51876,1,8,0:0:0:0:
448,192,51876,1,0,0:0:0:0:
192,192,52170,1,0,0:0:0:0:
320,192,52170,1,8,0:0:0:0:
64,192,52317,1,0,0:0:0:0:
448,192,52317,1,8,0:0:0:0:
192,192,52464,1,0,0:0:0:0:
320,192,52464,1,8,0:0:0:0:
64,192,52759,1,8,0:0:0:0:
320,192,52759,1,0,0:0:0:0:
192,192,52906,1,8,0:0:0:0:
448,192,52906,1,0,0:0:0:0:
64,192,53053,1,8,0:0:0:0:
320,192,53053,1,0,0:0:0:0:
320,192,53347,1,0,0:0:0:0:
448,192,53347,1,8,0:0:0:0:
64,192,53641,1,8,0:0:0:0:
192,192,53641,1,0,0:0:0:0:
64,192,53935,1,8,0:0:0:0:
192,192,54009,1,8,0:0:0:0:
320,192,54082,1,8,0:0:0:0:
448,192,54156,1,8,0:0:0:0:
192,192,54229,1,0,0:0:0:0:
320,192,54229,1,8,0:0:0:0:
64,192,54523,1,0,0:0:0:0:
448,192,54523,1,8,0:0:0:0:
192,192,54670,1,0,0:0:0:0:
320,192,54670,1,8,0:0:0:0:
64,192,54817,1,0,0:0:0:0:
448,192,54817,1,8,0:0:0:0:
448,192,55112,1,8,0:0:0:0:
320,192,55112,1,0,0:0:0:0:
64,192,55259,1,8,0:0:0:0:
192,192,55259,1,0,0:0:0:0:
448,192,55406,1,8,0:0:0:0:
320,192,55406,1,0,0:0:0:0:
192,192,55553,1,0,0:0:0:0:
64,192,55553,1,8,0:0:0:0:
448,192,55700,1,8,0:0:0:0:
320,192,55700,1,0,0:0:0:0:
64,192,55847,1,8,0:0:0:0:
192,192,55847,1,0,0:0:0:0:
448,192,55994,1,8,0:0:0:0:
320,192,55994,1,0,0:0:0:0:
64,192,56288,128,0,56582:0:0:0:0:
192,192,56582,1,2,0:0:0:0:
320,192,56582,1,0,0:0:0:0:
320,192,56729,1,0,0:0:0:0:
320,192,56876,128,0,57023:0:0:0:0:
192,192,57023,1,2,0:0:0:0:
64,192,57170,1,8,0:0:0:0:
320,192,57170,1,0,0:0:0:0:
320,192,57317,1,0,0:0:0:0:
320,192,57464,1,2,0:0:0:0:
448,192,57464,1,0,0:0:0:0:
448,192,57612,1,0,0:0:0:0:
448,192,57759,1,0,0:0:0:0:
448,192,57906,128,0,58053:0:0:0:0:
64,192,58053,1,2,0:0:0:0:
448,192,58200,1,0,0:0:0:0:
192,192,58347,1,8,0:0:0:0:
448,192,58347,128,0,58641:0:0:0:0:
320,192,58641,128,0,58935:0:0:0:0:
192,192,58935,1,0,0:0:0:0:
448,192,58935,1,2,0:0:0:0:
192,192,59082,1,0,0:0:0:0:
192,192,59229,128,0,59376:0:0:0:0:
448,192,59376,1,2,0:0:0:0:
320,192,59523,1,8,0:0:0:0:
192,192,59523,1,0,0:0:0:0:
192,192,59670,1,0,0:0:0:0:
64,192,59817,1,0,0:0:0:0:
192,192,59817,1,2,0:0:0:0:
64,192,59964,1,0,0:0:0:0:
64,192,60112,1,0,0:0:0:0:
64,192,60259,128,0,60406:0:0:0:0:
448,192,60406,1,2,0:0:0:0:
64,192,60553,1,0,0:0:0:0:
320,192,60700,1,8,0:0:0:0:
64,192,60700,128,0,60994:0:0:0:0:
320,192,60994,128,0,61288:0:0:0:0:
448,192,61288,1,2,0:0:0:0:
192,192,61288,1,0,0:0:0:0:
192,192,61435,1,0,0:0:0:0:
192,192,61582,128,0,61729:0:0:0:0:
64,192,61729,1,2,0:0:0:0:
320,192,61876,1,8,0:0:0:0:
192,192,61876,1,0,0:0:0:0:
192,192,62023,1,0,0:0:0:0:
192,192,62170,1,2,0:0:0:0:
448,192,62170,1,0,0:0:0:0:
448,192,62317,1,0,0:0:0:0:
448,192,62464,1,0,0:0:0:0:
448,192,62612,128,0,62759:0:0:0:0:
320,192,62759,1,2,0:0:0:0:
448,192,62906,1,0,0:0:0:0:
448,192,63053,128,0,63347:0:0:0:0:
192,192,63053,1,8,0:0:0:0:
64,192,63347,128,0,63641:0:0:0:0:
192,192,63641,1,2,0:0:0:0:
320,192,63641,1,0,0:0:0:0:
320,192,63788,1,0,0:0:0:0:
320,192,63935,128,0,64082:0:0:0:0:
192,192,64082,1,2,0:0:0:0:
448,192,64229,1,8,0:0:0:0:
320,192,64229,1,0,0:0:0:0:
320,192,64376,1,0,0:0:0:0:
320,192,64523,1,2,0:0:0:0:
64,192,64523,1,0,0:0:0:0:
64,192,64670,1,0,0:0:0:0:
64,192,64817,1,0,0:0:0:0:
64,192,64964,128,0,65112:0:0:0:0:
192,192,65112,1,2,0:0:0:0:
64,192,65259,1,0,0:0:0:0:
448,192,65406,1,8,0:0:0:0:
64,192,65406,128,0,65700:0:0:0:0:
320,192,65553,1,8,0:0:0:0:
192,192,65700,1,8,0:0:0:0:
320,192,65700,128,0,65994:0:0:0:0:
448,192,65994,1,0,0:0:0:0:
64,192,65994,1,8,0:0:0:0:
320,192,66288,1,0,0:0:0:0:
192,192,66288,1,8,0:0:0:0:
64,192,66435,1,8,0:0:0:0:
448,192,66435,1,0,0:0:0:0:
192,192,66582,1,8,0:0:0:0:
320,192,66582,1,0,0:0:0:0:
448,192,66876,1,8,0:0:0:0:
320,192,66876,1,0,0:0:0:0:
320,192,67023,1,8,0:0:0:0:
192,192,67023,1,0,0:0:0:0:
64,192,67170,1,8,0:0:0:0:
192,192,67170,1,0,0:0:0:0:
448,192,67464,1,0,0:0:0:0:
192,192,67464,1,8,0:0:0:0:
448,192,67759,1,0,0:0:0:0:
64,192,67759,1,8,0:0:0:0:
192,192,68053,1,8,0:0:0:0:
64,192,68126,1,8,0:0:0:0:
448,192,68200,1,8,0:0:0:0:
320,192,68273,1,8,0:0:0:0:
192,192,68347,1,8,0:0:0:0:
64,192,68347,1,0,0:0:0:0:
448,192,68641,1,0,0:0:0:0:
192,192,68641,1,8,0:0:0:0:
64,192,68788,1,8,0:0:0:0:
320,192,68788,1,0,0:0:0:0:
448,192,68935,1,0,0:0:0:0:
192,192,68935,1,8,0:0:0:0:
64,192,69229,1,8,0:0:0:0:
192,192,69229,1,0,0:0:0:0:
192,192,69376,1,0,0:0:0:0:
320,192,69376,1,8,0:0:0:0:
320,192,69523,1,0,0:0:0:0:
448,192,69523,1,8,0:0:0:0:
448,192,69817,1,0,0:0:0:0:
64,192,69817,1,8,0:0:0:0:
320,192,70112,1,0,0:0:0:0:
64,192,70112,1,8,0:0:0:0:
192,192,70259,1,8,0:0:0:0:
448,192,70259,1,0,0:0:0:0:
320,192,70406,1,8,0:0:0:0:
448,192,70479,1,8,0:0:0:0:
64,192,70553,1,8,0:0:0:0:
192,192,70626,1,8,0:0:0:0:
320,192,70700,1,8,0:0:0:0:
448,192,70700,1,0,0:0:0:0:
192,192,70994,1,8,0:0:0:0:
320,192,70994,1,0,0:0:0:0:
448,192,71141,1,0,0:0:0:0:
64,192,71141,1,8,0:0:0:0:
192,192,71288,1,8,0:0:0:0:
320,192,71288,1,0,0:0:0:0:
448,192,71582,1,0,0:0:0:0:
64,192,71582,1,8,0:0:0:0:
320,192,71729,1,0,0:0:0:0:
192,192,71729,1,8,0:0:0:0:
64,192,71876,1,8,0:0:0:0:
448,192,71876,1,0,0:0:0:0:
64,192,72170,1,8,0:0:0:0:
320,192,72170,1,0,0:0:0:0:
192,192,72464,1,8,0:0:0:0:
448,192,72464,1,0,0:0:0:0:
448,192,72759,1,8,0:0:0:0:
320,192,72832,1,8,0:0:0:0:
192,192,72906,1,8,0:0:0:0:
64,192,72979,1,8,0:0:0:0:
192,192,73053,1,0,0:0:0:0:
448,192,73053,1,8,0:0:0:0:
64,192,73347,1,8,0:0:0:0:
320,192,73347,1,0,0:0:0:0:
448,192,73494,1,0,0:0:0:0:
192,192,73494,1,8,0:0:0:0:
64,192,73641,1,8,0:0:0:0:
320,192,73641,1,0,0:0:0:0:
192,192,73935,1,8,0:0:0:0:
320,192,73935,1,0,0:0:0:0:
64,192,74082,1,8,0:0:0:0:
448,192,74082,1,0,0:0:0:0:
192,192,74229,1,8,0:0:0:0:
320,192,74229,1,0,0:0:0:0:
320,192,74376,1,0,0:0:0:0:
64,192,74376,1,8,0:0:0:0:
192,192,74450,1,8,0:0:0:0:
448,192,74450,1,0,0:0:0:0:
320,192,74523,1,0,0:0:0:0:
64,192,74523,1,8,0:0:0:0:
192,192,74670,1,8,0:0:0:0:
448,192,74670,1,0,0:0:0:0:
64,192,74817,1,8,0:0:0:0:
320,192,74817,1,0,0:0:0:0:
320,192,74964,1,0,0:0:0:0:
448,192,74964,1,8,0:0:0:0:
192,192,75112,1,0,0:0:0:0:
64,192,75112,1,8,0:0:0:0:
192,192,75259,1,8,0:0:0:0:
320,192,75259,1,0,0:0:0:0:
448,192,75406,1,0,0:0:0:0:
64,192,75406,1,2,0:0:0:0:
320,192,75700,1,0,0:0:0:0:
320,192,75847,1,0,0:0:0:0:
320,192,75994,1,0,0:0:0:0:
192,192,76288,1,0,0:0:0:0:
448,192,76582,1,0,0:0:0:0:
448,192,76729,1,0,0:0:0:0:
448,192,76876,1,0,0:0:0:0:
64,192,77170,1,0,0:0:0:0:
320,192,77464,128,0,77759:0:0:0:0:
448,192,77759,1,0,0:0:0:0:
64,192,78053,1,0,0:0:0:0:
64,192,78200,1,0,0:0:0:0:
64,192,78347,1,0,0:0:0:0:
320,192,78641,1,0,0:0:0:0:
192,192,78935,1,0,0:0:0:0:
192,192,79082,1,0,0:0:0:0:
192,192,79229,1,0,0:0:0:0:
448,192,79523,1,0,0:0:0:0:
64,192,79817,128,0,80112:0:0:0:0:
448,192,80112,1,0,0:0:0:0:
320,192,80406,1,0,0:0:0:0:
320,192,80553,1,0,0:0:0:0:
320,192,80700,1,0,0:0:0:0:
448,192,80994,1,0,0:0:0:0:
64,192,81288,1,0,0:0:0:0:
64,192,81435,1,0,0:0:0:0:
64,192,81582,1,0,0:0:0:0:
320,192,81876,1,0,0:0:0:0:
448,192,82170,128,0,82464:0:0:0:0:
320,192,82464,1,0,0:0:0:0:
192,192,82759,1,0,0:0:0:0:
192,192,82906,1,0,0:0:0:0:
192,192,83053,1,0,0:0:0:0:
320,192,83347,1,0,0:0:0:0:
448,192,83641,1,0,0:0:0:0:
448,192,83788,1,0,0:0:0:0:
448,192,83935,1,0,0:0:0:0:
64,192,84229,1,0,0:0:0:0:
320,192,84523,128,0,84817:0:0:0:0:
192,192,84817,1,0,0:0:0:0:
448,192,85112,1,0,0:0:0:0:
448,192,85259,1,0,0:0:0:0:
448,192,85406,1,0,0:0:0:0:
64,192,85700,1,0,0:0:0:0:
64,192,85994,1,0,0:0:0:0:
64,192,86141,1,0,0:0:0:0:
64,192,86288,1,0,0:0:0:0:
320,192,86582,1,0,0:0:0:0:
448,192,86876,128,0,87170:0:0:0:0:
64,192,87170,1,0,0:0:0:0:
192,192,87464,1,0,0:0:0:0:
192,192,87612,1,0,0:0:0:0:
192,192,87759,1,0,0:0:0:0:
320,192,88053,1,0,0:0:0:0:
320,192,88347,1,0,0:0:0:0:
320,192,88494,1,0,0:0:0:0:
320,192,88641,1,0,0:0:0:0:
192,192,88935,1,0,0:0:0:0:
448,192,89229,128,0,89523:0:0:0:0:
64,192,89523,1,0,0:0:0:0:
320,192,89817,1,0,0:0:0:0:
320,192,89964,1,0,0:0:0:0:
320,192,90112,1,0,0:0:0:0:
64,192,90406,1,0,0:0:0:0:
64,192,90700,1,0,0:0:0:0:
64,192,90847,1,0,0:0:0:0:
64,192,90994,1,0,0:0:0:0:
192,192,91288,1,0,0:0:0:0:
448,192,91582,128,0,91876:0:0:0:0:
192,192,91876,1,0,0:0:0:0:
320,192,92170,128,0,92464:0:0:0:0:
64,192,92464,1,0,0:0:0:0:
192,192,92759,128,0,93053:0:0:0:0:
448,192,93053,1,0,0:0:0:0:
64,192,93347,128,0,93641:0:0:0:0:
320,192,93641,128,0,93935:0:0:0:0:
64,192,93935,1,8,0:0:0:0:
192,192,94009,1,8,0:0:0:0:
320,192,94082,1,8,0:0:0:0:
448,192,94156,1,8,0:0:0:0:
192,192,94229,1,0,0:0:0:0:
64,192,94229,1,8,0:0:0:0:
448,192,98641,1,8,0:0:0:0:
320,192,98714,1,8,0:0:0:0:
192,192,98788,1,8,0:0:0:0:
64,192,98862,1,8,0:0:0:0:
320,192,98935,1,0,0:0:0:0:
448,192,98935,1,8,0:0:0:0:
192,192,99229,1,0,0:0:0:0:
192,192,99376,1,0,0:0:0:0:
192,192,99523,1,0,0:0:0:0:
64,192,99817,1,0,0:0:0:0:
448,192,100112,1,0,0:0:0:0:
448,192,100259,1,0,0:0:0:0:
448,192,100406,1,0,0:0:0:0:
320,192,100700,1,0,0:0:0:0:
192,192,100994,128,0,101288:0:0:0:0:
320,192,101288,1,0,0:0:0:0:
448,192,101582,128,0,101876:0:0:0:0:
192,192,101876,1,0,0:0:0:0:
64,192,102170,128,0,102464:0:0:0:0:
448,192,102464,1,0,0:0:0:0:
320,192,102759,128,0,103053:0:0:0:0:
64,192,103053,1,0,0:0:0:0:
192,192,103347,1,8,0:0:0:0:
320,192,103420,1,8,0:0:0:0:
448,192,103494,1,8,0:0:0:0:
64,192,103567,1,8,0:0:0:0:
192,192,103641,1,8,0:0:0:0:
320,192,103641,1,0,0:0:0:0:
64,192,103935,1,8,0:0:0:0:
192,192,103935,1,0,0:0:0:0:
448,192,104229,1,8,0:0:0:0:
320,192,104229,1,0,0:0:0:0:
64,192,104523,1,8,0:0:0:0:
320,192,104523,1,0,0:0:0:0:
448,192,104817,1,0,0:0:0:0:
192,192,104817,1,8,0:0:0:0:
448,192,105112,1,0,0:0:0:0:
64,192,105112,1,8,0:0:0:0:
64,192,105406,1,8,0:0:0:0:
320,192,105406,1,0,0:0:0:0:
320,192,105700,1,8,0:0:0:0:
192,192,105773,1,8,0:0:0:0:
64,192,105847,1,8,0:0:0:0:
448,192,105920,1,8,0:0:0:0:
192,192,105994,1,8,0:0:0:0:
320,192,105994,1,0,0:0:0:0:
448,192,106288,1,8,0:0:0:0:
64,192,106288,1,0,0:0:0:0:
64,192,106582,1,0,0:0:0:0:
192,192,106582,1,8,0:0:0:0:
448,192,106876,1,0,0:0:0:0:
320,192,106876,1,8,0:0:0:0:
448,192,107170,1,0,0:0:0:0:
192,192,107170,1,8,0:0:0:0:
64,192,107464,1,8,0:0:0:0:
320,192,107464,1,0,0:0:0:0:
320,192,107759,1,0,0:0:0:0:
192,192,107759,1,8,0:0:0:0:
64,192,108053,1,8,0:0:0:0:
448,192,108126,1,8,0:0:0:0:
320,192,108200,1,8,0:0:0:0:
192,192,108273,1,8,0:0:0:0:
64,192,108347,1,8,0:0:0:0:
448,192,108347,1,0,0:0:0:0:
192,192,108494,1,8,0:0:0:0:
320,192,108494,1,0,0:0:0:0:
448,192,108641,1,0,0:0:0:0:
64,192,108641,1,8,0:0:0:0:
320,192,108788,1,0,0:0:0:0:
192,192,108788,1,8,0:0:0:0:
448,192,108935,1,0,0:0:0:0:
64,192,108935,1,8,0:0:0:0:
320,192,109082,1,0,0:0:0:0:
192,192,109082,1,8,0:0:0:0:
64,192,109229,1,8,0:0:0:0:
448,192,109229,1,0,0:0:0:0:
320,192,109376,1,0,0:0:0:0:
192,192,109376,1,8,0:0:0:0:
192,192,109523,1,0,0:0:0:0:
64,192,109523,1,8,0:0:0:0:
320,192,109670,1,0,0:0:0:0:
448,192,109670,1,8,0:0:0:0:
64,192,109817,1,8,0:0:0:0:
192,192,109817,1,0,0:0:0:0:
320,192,109964,1,0,0:0:0:0:
448,192,109964,1,8,0:0:0:0:
64,192,110112,1,8,0:0:0:0:
192,192,110112,1,0,0:0:0:0:
320,192,110259,1,0,0:0:0:0:
448,192,110259,1,8,0:0:0:0:
64,192,110406,1,8,0:0:0:0:
192,192,110406,1,0,0:0:0:0:
320,192,110553,1,0,0:0:0:0:
448,192,110553,1,8,0:0:0:0:
192,192,110700,1,0,0:0:0:0:
64,192,110700,1,8,0:0:0:0:
448,192,110773,1,8,0:0:0:0:
320,192,110847,1,8,0:0:0:0:
192,192,110920,1,8,0:0:0:0:
64,192,110994,5,8,0:0:0:0:
448,192,111067,1,8,0:0:0:0:
320,192,111141,1,8,0:0:0:0:
192,192,111214,1,8,0:0:0:0:
64,192,111288,1,8,0:0:0:0:
192,192,111362,1,8,0:0:0:0:
320,192,111435,1,8,0:0:0:0:
448,192,111509,1,8,0:0:0:0:
64,192,111582,1,8,0:0:0:0:
192,192,111656,1,8,0:0:0:0:
320,192,111729,1,8,0:0:0:0:
448,192,111803,1,8,0:0:0:0:
64,192,111876,1,8,0:0:0:0:
320,192,112170,5,0,0:0:0:0:
320,192,112317,1,0,0:0:0:0:
192,192,112464,128,0,112759:0:0:0:0:
64,192,112759,128,0,113053:0:0:0:0:
320,192,113053,1,2,0:0:0:0:
192,192,113494,1,8,0:0:0:0:
448,192,113494,1,0,0:0:0:0:
320,192,113641,1,2,0:0:0:0:
64,192,113935,1,8,0:0:0:0:
320,192,113935,1,0,0:0:0:0:
448,192,114229,1,2,0:0:0:0:
64,192,114670,1,8,0:0:0:0:
192,192,114670,1,0,0:0:0:0:
320,192,114817,1,2,0:0:0:0:
64,192,115112,1,8,0:0:0:0:
192,192,115185,1,8,0:0:0:0:
320,192,115259,1,8,0:0:0:0:
448,192,115332,1,8,0:0:0:0:
64,192,115406,1,8,0:0:0:0:
192,192,115406,1,0,0:0:0:0:
64,192,115847,1,8,0:0:0:0:
320,192,115847,1,0,0:0:0:0:
192,192,115994,1,2,0:0:0:0:
448,192,116288,1,0,0:0:0:0:
64,192,116288,1,8,0:0:0:0:
320,192,116582,1,2,0:0:0:0:
448,192,116729,1,0,0:0:0:0:
192,192,116876,1,0,0:0:0:0:
64,192,116876,1,8,0:0:0:0:
448,192,117023,1,2,0:0:0:0:
64,192,117170,128,8,117317:0:0:0:0:
192,192,117170,128,0,117317:0:0:0:0:
320,192,117464,128,0,117612:0:0:0:0:
448,192,117464,128,8,117612:0:0:0:0:
64,192,117759,1,2,0:0:0:0:
320,192,118200,1,0,0:0:0:0:
64,192,118200,1,8,0:0:0:0:
448,192,118347,1,2,0:0:0:0:
64,192,118641,1,8,0:0:0:0:
192,192,118641,1,0,0:0:0:0:
320,192,118935,1,2,0:0:0:0:
448,192,119376,1,0,0:0:0:0:
64,192,119376,1,8,0:0:0:0:
192,192,119523,1,2,0:0:0:0:
64,192,119817,1,8,0:0:0:0:
320,192,119817,1,0,0:0:0:0:
448,192,120112,1,2,0:0:0:0:
320,192,120553,1,0,0:0:0:0:
192,192,120553,1,8,0:0:0:0:
64,192,120700,1,2,0:0:0:0:
448,192,120994,1,8,0:0:0:0:
192,192,120994,1,0,0:0:0:0:
320,192,121288,1,2,0:0:0:0:
448,192,121435,1,0,0:0:0:0:
64,192,121582,1,8,0:0:0:0:
192,192,121729,1,8,0:0:0:0:
320,192,121729,1,0,0:0:0:0:
448,192,121876,1,8,0:0:0:0:
320,192,122023,1,8,0:0:0:0:
64,192,122170,1,8,0:0:0:0:
192,192,122244,1,8,0:0:0:0:
320,192,122317,1,8,0:0:0:0:
448,192,122391,1,8,0:0:0:0:
64,192,122464,1,2,0:0:0:0:
448,192,122759,1,0,0:0:0:0:
192,192,122906,1,0,0:0:0:0:
320,192,122906,1,8,0:0:0:0:
64,192,123053,1,2,0:0:0:0:
320,192,123347,1,0,0:0:0:0:
448,192,123347,1,8,0:0:0:0:
192,192,123641,1,2,0:0:0:0:
320,192,123788,1,0,0:0:0:0:
64,192,123935,1,0,0:0:0:0:
448,192,124082,1,8,0:0:0:0:
320,192,124082,1,0,0:0:0:0:
64,192,124229,1,2,0:0:0:0:
448,192,124523,1,8,0:0:0:0:
192,192,124523,1,0,0:0:0:0:
320,192,124817,1,2,0:0:0:0:
448,192,125112,1,0,0:0:0:0:
64,192,125259,1,8,0:0:0:0:
320,192,125259,1,0,0:0:0:0:
192,192,125406,1,2,0:0:0:0:
320,192,125700,1,0,0:0:0:0:
448,192,125700,1,8,0:0:0:0:
64,192,125994,1,2,0:0:0:0:
192,192,126141,1,0,0:0:0:0:
448,192,126288,1,8,0:0:0:0:
320,192,126288,1,0,0:0:0:0:
192,192,126435,1,2,0:0:0:0:
64,192,126582,1,2,0:0:0:0:
320,192,126876,1,8,0:0:0:0:
192,192,126876,1,0,0:0:0:0:
448,192,127170,1,2,0:0:0:0:
448,192,127464,1,0,0:0:0:0:
320,192,127612,1,0,0:0:0:0:
64,192,127612,1,8,0:0:0:0:
192,192,127759,1,2,0:0:0:0:
64,192,128053,1,8,0:0:0:0:
448,192,128053,1,0,0:0:0:0:
320,192,128347,1,2,0:0:0:0:
448,192,128494,1,0,0:0:0:0:
64,192,128641,1,0,0:0:0:0:
320,192,128788,1,8,0:0:0:0:
192,192,128788,1,0,0:0:0:0:
448,192,128935,1,2,0:0:0:0:
192,192,129229,1,0,0:0:0:0:
448,192,129229,1,8,0:0:0:0:
64,192,129523,1,2,0:0:0:0:
320,192,129817,1,0,0:0:0:0:
448,192,129964,1,8,0:0:0:0:
192,192,129964,1,0,0:0:0:0:
64,192,130112,1,2,0:0:0:0:
448,192,130406,1,8,0:0:0:0:
192,192,130406,1,0,0:0:0:0:
320,192,130700,1,2,0:0:0:0:
448,192,130847,1,0,0:0:0:0:
64,192,130994,1,8,0:0:0:0:
192,192,131141,1,0,0:0:0:0:
448,192,131141,1,8,0:0:0:0:
320,192,131288,1,8,0:0:0:0:
192,192,131435,1,8,0:0:0:0:
448,192,131582,1,8,0:0:0:0:
320,192,131656,1,8,0:0:0:0:
192,192,131729,1,8,0:0:0:0:
64,192,131803,1,8,0:0:0:0:
320,192,131876,1,0,0:0:0:0:
448,192,131876,1,8,0:0:0:0:
192,192,132317,1,8,0:0:0:0:
320,192,132317,1,0,0:0:0:0:
64,192,132464,1,0,0:0:0:0:
64,192,132759,1,0,0:0:0:0:
448,192,132759,1,8,0:0:0:0:
448,192,133053,1,8,0:0:0:0:
192,192,133053,1,0,0:0:0:0:
320,192,133494,1,0,0:0:0:0:
64,192,133494,1,8,0:0:0:0:
448,192,133641,1,0,0:0:0:0:
192,192,133788,1,8,0:0:0:0:
320,192,133788,1,0,0:0:0:0:
448,192,133935,1,0,0:0:0:0:
64,192,133935,1,8,0:0:0:0:
64,192,134229,1,8,0:0:0:0:
320,192,134229,1,0,0:0:0:0:
320,192,134670,1,0,0:0:0:0:
192,192,134670,1,8,0:0:0:0:
64,192,134817,1,0,0:0:0:0:
64,192,135112,1,8,0:0:0:0:
448,192,135112,1,0,0:0:0:0:
192,192,135406,1,0,0:0:0:0:
448,192,135406,1,8,0:0:0:0:
64,192,135553,1,0,0:0:0:0:
320,192,135700,1,8,0:0:0:0:
448,192,135847,1,8,0:0:0:0:
64,192,135847,1,0,0:0:0:0:
320,192,135994,128,8,136141:0:0:0:0:
192,192,135994,128,0,136141:0:0:0:0:
64,192,136288,128,0,136435:0:0:0:0:
448,192,136288,128,8,136435:0:0:0:0:
192,192,136435,1,8,0:0:0:0:
320,192,136509,1,8,0:0:0:0:
64,192,136582,1,8,0:0:0:0:
448,192,136582,1,0,0:0:0:0:
192,192,137023,1,0,0:0:0:0:
448,192,137023,1,8,0:0:0:0:
64,192,137170,1,2,0:0:0:0:
320,192,137464,1,8,0:0:0:0:
192,192,137464,1,0,0:0:0:0:
448,192,137759,1,2,0:0:0:0:
448,192,138200,1,0,0:0:0:0:
64,192,138200,1,8,0:0:0:0:
192,192,138347,1,2,0:0:0:0:
320,192,138494,1,8,0:0:0:0:
448,192,138494,1,0,0:0:0:0:
192,192,138641,1,8,0:0:0:0:
64,192,138641,1,0,0:0:0:0:
64,192,138935,1,0,0:0:0:0:
320,192,138935,1,8,0:0:0:0:
448,192,139376,1,0,0:0:0:0:
192,192,139376,1,8,0:0:0:0:
64,192,139523,1,2,0:0:0:0:
192,192,139817,1,8,0:0:0:0:
320,192,139817,1,0,0:0:0:0:
448,192,140112,1,0,0:0:0:0:
64,192,140112,1,8,0:0:0:0:
320,192,140259,1,0,0:0:0:0:
448,192,140406,1,2,0:0:0:0:
64,192,140553,1,8,0:0:0:0:
192,192,140553,1,0,0:0:0:0:
320,192,140700,1,2,0:0:0:0:
448,192,140847,1,2,0:0:0:0:
64,192,140994,1,8,0:0:0:0:
192,192,141067,1,8,0:0:0:0:
320,192,141141,1,8,0:0:0:0:
448,192,141214,1,8,0:0:0:0:
64,192,141288,1,8,0:0:0:0:
192,192,141288,1,0,0:0:0:0:
64,192,141582,1,0,0:0:0:0:
192,192,141729,1,0,0:0:0:0:
448,192,141729,1,8,0:0:0:0:
320,192,141876,1,2,0:0:0:0:
192,192,142170,1,0,0:0:0:0:
64,192,142170,1,8,0:0:0:0:
192,192,142464,1,8,0:0:0:0:
448,192,142464,1,0,0:0:0:0:
320,192,142612,1,0,0:0:0:0:
64,192,142759,1,0,0:0:0:0:
448,192,142906,1,0,0:0:0:0:
320,192,142906,1,8,0:0:0:0:
64,192,143053,1,2,0:0:0:0:
192,192,143200,1,8,0:0:0:0:
320,192,143200,1,0,0:0:0:0:
448,192,143347,1,0,0:0:0:0:
64,192,143347,1,8,0:0:0:0:
64,192,143641,1,8,0:0:0:0:
320,192,143641,1,0,0:0:0:0:
320,192,143935,1,0,0:0:0:0:
448,192,144082,1,0,0:0:0:0:
192,192,144082,1,8,0:0:0:0:
64,192,144229,1,2,0:0:0:0:
64,192,144523,1,8,0:0:0:0:
320,192,144523,1,0,0:0:0:0:
192,192,144817,1,8,0:0:0:0:
448,192,144817,1,0,0:0:0:0:
64,192,144964,1,0,0:0:0:0:
448,192,145112,1,8,0:0:0:0:
320,192,145112,1,0,0:0:0:0:
192,192,145259,1,8,0:0:0:0:
320,192,145259,1,0,0:0:0:0:
64,192,145406,1,2,0:0:0:0:
192,192,145700,1,8,0:0:0:0:
320,192,145773,1,8,0:0:0:0:
448,192,145847,1,8,0:0:0:0:
64,192,145920,1,8,0:0:0:0:
320,192,145994,1,8,0:0:0:0:
192,192,145994,1,0,0:0:0:0:
448,192,146288,1,0,0:0:0:0:
320,192,146435,1,0,0:0:0:0:
192,192,146435,1,8,0:0:0:0:
64,192,146582,1,0,0:0:0:0:
320,192,146876,1,0,0:0:0:0:
192,192,146876,1,8,0:0:0:0:
192,192,147170,1,0,0:0:0:0:
448,192,147170,1,8,0:0:0:0:
64,192,147317,1,0,0:0:0:0:
192,192,147464,1,0,0:0:0:0:
64,192,147612,1,8,0:0:0:0:
320,192,147612,1,0,0:0:0:0:
448,192,147759,1,0,0:0:0:0:
448,192,148053,1,8,0:0:0:0:
320,192,148126,1,8,0:0:0:0:
192,192,148200,1,8,0:0:0:0:
64,192,148273,1,8,0:0:0:0:
320,192,148347,1,0,0:0:0:0:
448,192,148347,1,8,0:0:0:0:
448,192,148641,1,0,0:0:0:0:
320,192,148788,1,0,0:0:0:0:
192,192,148788,1,8,0:0:0:0:
64,192,148935,1,0,0:0:0:0:
64,192,149229,1,8,0:0:0:0:
320,192,149229,1,0,0:0:0:0:
448,192,149523,1,0,0:0:0:0:
320,192,149670,1,0,0:0:0:0:
64,192,149817,1,0,0:0:0:0:
320,192,149964,1,8,0:0:0:0:
192,192,149964,1,0,0:0:0:0:
448,192,150112,1,0,0:0:0:0:
64,192,150259,1,8,0:0:0:0:
192,192,150259,1,0,0:0:0:0:
320,192,150406,1,8,0:0:0:0:
448,192,150406,1,0,0:0:0:0:
64,192,150700,1,0,0:0:0:0:
448,192,150700,1,8,0:0:0:0:
