osu file format v14

[General]
AudioFilename: audio.mp3
AudioLeadIn: 0
PreviewTime: -1
Countdown: 0
SampleSet: None
StackLeniency: 0.7
Mode: 0
LetterboxInBreaks: 0
WidescreenStoryboard: 0

[Editor]
Bookmarks: -3,12981,13397,13598,13807,14617,14816,15042,15627,15857,16104,16314,16522,16725,19987,20208,20413,21261,21490,21708,22302,22511,22721,22922,23116,23318,23888,24127,24565,24789,24990,25339,25627,25811,28687,28959,29146,29330,29507,29923,31162,31292,31417,31658,31972,33028,33227,33432,33656,33862,34107,34287,34489,34680,34875,35356,35557,35760,35951,36147,36337,36538,36656,36781,36905,37047,37188,37395,37576,37787,37989,38207,38407,38609,38809,39019,39221,39441,39643,39876,40256
DistanceSpacing: 1.5
BeatDivisor: 4
GridSize: 8
TimelineZoom: 2.9

[Metadata]
Title:Till It Hurts ft. Ayden
TitleUnicode:Till It Hurts ft. Ayden
Artist:Yellow Claw
ArtistUnicode:Yellow Claw
Creator:leonardlucky
Version:Till It Hurts
Source:
Tags:
BeatmapID:1099600
BeatmapSetID:517519

[Difficulty]
HPDrainRate:6
CircleSize:5
OverallDifficulty:7
ApproachRate:8
SliderMultiplier:1.4
SliderTickRate:1

[Events]
//Background and Video events
0,0,"sadgirl.jpg",0,0
//Break Periods
//Storyboard Layer 0 (Background)
//Storyboard Layer 1 (Fail)
//Storyboard Layer 2 (Pass)
//Storyboard Layer 3 (Foreground)
//Storyboard Sound Samples

[TimingPoints]
116,413.793103448276,4,3,0,100,1,0
13375,-66.6666666666667,4,3,0,100,0,0
39838,-66.6666666666667,4,3,0,100,0,1
66322,-66.6666666666667,4,3,0,100,0,0
92863,-66.6666666666667,4,3,0,100,0,0
132529,-66.6666666666667,4,3,0,100,0,1
159012,-66.6666666666667,4,3,0,100,0,0

[HitObjects]
256,192,12942,5,0,0:0:0:0:
184,56,13357,1,0,0:0:0:0:
88,144,13667,1,0,0:0:0:0:
184,56,13978,2,0,L|280:120,1,105.000004005432
280,208,14391,2,0,L|232:176,1,52.5000020027161
208,248,14598,2,0,L|256:288,1,52.5000020027161
184,320,14804,5,0,0:0:0:0:
56,256,15010,2,0,P|136:232|144:168,1,157.500006008148
200,112,15424,2,0,L|288:168,1,105.000004005432
384,256,15838,2,0,L|432:152,1,105.000004005432
408,88,16253,1,0,0:0:0:0:
352,136,16459,2,0,L|296:256,1,105.000004005432
288,312,16873,1,0,0:0:0:0:
264,304,16976,1,0,0:0:0:0:
248,296,17079,6,0,P|224:208|240:184,1,105.000004005432
224,120,17493,2,0,P|144:208|168:272,1,157.500006008148
160,264,17907,1,0,0:0:0:0:
200,288,18012,1,0,0:0:0:0:
248,304,18116,1,0,0:0:0:0:
288,304,18219,1,0,0:0:0:0:
328,296,18322,1,0,0:0:0:0:
232,112,18633,5,0,0:0:0:0:
328,296,18942,2,0,P|376:200|384:160,1,105.000004005432
376,88,19355,5,0,0:0:0:0:
344,64,19459,1,0,0:0:0:0:
304,48,19562,1,0,0:0:0:0:
264,56,19666,1,0,0:0:0:0:
240,88,19771,1,0,0:0:0:0:
232,128,19874,1,0,0:0:0:0:
312,120,19978,5,0,0:0:0:0:
256,200,20286,2,0,L|304:360,1,157.500006008148
440,312,20804,1,0,0:0:0:0:
368,184,21012,2,0,L|344:112,1,52.5000020027161
424,112,21219,2,0,L|456:200,1,52.5000020027161
424,232,21426,1,0,0:0:0:0:
320,328,21840,6,0,P|264:272|200:232,2,105.000004005432
464,312,22460,1,0,0:0:0:0:
400,264,22667,2,0,L|352:192,1,52.5000020027161
440,184,22874,2,0,L|480:240,1,52.5000020027161
352,152,23079,1,0,0:0:0:0:
352,152,23286,6,0,L|192:224,1,157.500006008148
208,216,23700,1,0,0:0:0:0:
104,232,23907,6,0,L|104:120,1,105.000004005432
0,136,24321,1,0,0:0:0:0:
0,168,24424,1,0,0:0:0:0:
0,200,24528,1,0,0:0:0:0:
0,232,24631,1,0,0:0:0:0:
0,264,24735,1,0,0:0:0:0:
152,288,24942,5,0,0:0:0:0:
256,96,25252,1,0,0:0:0:0:
360,296,25562,1,0,0:0:0:0:
256,192,25771,6,0,L|208:248,1,52.5000020027161
136,216,26081,2,0,L|88:160,1,52.5000020027161
192,128,26391,2,0,L|232:80,1,52.5000020027161
256,80,26597,5,0,0:0:0:0:
320,80,26804,6,0,L|360:184,1,105.000004005432
192,80,27217,2,0,L|160:200,1,105.000004005432
256,232,27631,1,0,0:0:0:0:
256,232,27838,2,0,L|256:88,1,105.000004005432
256,32,28252,2,0,P|144:48|72:32,1,157.500006008148
72,32,28666,1,0,0:0:0:0:
48,120,28873,5,0,0:0:0:0:
120,224,29079,1,0,0:0:0:0:
208,128,29286,1,0,0:0:0:0:
288,224,29493,2,0,P|368:200|480:264,1,210.000008010865
432,312,30114,5,0,0:0:0:0:
408,328,30218,1,0,0:0:0:0:
384,352,30321,1,0,0:0:0:0:
360,280,30528,1,0,0:0:0:0:
280,336,30735,2,0,P|152:272|152:216,1,210.000008010865
176,160,31252,1,0,0:0:0:0:
176,160,31355,1,0,0:0:0:0:
192,80,31564,5,0,0:0:0:0:
272,112,31771,1,0,0:0:0:0:
264,192,31978,1,0,0:0:0:0:
176,160,32183,2,0,L|64:224,2,105.000004005432
136,88,32804,1,0,0:0:0:0:
136,88,33010,2,0,L|248:32,1,105.000004005432
472,40,33424,6,0,L|376:120,1,105.000004005432
216,232,33838,2,0,L|312:160,1,105.000004005432
448,256,34252,2,0,L|352:152,1,105.000004005432
248,24,34666,2,0,L|328:104,1,105.000004005432
96,192,35288,1,0,0:0:0:0:
96,192,35493,5,0,0:0:0:0:
256,192,35700,1,0,0:0:0:0:
424,192,35907,1,0,0:0:0:0:
256,32,36114,5,0,0:0:0:0:
256,104,36321,1,0,0:0:0:0:
256,128,36424,1,0,0:0:0:0:
264,152,36528,2,0,L|344:112,3,52.5000020027161
272,184,36942,2,0,L|344:200,3,52.5000020027161
256,208,37355,2,0,L|296:272,3,52.5000020027161
216,208,37769,2,0,L|192:272,3,52.5000020027161
176,272,38183,5,0,0:0:0:0:
152,288,38286,1,0,0:0:0:0:
128,296,38390,1,0,0:0:0:0:
104,296,38493,1,0,0:0:0:0:
80,296,38597,1,0,0:0:0:0:
56,288,38700,1,0,0:0:0:0:
32,280,38804,1,0,0:0:0:0:
16,264,38907,1,0,0:0:0:0:
8,240,39010,1,0,0:0:0:0:
0,216,39114,1,0,0:0:0:0:
0,192,39217,1,0,0:0:0:0:
0,168,39321,1,0,0:0:0:0:
0,144,39424,1,0,0:0:0:0:
16,128,39529,2,0,L|96:80,2,52.5000020027161
128,72,39838,6,0,P|280:104|360:80,1,210.000008010865
424,152,40459,1,0,0:0:0:0:
256,192,40666,1,0,0:0:0:0:
408,272,40873,2,0,L|312:376,2,105.000004005432
392,192,41493,6,0,P|192:176|160:160,1,210.000008010865
112,88,42114,1,0,0:0:0:0:
40,88,42321,2,0,L|40:208,1,105.000004005432
112,272,42735,2,0,L|112:152,1,105.000004005432
184,88,43148,6,0,P|296:104|408:72,2,210.000008010865
88,128,44183,1,0,0:0:0:0:
0,192,44390,1,0,0:0:0:0:
88,256,44597,1,0,0:0:0:0:
176,192,44804,6,0,P|208:104|208:64,1,105.000004005432
312,96,45217,2,0,P|352:200|360:208,1,105.000004005432
360,280,45631,1,0,0:0:0:0:
160,344,45838,1,0,0:0:0:0:
96,152,46045,1,0,0:0:0:0:
272,88,46252,1,0,0:0:0:0:
368,64,46459,6,0,P|392:152|480:272,1,210.000008010865
504,192,47079,1,0,0:0:0:0:
504,192,47286,2,0,P|424:176|376:288,1,210.000008010865
448,248,47907,1,0,0:0:0:0:
448,248,48114,2,0,P|440:336|320:336,1,210.000008010865
256,296,48735,5,0,0:0:0:0:
232,208,48942,2,0,B|152:264|120:288,1,105.000004005432
240,56,49355,2,0,L|136:16,1,105.000004005432
32,136,49769,2,0,L|-144:0,2,210.000008010865
120,192,50804,5,0,0:0:0:0:
256,320,51010,1,0,0:0:0:0:
392,192,51217,1,0,0:0:0:0:
128,312,51631,5,0,0:0:0:0:
256,48,51838,1,0,0:0:0:0:
376,312,52045,1,0,0:0:0:0:
112,136,52252,1,0,0:0:0:0:
384,136,52459,1,0,0:0:0:0:
128,312,52666,1,0,0:0:0:0:
256,48,52873,1,0,0:0:0:0:
376,312,53081,6,0,P|256:232|264:144,2,210.000008010865
360,192,54116,1,0,0:0:0:0:
264,40,54322,1,0,0:0:0:0:
152,232,54529,1,0,0:0:0:0:
152,232,54943,6,0,P|168:320|160:344,1,105.000004005432
368,208,55357,2,0,P|376:304|392:320,1,105.000004005432
168,64,55771,2,0,P|240:40|280:16,1,105.000004005432
56,120,56184,1,0,0:0:0:0:
128,176,56391,6,0,P|64:216|80:344,2,210.000008010865
256,72,57426,2,0,P|184:0|184:-8,2,105.000004005432
416,136,58253,1,0,0:0:0:0:
256,296,58460,1,0,0:0:0:0:
144,88,58667,1,0,0:0:0:0:
16,296,58874,1,0,0:0:0:0:
256,80,59081,1,0,0:0:0:0:
512,288,59288,1,0,0:0:0:0:
256,296,59495,5,0,0:0:0:0:
152,184,59702,2,0,L|64:96,1,105.000004005432
408,40,60116,2,0,L|488:120,1,105.000004005432
472,224,60529,5,0,0:0:0:0:
472,224,60736,1,0,0:0:0:0:
200,352,60943,1,0,0:0:0:0:
200,352,61150,1,0,0:0:0:0:
80,96,61357,1,0,0:0:0:0:
80,96,61564,1,0,0:0:0:0:
352,0,61771,1,0,0:0:0:0:
352,0,61978,1,0,0:0:0:0:
472,224,62184,1,0,0:0:0:0:
472,224,62391,1,0,0:0:0:0:
256,176,62598,5,0,0:0:0:0:
256,176,62805,1,0,0:0:0:0:
256,176,63012,6,0,L|184:112,3,52.5000020027161
288,192,63426,1,0,0:0:0:0:
312,208,63529,1,0,0:0:0:0:
336,216,63633,1,0,0:0:0:0:
360,216,63736,1,0,0:0:0:0:
384,216,63840,1,0,0:0:0:0:
408,216,63943,1,0,0:0:0:0:
432,208,64047,1,0,0:0:0:0:
456,200,64150,1,0,0:0:0:0:
480,192,64253,1,0,0:0:0:0:
504,184,64357,1,0,0:0:0:0:
504,160,64460,5,0,0:0:0:0:
256,192,64667,12,0,65909,0:0:0:0:
64,56,66322,5,0,0:0:0:0:
64,56,66736,2,0,P|120:112|152:96,1,105.000004005432
224,40,67047,1,0,0:0:0:0:
224,40,67150,1,0,0:0:0:0:
200,136,67564,2,0,P|208:192|248:216,1,105.000004005432
336,216,67874,1,0,0:0:0:0:
336,216,67978,1,0,0:0:0:0:
256,296,68391,6,0,P|176:328|144:336,1,105.000004005432
56,288,68702,2,0,L|-8:288,1,52.5000020027161
104,200,69012,2,0,P|200:152|224:128,1,105.000004005432
400,224,69426,1,0,0:0:0:0:
368,304,69633,5,0,0:0:0:0:
368,304,69840,2,0,P|320:248|344:192,1,105.000004005432
192,128,70253,2,0,L|144:184,1,52.5000020027161
104,224,70460,1,0,0:0:0:0:
240,304,70667,2,0,L|288:248,1,52.5000020027161
320,200,70874,1,0,0:0:0:0:
296,128,71081,5,0,0:0:0:0:
320,96,71185,1,0,0:0:0:0:
344,64,71288,1,0,0:0:0:0:
224,184,71495,6,0,P|152:184|128:176,2,52.5000020027161
128,264,71909,1,0,0:0:0:0:
176,264,72012,1,0,0:0:0:0:
224,264,72116,1,0,0:0:0:0:
352,264,72322,2,0,P|336:200|352:160,1,105.000004005432
352,264,72736,6,0,L|296:312,1,52.5000020027161
464,288,72943,5,0,0:0:0:0:
408,88,73149,1,0,0:0:0:0:
256,16,73356,1,0,0:0:0:0:
104,88,73563,1,0,0:0:0:0:
8,296,73770,1,0,0:0:0:0:
176,296,73978,2,0,P|248:296|288:304,1,105.000004005432
280,136,74391,5,0,0:0:0:0:
224,136,74495,1,0,0:0:0:0:
168,144,74598,1,0,0:0:0:0:
24,176,74805,2,0,L|104:216,1,52.5000020027161
48,272,75012,5,0,0:0:0:0:
176,272,75219,2,0,L|96:272,1,52.5000020027161
248,272,75426,1,0,0:0:0:0:
304,72,75633,2,0,P|256:64|200:72,2,105.000004005432
80,104,76253,2,0,P|112:152|131:171,1,52.5000020027161
168,288,76460,6,0,P|152:208|136:192,1,105.000004005432
80,104,76874,1,0,0:0:0:0:
64,80,76978,1,0,0:0:0:0:
48,56,77081,1,0,0:0:0:0:
168,32,77288,1,0,0:0:0:0:
184,56,77392,1,0,0:0:0:0:
200,80,77495,1,0,0:0:0:0:
248,152,77702,2,0,L|288:216,1,52.5000020027161
328,312,77909,6,0,P|200:288|200:288,1,105.000004005432
184,280,78219,1,0,0:0:0:0:
144,272,78322,1,0,0:0:0:0:
120,192,78529,1,0,0:0:0:0:
200,208,78736,2,0,L|312:232,1,105.000004005432
248,304,79150,2,0,P|224:192|312:152,1,210.000008010865
64,136,79978,6,0,P|88:192|96:264,1,105.000004005432
128,296,80288,1,0,0:0:0:0:
128,296,80391,1,0,0:0:0:0:
440,264,80805,2,0,P|416:160|416:136,1,105.000004005432
456,96,81116,1,0,0:0:0:0:
456,96,81219,1,0,0:0:0:0:
216,80,81633,2,0,P|96:72|72:64,1,105.000004005432
160,176,81943,2,0,L|160:240,2,52.5000020027161
376,216,82253,2,0,L|288:280,2,105.000004005432
144,120,82874,1,0,0:0:0:0:
144,120,83081,5,0,0:0:0:0:
8,208,83288,2,0,P|-16:96|0:80,1,105.000004005432
96,216,83598,1,0,0:0:0:0:
96,216,83702,1,0,0:0:0:0:
232,256,83909,5,0,0:0:0:0:
248,280,84013,1,0,0:0:0:0:
264,304,84116,1,0,0:0:0:0:
336,280,84322,1,0,0:0:0:0:
328,256,84426,1,0,0:0:0:0:
312,232,84529,1,0,0:0:0:0:
408,104,84736,2,0,L|456:80,2,52.5000020027161
256,104,85150,2,0,L|216:40,3,52.5000020027161
344,240,85564,6,0,L|432:120,2,105.000004005432
240,288,86391,1,0,0:0:0:0:
96,232,86598,1,0,0:0:0:0:
128,56,86805,1,0,0:0:0:0:
160,40,86909,1,0,0:0:0:0:
192,32,87012,1,0,0:0:0:0:
368,112,87219,1,0,0:0:0:0:
368,280,87426,6,0,P|416:328|496:336,1,105.000004005432
450,338,87736,1,0,0:0:0:0:
464,184,87840,1,0,0:0:0:0:
360,224,88253,1,0,0:0:0:0:
280,280,88460,1,0,0:0:0:0:
264,256,88564,1,0,0:0:0:0:
248,224,88667,1,0,0:0:0:0:
176,304,88874,1,0,0:0:0:0:
120,200,89081,1,0,0:0:0:0:
32,272,89288,6,0,P|8:184|24:152,1,105.000004005432
136,96,89702,2,0,P|208:128|240:112,1,105.000004005432
288,256,90116,2,0,L|352:304,2,52.5000020027161
424,288,90529,2,0,L|520:280,2,52.5000020027161
384,168,90943,2,0,L|392:88,2,52.5000020027161
376,296,91357,1,0,0:0:0:0:
248,248,91564,1,0,0:0:0:0:
256,112,91771,1,0,0:0:0:0:
392,48,91978,2,0,L|368:-8,2,52.5000020027161
440,176,92391,5,0,0:0:0:0:
312,264,92598,1,0,0:0:0:0:
152,264,92805,2,0,P|144:192|96:144,1,105.000004005432
88,96,93116,1,0,0:0:0:0:
24,224,93426,1,0,0:0:0:0:
24,224,93633,2,0,L|160:160,1,105.000004005432
192,144,93943,1,0,0:0:0:0:
224,216,94150,2,0,L|192:312,1,52.5000020027161
320,336,94460,1,0,0:0:0:0:
440,240,94667,1,0,0:0:0:0:
440,240,94771,1,0,0:0:0:0:
352,112,95081,5,0,0:0:0:0:
224,112,95288,2,0,P|128:112|32:32,1,210.000008010865
48,168,95909,1,0,0:0:0:0:
48,296,96116,2,0,P|128:256|256:296,1,210.000008010865
360,312,96736,1,0,0:0:0:0:
464,248,96943,2,0,P|424:192|416:32,1,210.000008010865
280,72,97564,2,0,L|144:120,1,105.000004005432
64,152,97978,1,0,0:0:0:0:
64,152,98081,1,0,0:0:0:0:
88,336,98391,6,0,P|208:288|224:288,1,105.000004005432
304,280,98805,1,0,0:0:0:0:
304,280,98909,1,0,0:0:0:0:
464,280,99426,6,0,P|448:216|464:72,1,210.000008010865
352,136,100047,1,0,0:0:0:0:
232,168,100253,2,0,L|152:128,2,52.5000020027161
312,264,100667,1,0,0:0:0:0:
160,224,100874,1,0,0:0:0:0:
306,60,101081,2,0,P|330:156|306:276,1,210.000008010865
152,248,101702,2,0,P|144:192|168:136,2,105.000004005432
112,344,102322,2,0,P|240:320|264:248,1,210.000008010865
296,168,103150,5,0,0:0:0:0:
424,72,103357,1,0,0:0:0:0:
464,224,103564,2,0,L|496:328,1,105.000004005432
368,224,103978,2,0,L|336:344,1,105.000004005432
232,208,104391,2,0,P|120:216|32:192,2,157.500006008148
76,207,105116,1,0,0:0:0:0:
72,208,105219,2,0,L|16:240,1,52.5000020027161
32,152,105426,2,0,L|-48:104,1,52.5000020027161
24,56,105633,2,0,L|88:96,1,52.5000020027161
120,144,105840,2,0,L|184:96,1,52.5000020027161
256,104,106047,5,0,0:0:0:0:
376,200,106253,1,0,0:0:0:0:
248,296,106460,2,0,P|160:256|24:256,1,210.000008010865
80,96,107081,1,0,0:0:0:0:
240,80,107288,1,0,0:0:0:0:
312,224,107495,2,0,P|208:192|192:160,1,105.000004005432
136,64,107909,5,0,0:0:0:0:
48,192,108116,1,0,0:0:0:0:
144,312,108322,1,0,0:0:0:0:
168,312,108426,1,0,0:0:0:0:
192,312,108529,1,0,0:0:0:0:
216,312,108633,1,0,0:0:0:0:
240,312,108736,1,0,0:0:0:0:
264,312,108840,1,0,0:0:0:0:
288,312,108943,6,0,P|288:240|296:200,1,105.000004005432
240,96,109357,2,0,P|144:128|80:128,1,157.500006008148
24,128,109771,1,0,0:0:0:0:
96,256,109978,1,0,0:0:0:0:
240,216,110184,1,0,0:0:0:0:
256,72,110391,1,0,0:0:0:0:
240,216,110598,1,0,0:0:0:0:
152,96,110805,1,0,0:0:0:0:
240,216,111012,1,0,0:0:0:0:
96,208,111219,1,0,0:0:0:0:
240,216,111426,1,0,0:0:0:0:
144,328,111633,1,0,0:0:0:0:
240,216,111840,1,0,0:0:0:0:
320,336,112047,1,0,0:0:0:0:
384,200,112253,6,0,P|416:120|424:72,1,105.000004005432
272,88,112667,2,0,P|192:96|136:80,1,105.000004005432
120,104,112978,2,0,P|136:192|136:192,1,52.5000020027161
208,280,113288,1,0,0:0:0:0:
344,232,113495,2,0,L|400:184,1,52.5000020027161
312,176,113702,2,0,L|296:104,1,52.5000020027161
232,160,113909,2,0,L|160:128,1,52.5000020027161
208,280,114116,5,0,0:0:0:0:
160,224,114219,2,0,L|96:168,1,52.5000020027161
64,56,114529,1,0,0:0:0:0:
64,56,114633,1,0,0:0:0:0:
64,56,114736,1,0,0:0:0:0:
208,56,114943,1,0,0:0:0:0:
352,56,115150,1,0,0:0:0:0:
496,56,115357,5,0,0:0:0:0:
496,80,115460,1,0,0:0:0:0:
496,104,115564,1,0,0:0:0:0:
496,128,115667,1,0,0:0:0:0:
496,152,115771,1,0,0:0:0:0:
496,280,115978,6,0,B|320:256|352:256,1,105.000004005432
320,256,116288,1,0,0:0:0:0:
312,320,116391,2,0,L|432:344,1,105.000004005432
488,280,116805,1,0,0:0:0:0:
456,160,117012,5,0,0:0:0:0:
336,112,117219,1,0,0:0:0:0:
256,192,117426,12,0,118253,0:0:0:0:
120,200,118460,6,0,B|208:168|208:168|264:224|264:224|288:224,2,157.500006008148
184,312,119288,2,0,P|272:328|328:320,1,105.000004005432
392,256,119702,1,0,0:0:0:0:
288,328,119909,1,0,0:0:0:0:
184,312,120116,1,0,0:0:0:0:
152,192,120322,1,0,0:0:0:0:
152,192,120529,2,0,L|56:128,1,105.000004005432
0,120,120943,2,0,P|0:192|-8:240,1,105.000004005432
32,344,121357,2,0,P|120:344|176:352,1,105.000004005432
264,320,121771,1,0,0:0:0:0:
352,232,121978,1,0,0:0:0:0:
264,144,122184,1,0,0:0:0:0:
136,152,122391,5,0,0:0:0:0:
32,216,122598,2,0,P|-8:96|24:48,1,157.500006008148
96,120,123012,1,0,0:0:0:0:
208,176,123219,2,0,L|336:192,1,105.000004005432
424,280,123840,2,0,L|472:304,2,52.5000020027161
296,280,124253,2,0,P|192:280|144:272,1,105.000004005432
64,272,124667,2,0,L|88:168,1,105.000004005432
120,48,125081,1,0,0:0:0:0:
304,64,125702,5,0,0:0:0:0:
304,64,125909,2,0,L|376:152,1,105.000004005432
264,216,126322,2,0,L|208:128,1,105.000004005432
96,184,126736,2,0,L|168:304,1,105.000004005432
256,312,127150,5,0,0:0:0:0:
256,152,127357,1,0,0:0:0:0:
256,312,127564,1,0,0:0:0:0:
192,72,128184,2,0,P|296:96|312:96,1,105.000004005432
144,152,128598,2,0,P|104:112|104:64,1,105.000004005432
256,96,129012,2,0,L|312:168,1,52.5000020027161
304,160,129219,5,0,0:0:0:0:
207,236,129426,2,0,L|135:140,1,105.000004005432
56,240,129840,1,0,0:0:0:0:
56,240,130047,2,0,P|24:176|32:128,1,105.000004005432
136,80,130460,2,0,L|208:136,1,52.5000020027161
272,112,130667,2,0,L|328:64,1,52.5000020027161
384,96,130874,5,0,0:0:0:0:
472,216,131081,2,0,L|400:272,1,52.5000020027161
256,192,131391,2,0,L|304:232,1,52.5000020027161
176,304,131702,5,0,0:0:0:0:
64,208,131909,1,0,0:0:0:0:
64,64,132116,1,0,0:0:0:0:
104,64,132219,1,0,0:0:0:0:
144,64,132322,1,0,0:0:0:0:
184,64,132426,1,0,0:0:0:0:
224,64,132529,6,0,P|208:152|272:256,1,210.000008010865
328,144,133150,1,0,0:0:0:0:
328,144,133357,2,0,L|104:192,1,210.000008010865
144,312,133978,1,0,0:0:0:0:
144,312,134184,2,0,L|360:256,1,210.000008010865
424,160,134805,1,0,0:0:0:0:
312,104,135012,1,0,0:0:0:0:
200,160,135219,1,0,0:0:0:0:
248,280,135426,1,0,0:0:0:0:
376,288,135633,1,0,0:0:0:0:
440,176,135840,6,0,P|400:112|392:-32,2,210.000008010865
280,184,136874,1,0,0:0:0:0:
144,112,137081,1,0,0:0:0:0:
8,192,137288,1,0,0:0:0:0:
120,296,137495,1,0,0:0:0:0:
240,192,137702,1,0,0:0:0:0:
336,312,137909,1,0,0:0:0:0:
456,208,138116,1,0,0:0:0:0:
336,312,138322,1,0,0:0:0:0:
240,192,138529,1,0,0:0:0:0:
120,288,138736,6,0,P|112:224|80:160,1,105.000004005432
32,112,139150,2,0,P|128:112|240:48,1,210.000008010865
344,120,139771,1,0,0:0:0:0:
368,248,139978,1,0,0:0:0:0:
448,192,140184,2,0,P|384:248|336:240,2,105.000004005432
328,144,140805,2,0,P|248:136|136:24,1,210.000008010865
48,128,141426,2,0,P|72:208|64:264,1,105.000004005432
184,280,141840,2,0,P|184:192|216:152,2,105.000004005432
304,248,142460,6,0,P|400:160|408:56,2,210.000008010865
176,248,143495,1,0,0:0:0:0:
88,160,143702,1,0,0:0:0:0:
16,264,143909,1,0,0:0:0:0:
16,264,144116,2,0,P|88:304|128:344,1,105.000004005432
232,320,144529,1,0,0:0:0:0:
232,320,144736,1,0,0:0:0:0:
336,200,144943,1,0,0:0:0:0:
336,200,145150,1,0,0:0:0:0:
104,152,145357,1,0,0:0:0:0:
264,168,145564,1,0,0:0:0:0:
104,152,145771,6,0,P|64:72|-80:40,2,210.000008010865
56,304,146805,2,0,L|184:312,1,105.000004005432
320,320,147219,2,0,P|296:192|352:112,1,210.000008010865
440,248,147840,1,0,0:0:0:0:
336,128,148047,1,0,0:0:0:0:
320,320,148253,1,0,0:0:0:0:
256,192,148460,1,0,0:0:0:0:
176,72,148667,6,0,L|288:96,1,105.000004005432
256,192,149081,6,0,B|160:176|160:176|136:216|136:216|72:184,2,210.000008010865
400,200,150116,2,0,B|384:288|384:288|408:344|416:344,1,105.000004005432
480,328,150529,1,0,0:0:0:0:
400,200,150943,5,0,0:0:0:0:
256,64,151150,2,0,L|352:144,1,105.000004005432
96,192,151564,2,0,L|216:192,1,105.000004005432
256,336,151978,2,0,L|344:280,1,105.000004005432
472,192,152391,5,0,0:0:0:0:
312,192,152598,1,0,0:0:0:0:
152,192,152805,1,0,0:0:0:0:
8,192,153012,1,0,0:0:0:0:
136,96,153219,2,0,L|216:24,1,105.000004005432
240,192,153633,2,0,L|160:288,1,105.000004005432
216,120,154047,5,0,0:0:0:0:
328,80,154253,1,0,0:0:0:0:
376,184,154460,1,0,0:0:0:0:
312,280,154667,1,0,0:0:0:0:
208,224,154874,1,0,0:0:0:0:
216,120,155081,2,0,L|120:40,2,105.000004005432
256,152,155702,5,0,0:0:0:0:
272,168,155805,1,0,0:0:0:0:
296,184,155909,1,0,0:0:0:0:
320,192,156012,1,0,0:0:0:0:
344,192,156116,1,0,0:0:0:0:
368,192,156219,1,0,0:0:0:0:
392,192,156322,1,0,0:0:0:0:
416,184,156426,1,0,0:0:0:0:
432,168,156529,1,0,0:0:0:0:
448,152,156633,1,0,0:0:0:0:
464,136,156736,1,0,0:0:0:0:
480,112,156840,1,0,0:0:0:0:
256,192,156943,12,0,159012,0:0:0:0:
80,96,159426,5,0,0:0:0:0:
80,96,159633,2,0,L|168:136,1,52.5000020027161
176,136,159840,1,0,0:0:0:0:
184,344,160253,5,0,0:0:0:0:
184,344,160460,2,0,L|272:344,1,52.5000020027161
328,344,160667,2,0,P|312:272|400:152,1,210.000008010865
440,344,161288,5,0,0:0:0:0:
360,240,161391,1,0,0:0:0:0:
360,240,161495,1,0,0:0:0:0:
296,344,161702,1,0,0:0:0:0:
224,240,161909,1,0,0:0:0:0:
152,344,162116,1,0,0:0:0:0:
64,240,162322,5,0,0:0:0:0:
64,240,162529,2,0,P|88:184|80:128,1,105.000004005432
208,136,162943,2,0,P|208:208|216:224,1,52.5000020027161
216,248,163150,1,0,0:0:0:0:
344,256,163357,2,0,P|344:192|336:168,1,52.5000020027161
344,136,163564,1,0,0:0:0:0:
248,48,163771,5,0,0:0:0:0:
272,88,163874,1,0,0:0:0:0:
280,128,163978,1,0,0:0:0:0:
248,208,164184,1,0,0:0:0:0:
216,176,164288,1,0,0:0:0:0:
200,136,164391,1,0,0:0:0:0:
288,280,164598,1,0,0:0:0:0:
288,280,164805,2,0,L|408:240,1,105.000004005432
400,160,165219,6,0,L|344:120,3,52.5000020027161
288,112,165633,2,0,P|152:128|80:96,1,210.000008010865
72,248,166253,1,0,0:0:0:0:
72,248,166357,1,0,0:0:0:0:
72,248,166460,2,0,P|184:240|312:256,1,210.000008010865
424,216,167081,6,0,L|384:160,1,52.5000020027161
352,112,167288,1,0,0:0:0:0:
328,96,167391,1,0,0:0:0:0:
304,88,167495,1,0,0:0:0:0:
280,88,167598,1,0,0:0:0:0:
256,88,167702,1,0,0:0:0:0:
232,96,167805,1,0,0:0:0:0:
216,112,167909,1,0,0:0:0:0:
200,136,168012,1,0,0:0:0:0:
192,160,168116,6,0,L|136:120,3,52.5000020027161
192,192,168529,2,0,L|128:192,3,52.5000020027161
192,232,168943,2,0,L|112:264,3,52.5000020027161
216,248,169357,2,0,L|192:296,3,52.5000020027161
272,304,169771,5,0,0:0:0:0:
296,304,169874,1,0,0:0:0:0:
320,304,169978,1,0,0:0:0:0:
344,304,170081,1,0,0:0:0:0:
368,304,170184,1,0,0:0:0:0:
392,304,170288,1,0,0:0:0:0:
416,304,170391,1,0,0:0:0:0:
440,304,170495,1,0,0:0:0:0:
440,224,170598,6,0,L|376:160,1,52.5000020027161
344,128,170805,1,0,0:0:0:0:
200,200,171012,2,0,L|256:280,1,52.5000020027161
272,304,171219,1,0,0:0:0:0:
120,336,171426,2,0,L|80:264,1,52.5000020027161
56,224,171633,1,0,0:0:0:0:
256,192,171840,5,0,0:0:0:0:
256,192,172253,5,0,0:0:0:0:
360,128,172460,1,0,0:0:0:0:
448,216,172667,1,0,0:0:0:0:
384,328,172874,1,0,0:0:0:0:
256,312,173081,1,0,0:0:0:0:
176,216,173288,5,0,0:0:0:0:
144,160,173391,1,0,0:0:0:0:
112,104,173495,1,0,0:0:0:0:
232,72,173702,1,0,0:0:0:0:
232,72,173909,2,0,L|344:264,1,210.000008010865
408,152,174529,1,0,0:0:0:0:
376,96,174633,1,0,0:0:0:0:
320,64,174736,2,0,L|232:56,2,52.5000020027161
408,152,175150,5,0,0:0:0:0:
337,253,175357,1,0,0:0:0:0:
232,176,175564,1,0,0:0:0:0:
104,152,175771,2,0,L|40:128,1,52.5000020027161
104,216,175978,2,0,L|40:216,1,52.5000020027161
104,280,176184,2,0,L|40:304,1,52.5000020027161
136,344,176391,5,0,0:0:0:0:
176,128,176598,1,0,0:0:0:0:
256,128,176702,1,0,0:0:0:0:
336,128,176805,1,0,0:0:0:0:
256,264,177012,1,0,0:0:0:0:
176,128,177219,2,0,P|208:56|216:32,1,105.000004005432
296,48,177529,1,0,0:0:0:0:
296,48,177633,1,0,0:0:0:0:
272,168,177840,6,0,L|368:176,3,52.5000020027161
400,176,178253,1,0,0:0:0:0:
328,312,178460,1,0,0:0:0:0:
272,168,178667,1,0,0:0:0:0:
136,96,178874,5,0,0:0:0:0:
136,96,179081,2,0,P|128:168|88:208,1,105.000004005432
240,280,179495,2,0,P|240:208|256:144,1,105.000004005432
392,112,179909,1,0,0:0:0:0:
384,152,180012,1,0,0:0:0:0:
368,192,180116,1,0,0:0:0:0:
328,264,180322,5,0,0:0:0:0:
328,264,180529,2,0,P|200:256|160:320,1,210.000008010865
80,288,181150,1,0,0:0:0:0:
88,248,181253,1,0,0:0:0:0:
104,208,181357,1,0,0:0:0:0:
144,136,181564,1,0,0:0:0:0:
280,56,181771,1,0,0:0:0:0:
344,200,181978,1,0,0:0:0:0:
256,328,182184,6,0,P|200:280|192:232,2,105.000004005432
304,176,182805,1,0,0:0:0:0:
304,176,183012,1,0,0:0:0:0:
256,24,183219,2,0,L|296:80,2,52.5000020027161
304,176,183633,1,0,0:0:0:0:
176,264,183840,1,0,0:0:0:0:
168,104,184047,5,0,0:0:0:0:
200,80,184150,1,0,0:0:0:0:
240,88,184253,1,0,0:0:0:0:
304,144,184460,1,0,0:0:0:0:
336,168,184564,1,0,0:0:0:0:
336,208,184667,1,0,0:0:0:0:
208,184,184874,6,0,L|88:272,2,105.000004005432
256,192,185391,12,0,186943,0:0:0:0:
