osu file format v14

[General]
AudioFilename: audio.mp3
AudioLeadIn: 0
PreviewTime: 73987
Countdown: 0
SampleSet: Soft
StackLeniency: 0.7
Mode: 0
LetterboxInBreaks: 0
WidescreenStoryboard: 0

[Editor]
Bookmarks: 1076,19537,37999,56460,74922,93383,111845,130306,148768,167229,181076,185691,204152,222614
DistanceSpacing: 1.5
BeatDivisor: 4
GridSize: 16
TimelineZoom: 1.4

[Metadata]
Title:Good Day feat. DJ Snake & Elliphant
TitleUnicode:Good Day feat. DJ Snake & Elliphant
Artist:Yellow Claw
ArtistUnicode:Yellow Claw
Creator:Xen
Version:Noble
Source:
Tags:los amsterdam dance electronic edm english now im free xenon- xehn
BeatmapID:2173973
BeatmapSetID:1040120

[Difficulty]
HPDrainRate:5
CircleSize:4.4
OverallDifficulty:8.5
ApproachRate:9.2
SliderMultiplier:2
SliderTickRate:1

[Events]
//Background and Video events
0,0,"bg.jpg",0,0
//Break Periods
//Storyboard Layer 0 (Background)
//Storyboard Layer 1 (Fail)
//Storyboard Layer 2 (Pass)
//Storyboard Layer 3 (Foreground)
//Storyboard Layer 4 (Overlay)
//Storyboard Sound Samples

[TimingPoints]
1076,576.923076923077,4,2,2,40,1,0
1076,-133.333333333333,4,2,2,40,0,0
17229,-222.222222222222,4,2,2,40,0,0
18960,-333.333333333333,4,2,2,40,0,0
19537,-71.4285714285714,4,2,2,55,0,0
20402,-142.857142857143,4,2,2,55,0,0
20691,-90.9090909090909,4,2,2,55,0,0
20979,-71.4285714285714,4,2,2,55,0,0
22999,-90.9090909090909,4,2,2,55,0,0
23576,-71.4285714285714,4,2,2,55,0,0
23864,-90.9090909090909,4,2,2,55,0,0
24441,-142.857142857143,4,2,2,55,0,0
24729,-71.4285714285714,4,2,2,55,0,0
26749,-142.857142857143,4,2,2,55,0,0
27037,-83.3333333333333,4,2,2,55,0,0
27614,-142.857142857143,4,2,2,55,0,0
27902,-47.6190476190476,4,2,2,55,0,0
28479,-90.9090909090909,4,2,2,55,0,0
29345,-71.4285714285714,4,2,2,55,0,0
29633,-142.857142857143,4,2,2,55,0,0
29922,-90.9090909090909,4,2,2,55,0,0
30210,-142.857142857143,4,2,2,55,0,0
30499,-71.4285714285714,4,2,2,55,0,0
32229,-90.9090909090909,4,2,2,55,0,0
32806,-71.4285714285714,4,2,2,55,0,0
33095,-90.9090909090909,4,2,2,55,0,0
33672,-142.857142857143,4,2,2,55,0,0
33960,-71.4285714285714,4,2,2,55,0,0
35980,-142.857142857143,4,2,2,55,0,0
36268,-83.3333333333333,4,2,2,55,0,0
36845,-142.857142857143,4,2,2,55,0,0
37133,-47.6190476190476,4,2,2,55,0,0
37710,-90.9090909090909,4,2,2,55,0,0
37999,-62.5,4,2,2,65,0,0
38576,-50,4,2,2,65,0,0
38864,-90.9090909090909,4,2,2,65,0,0
40306,-62.5,4,2,2,65,0,0
40883,-50,4,2,2,65,0,0
41172,-90.9090909090909,4,2,2,65,0,0
41460,-62.5,4,2,2,65,0,0
41749,-90.9090909090909,4,2,2,65,0,0
42614,-62.5,4,2,2,65,0,0
44056,-142.857142857143,4,2,2,65,0,0
44345,-50,4,2,2,65,0,0
46364,-90.9090909090909,4,2,2,65,0,0
47229,-62.5,4,2,2,65,0,0
48672,-90.9090909090909,4,2,2,65,0,0
49537,-62.5,4,2,2,65,0,0
50114,-50,4,2,2,65,0,0
50691,-62.5,4,2,2,65,0,0
51845,-62.5,4,2,2,65,0,0
52422,-50,4,2,2,65,0,0
53864,-90.9090909090909,4,2,2,65,0,0
54152,-62.5,4,2,2,65,0,0
54441,-90.9090909090909,4,2,2,65,0,0
54729,-55.5555555555556,4,2,2,65,0,0
55018,-90.9090909090909,4,2,2,65,0,0
55595,-62.5,4,2,2,65,0,0
56460,-166.666666666667,4,2,2,55,0,0
57902,-111.111111111111,4,2,2,55,0,0
58191,-90.9090909090909,4,2,2,55,0,0
58768,-166.666666666667,4,2,2,55,0,0
59922,-111.111111111111,4,2,2,55,0,0
60643,-76.9230769230769,4,2,2,55,0,0
61076,-90.9090909090909,4,2,2,55,0,0
62229,-111.111111111111,4,2,2,55,0,0
62806,-90.9090909090909,4,2,2,55,0,0
63383,-90.9090909090909,4,2,2,55,0,0
64536,-111.111111111111,4,2,2,55,0,0
65113,-76.9230769230769,4,2,2,55,0,0
65691,-83.3333333333333,4,2,2,60,0,0
67999,-66.6666666666667,4,2,2,60,0,0
68864,-90.9090909090909,4,2,2,60,0,0
69874,-74.0740740740741,4,2,2,60,0,0
70306,-74.0740740740741,4,2,2,65,0,0
71315,-111.111111111111,4,2,2,65,0,0
71460,-58.8235294117647,4,2,2,65,0,0
72470,-111.111111111111,4,2,2,65,0,0
72758,-58.8235294117647,4,2,2,65,0,0
73479,-83.3333333333333,4,2,2,65,0,0
73768,-47.6190476190476,4,2,2,65,0,0
73912,-47.6190476190476,4,2,2,20,0,0
74922,-37.037037037037,4,2,2,80,0,1
75210,-111.111111111111,4,2,2,80,0,1
76364,-47.6190476190476,4,2,2,80,0,1
76652,-111.111111111111,4,2,2,80,0,1
77229,-62.5,4,2,2,80,0,1
77518,-111.111111111111,4,2,2,80,0,1
78383,-62.5,4,2,2,80,0,1
78672,-111.111111111111,4,2,2,80,0,1
79537,-35.7142857142857,4,2,2,80,0,1
79826,-90.9090909090909,4,2,2,80,0,1
80979,-47.6190476190476,4,2,2,80,0,1
81267,-111.111111111111,4,2,2,80,0,1
82133,-62.5,4,2,2,80,0,1
83287,-47.6190476190476,4,2,2,80,0,1
84152,-37.037037037037,4,2,2,80,0,1
84441,-111.111111111111,4,2,2,80,0,1
85595,-47.6190476190476,4,2,2,80,0,1
85883,-111.111111111111,4,2,2,80,0,1
86749,-47.6190476190476,4,2,2,80,0,1
87614,-62.5,4,2,2,80,0,1
87902,-111.111111111111,4,2,2,80,0,1
88768,-35.7142857142857,4,2,2,80,0,1
89056,-90.9090909090909,4,2,2,80,0,1
90210,-47.6190476190476,4,2,2,80,0,1
90499,-111.111111111111,4,2,2,80,0,1
91076,-111.111111111111,4,2,2,50,0,0
93383,-71.4285714285714,4,2,2,55,0,0
94248,-142.857142857143,4,2,2,55,0,0
94537,-90.9090909090909,4,2,2,55,0,0
94825,-71.4285714285714,4,2,2,55,0,0
96845,-55.5555555555556,4,2,2,55,0,0
97422,-60.6060606060606,4,2,2,55,0,0
97710,-80,4,2,2,55,0,0
98287,-142.857142857143,4,2,2,55,0,0
98575,-71.4285714285714,4,2,2,55,0,0
100595,-142.857142857143,4,2,2,55,0,0
100883,-83.3333333333333,4,2,2,55,0,0
101460,-142.857142857143,4,2,2,55,0,0
101748,-43.4782608695652,4,2,2,55,0,0
102325,-90.9090909090909,4,2,2,55,0,0
103191,-64.5161290322581,4,2,2,55,0,0
103479,-142.857142857143,4,2,2,55,0,0
103768,-90.9090909090909,4,2,2,55,0,0
104056,-142.857142857143,4,2,2,55,0,0
104345,-71.4285714285714,4,2,2,55,0,0
105499,-62.5,4,2,2,55,0,0
105787,-76.9230769230769,4,2,2,55,0,0
106075,-66.6666666666667,4,2,2,55,0,0
106652,-71.4285714285714,4,2,2,55,0,0
106941,-142.857142857143,4,2,2,55,0,0
107518,-90.9090909090909,4,2,2,55,0,0
107806,-71.4285714285714,4,2,2,55,0,0
110114,-64.5161290322581,4,2,2,55,0,0
110691,-142.857142857143,4,2,2,55,0,0
110979,-43.4782608695652,4,2,2,55,0,0
111556,-90.9090909090909,4,2,2,55,0,0
111845,-62.5,4,2,2,65,0,0
112422,-50,4,2,2,65,0,0
112710,-90.9090909090909,4,2,2,65,0,0
114152,-57.1428571428571,4,2,2,65,0,0
114729,-50,4,2,2,65,0,0
115018,-90.9090909090909,4,2,2,65,0,0
115306,-62.5,4,2,2,65,0,0
115595,-90.9090909090909,4,2,2,65,0,0
116460,-62.5,4,2,2,65,0,0
117902,-142.857142857143,4,2,2,65,0,0
118191,-50,4,2,2,65,0,0
120210,-90.9090909090909,4,2,2,65,0,0
121075,-62.5,4,2,2,65,0,0
122518,-90.9090909090909,4,2,2,65,0,0
123383,-62.5,4,2,2,65,0,0
123960,-50,4,2,2,65,0,0
124537,-62.5,4,2,2,65,0,0
125691,-62.5,4,2,2,65,0,0
126268,-50,4,2,2,65,0,0
127710,-90.9090909090909,4,2,2,65,0,0
127998,-62.5,4,2,2,65,0,0
128287,-90.9090909090909,4,2,2,65,0,0
128575,-55.5555555555556,4,2,2,65,0,0
128864,-90.9090909090909,4,2,2,65,0,0
129441,-62.5,4,2,2,65,0,0
130306,-166.666666666667,4,2,2,55,0,0
131748,-111.111111111111,4,2,2,55,0,0
132037,-90.9090909090909,4,2,2,55,0,0
132614,-166.666666666667,4,2,2,55,0,0
133768,-111.111111111111,4,2,2,55,0,0
134489,-76.9230769230769,4,2,2,55,0,0
134922,-90.9090909090909,4,2,2,55,0,0
136075,-111.111111111111,4,2,2,55,0,0
136652,-90.9090909090909,4,2,2,55,0,0
137229,-90.9090909090909,4,2,2,55,0,0
138382,-111.111111111111,4,2,2,55,0,0
138959,-76.9230769230769,4,2,2,55,0,0
139537,-83.3333333333333,4,2,2,60,0,0
141845,-66.6666666666667,4,2,2,60,0,0
142710,-90.9090909090909,4,2,2,60,0,0
143720,-74.0740740740741,4,2,2,60,0,0
144152,-74.0740740740741,4,2,2,65,0,0
145161,-111.111111111111,4,2,2,65,0,0
145306,-58.8235294117647,4,2,2,65,0,0
146316,-111.111111111111,4,2,2,65,0,0
146604,-58.8235294117647,4,2,2,65,0,0
147325,-83.3333333333333,4,2,2,65,0,0
147614,-40.8163265306122,4,2,2,65,0,0
147758,-40.8163265306122,4,2,2,20,0,0
148768,-37.037037037037,4,2,2,80,0,1
149056,-111.111111111111,4,2,2,80,0,1
150210,-47.6190476190476,4,2,2,80,0,1
150498,-111.111111111111,4,2,2,80,0,1
151075,-62.5,4,2,2,80,0,1
151364,-111.111111111111,4,2,2,80,0,1
152229,-62.5,4,2,2,80,0,1
152518,-111.111111111111,4,2,2,80,0,1
153383,-35.7142857142857,4,2,2,80,0,1
153672,-90.9090909090909,4,2,2,80,0,1
154825,-47.6190476190476,4,2,2,80,0,1
155113,-111.111111111111,4,2,2,80,0,1
155979,-62.5,4,2,2,80,0,1
157133,-47.6190476190476,4,2,2,80,0,1
157998,-37.037037037037,4,2,2,80,0,1
158287,-111.111111111111,4,2,2,80,0,1
159441,-47.6190476190476,4,2,2,80,0,1
159729,-111.111111111111,4,2,2,80,0,1
160595,-47.6190476190476,4,2,2,80,0,1
161460,-62.5,4,2,2,80,0,1
161748,-111.111111111111,4,2,2,80,0,1
162614,-35.7142857142857,4,2,2,80,0,1
162902,-90.9090909090909,4,2,2,80,0,1
164056,-50,4,2,2,80,0,1
164345,-111.111111111111,4,2,2,80,0,1
165210,-62.5,4,2,2,80,0,1
166364,-47.6190476190476,4,2,2,80,0,1
167229,-181.818181818182,4,2,2,50,0,0
169537,-161.290322580645,4,2,2,50,0,0
176460,-169.491525423729,4,2,2,50,0,0
178768,-153.846153846154,4,2,2,50,0,0
181076,-66.6666666666667,4,2,2,60,0,0
182085,-55.5555555555556,4,2,2,60,0,0
182518,-90.9090909090909,4,2,2,60,0,0
183239,-111.111111111111,4,2,2,60,0,0
183383,-55.5555555555556,4,2,2,60,0,0
184537,-111.111111111111,4,2,2,60,0,0
185114,-40,4,2,2,60,0,0
185258,-40,4,2,2,20,0,0
185691,-47.6190476190476,4,2,2,70,0,1
186845,-58.8235294117647,4,2,2,70,0,1
187133,-76.9230769230769,4,2,2,70,0,1
187422,-47.6190476190476,4,2,2,70,0,1
196076,-58.8235294117647,4,2,2,70,0,1
196364,-76.9230769230769,4,2,2,70,0,1
196653,-47.6190476190476,4,2,2,70,0,1
204152,-83.3333333333333,4,2,2,40,0,0
204441,-200,4,2,2,40,0,0
204729,-83.3333333333333,4,2,2,40,0,0
205018,-200,4,2,2,40,0,0
205306,-83.3333333333333,4,2,2,40,0,0
205595,-200,4,2,2,40,0,0
205883,-83.3333333333333,4,2,2,40,0,0
206172,-200,4,2,2,40,0,0
206460,-83.3333333333333,4,2,2,40,0,0
206749,-200,4,2,2,40,0,0
207037,-83.3333333333333,4,2,2,40,0,0
207326,-200,4,2,2,40,0,0
207614,-83.3333333333333,4,2,2,40,0,0
207902,-200,4,2,2,40,0,0
208191,-83.3333333333333,4,2,2,40,0,0
208479,-200,4,2,2,40,0,0
208768,-83.3333333333333,4,2,2,40,0,0
209345,-200,4,2,2,40,0,0
209922,-83.3333333333333,4,2,2,40,0,0
210499,-200,4,2,2,40,0,0
213383,-111.111111111111,4,2,2,40,0,0
213960,-83.3333333333333,4,2,2,40,0,0
214249,-200,4,2,2,40,0,0
214537,-111.111111111111,4,2,2,40,0,0
215114,-83.3333333333333,4,2,2,40,0,0
215402,-200,4,2,2,40,0,0
215691,-111.111111111111,4,2,2,40,0,0
218576,-200,4,2,2,40,0,0
219152,-111.111111111111,4,2,2,40,0,0
219729,-200,4,2,2,40,0,0
220306,-188.679245283019,4,2,2,40,0,0
222614,-188.679245283019,4,2,2,20,0,0

[Colours]
Combo1 : 251,160,103
Combo2 : 114,142,186
Combo3 : 216,60,73
Combo4 : 38,48,117

[HitObjects]
96,131,10306,6,0,B|66:67|66:67|199:108|199:108|155:146|173:205,1,300.000011444092,2|0,0:0|0:0,0:0:0:0:
426,36,12614,6,0,B|411:85|368:104|368:104|323:36|253:55|253:55|284:85|283:119,1,300.000011444092,2|0,0:0|0:0,0:0:0:0:
423,303,14922,6,0,B|462:243|390:170|390:170|303:223|327:291,1,300.000011444092,2|0,0:0|0:0,0:0:0:0:
163,345,17229,6,0,L|152:256,1,89.9999972534181,2|0,0:0|0:0,0:0:0:0:
253,179,18960,6,0,L|252:193,2,14.9999995422363,12|0|0,0:0|0:0|0:0,0:0:0:0:
196,267,19537,6,0,B|252:226|252:226|313:259,1,139.999995727539,0|2,1:0|0:0,0:0:0:0:
259,319,19970,1,0,0:0:0:0:
332,178,20114,5,8,0:0:0:0:
341,186,20402,2,0,L|333:122,1,34.9999989318848,2|0,0:0|0:0,0:0:0:0:
444,97,20691,5,0,1:0:0:0:
451,107,20979,2,0,P|420:86|374:99,1,69.9999978637696,2|0,0:0|0:0,0:0:0:0:
345,220,21268,6,0,L|329:92,1,69.9999978637696,8|0,0:0|0:0,0:0:0:0:
215,137,21556,2,0,P|239:109|287:110,1,69.9999978637696,2|0,0:0|0:0,0:0:0:0:
144,29,21845,6,0,P|155:64|130:105,1,69.9999978637696,0|0,1:0|0:0,0:0:0:0:
67,199,22133,1,2,0:0:0:0:
143,174,22277,1,0,0:0:0:0:
177,280,22422,5,8,0:0:0:0:
169,271,22710,2,0,L|160:340,1,69.9999978637696,2|0,0:0|0:0,0:0:0:0:
274,179,22999,6,0,B|240:205|240:205|252:300,1,110.000003356934,0|2,1:0|0:0,0:0:0:0:
324,244,23431,1,0,0:0:0:0:
165,184,23576,6,0,P|136:203|102:200,1,69.9999978637696,8|0,0:0|0:0,0:0:0:0:
86,123,23864,2,0,P|108:107|135:110,1,55.0000016784668,2|0,0:0|0:0,0:0:0:0:
242,207,24152,5,0,1:0:0:0:
250,218,24441,2,0,L|245:252,1,34.9999989318848,2|0,0:0|0:0,0:0:0:0:
387,184,24729,6,0,P|320:175|297:113,1,139.999995727539,8|2,0:0|0:0,0:0:0:0:
360,62,25162,1,0,0:0:0:0:
218,144,25306,5,0,1:0:0:0:
225,155,25595,1,2,0:0:0:0:
148,133,25739,1,0,0:0:0:0:
85,258,25883,6,0,B|133:208|133:208|199:230,1,139.999995727539,8|2,0:0|0:0,0:0:0:0:
156,298,26316,1,0,0:0:0:0:
71,158,26460,5,0,1:0:0:0:
64,166,26749,2,0,L|68:131,1,34.9999989318848,2|0,0:0|0:0,0:0:0:0:
135,22,27037,6,0,L|152:164,1,119.999996337891,8|2,0:0|0:0,0:0:0:0:
219,182,27470,1,0,0:0:0:0:
123,253,27614,2,0,L|127:218,1,34.9999989318848,0|0,1:0|0:0,0:0:0:0:
225,103,27902,6,0,B|218:52|218:52|220:50|220:50|214:0,1,104.999996795654,12|0,0:3|0:0,0:0:0:0:
389,143,28191,2,0,B|382:193|382:193|384:195|384:195|378:245,1,104.999996795654,12|0,0:3|0:0,0:0:0:0:
294,156,28479,6,0,L|300:210,1,55.0000016784668,2|0,0:0|0:0,0:0:0:0:
432,301,28768,6,0,P|384:280|347:316,1,110.000003356934,0|2,1:0|0:0,0:0:0:0:
403,375,29201,1,0,0:0:0:0:
449,214,29345,6,0,B|486:188|486:188|475:92,1,139.999995727539,8|2,0:0|0:0,0:0:0:0:
407,51,29777,1,0,0:0:0:0:
300,107,29922,5,0,1:0:0:0:
307,96,30210,2,0,L|341:99,1,34.9999989318848,2|0,0:0|0:0,0:0:0:0:
449,214,30499,6,0,L|379:222,1,69.9999978637696,8|0,0:0|0:0,0:0:0:0:
263,165,30787,2,0,P|292:186|294:234,1,69.9999978637696,2|0,0:0|0:0,0:0:0:0:
351,355,31076,6,0,P|330:324|344:278,1,69.9999978637696,0|0,1:0|0:0,0:0:0:0:
407,138,31364,1,2,0:0:0:0:
331,113,31508,1,0,0:0:0:0:
186,151,31652,5,8,0:0:0:0:
178,160,31941,2,0,L|169:91,1,69.9999978637696,2|0,0:0|0:0,0:0:0:0:
3,166,32229,6,0,B|29:132|29:132|124:144,1,110.000003356934,0|2,1:0|0:0,0:0:0:0:
68,216,32662,1,0,0:0:0:0:
62,355,32806,6,0,P|43:326|46:292,1,69.9999978637696,8|0,0:0|0:0,0:0:0:0:
123,276,33095,2,0,P|139:298|136:325,1,55.0000016784668,2|0,0:0|0:0,0:0:0:0:
218,286,33383,5,0,1:0:0:0:
227,278,33672,2,0,L|261:283,1,34.9999989318848,2|0,0:0|0:0,0:0:0:0:
361,221,33960,6,0,P|294:230|271:292,1,139.999995727539,8|2,0:0|0:0,0:0:0:0:
334,343,34393,1,0,0:0:0:0:
213,201,34537,5,0,1:0:0:0:
206,212,34826,1,2,0:0:0:0:
184,135,34970,1,0,0:0:0:0:
141,50,35114,6,0,B|189:100|189:100|255:78,1,139.999995727539,8|2,0:0|0:0,0:0:0:0:
212,10,35547,1,0,0:0:0:0:
334,86,35691,5,0,1:0:0:0:
407,52,35835,1,0,0:0:0:0:
495,127,35979,1,2,0:0:0:0:
327,95,36124,1,0,3:0:0:0:
275,155,36268,6,0,L|292:297,1,119.999996337891,8|2,0:0|0:0,0:0:0:0:
359,315,36701,1,0,0:0:0:0:
222,361,36845,2,0,L|226:326,1,34.9999989318848,0|2,1:0|0:0,0:0:0:0:
366,236,37133,6,0,B|359:185|359:185|361:183|361:183|355:133,1,104.999996795654,12|0,0:3|0:0,0:0:0:0:
205,60,37422,2,0,B|198:110|198:110|200:112|200:112|194:162,1,104.999996795654,12|0,0:3|0:0,0:0:0:0:
110,73,37710,6,0,L|116:127,1,55.0000016784668,2|0,0:0|0:0,0:0:0:0:
275,10,37999,5,4,1:2:0:0:
304,81,38143,1,0,0:0:0:0:
378,105,38287,1,2,0:0:0:0:
444,65,38431,1,0,0:0:0:0:
317,160,38576,6,0,L|332:287,1,100,8|0,0:0|0:0,0:0:0:0:
449,312,38864,2,0,B|426:296|426:296|400:302,1,55.0000016784668,2|0,0:0|0:0,0:0:0:0:
244,196,39152,5,0,1:0:0:0:
403,222,39297,1,2,0:0:0:0:
457,162,39441,2,0,L|449:98,1,55.0000016784668,2|0,0:0|0:0,0:0:0:0:
329,259,39729,5,8,0:0:0:0:
167,281,39874,1,2,0:0:0:0:
229,231,40018,1,2,0:0:0:0:
241,311,40162,1,0,0:0:0:0:
152,201,40306,6,0,P|82:177|36:237,1,160,0|2,1:0|0:0,0:0:0:0:
59,103,40739,1,0,0:0:0:0:
156,18,40883,6,0,B|126:57|126:57|144:103,1,100,8|0,0:0|0:0,0:0:0:0:
272,79,41172,2,0,L|192:69,1,55.0000016784668,2|0,0:0|0:0,0:0:0:0:
220,233,41460,6,0,L|210:153,1,80,0|0,1:0|0:0,0:0:0:0:
80,178,41749,2,0,L|134:184,1,55.0000016784668,2|0,0:0|0:0,0:0:0:0:
291,314,42037,5,8,0:0:0:0:
297,238,42181,1,0,0:0:0:0:
220,233,42326,1,2,0:0:0:0:
215,309,42470,1,0,0:0:0:0:
357,183,42614,6,0,P|372:109|445:90,1,160,0|2,1:0|0:0,0:0:0:0:
498,152,43047,1,0,0:0:0:0:
343,30,43191,5,8,0:0:0:0:
350,21,43479,1,2,0:0:0:0:
271,38,43624,1,0,0:0:0:0:
168,60,43768,6,0,L|158:139,1,80,0|0,1:0|0:0,0:0:0:0:
79,33,44056,2,0,L|83:67,1,34.9999989318848,2|0,0:0|0:0,0:0:0:0:
25,212,44345,6,0,B|76:238|115:195|115:195|155:153|206:179,1,200,8|2,0:0|0:0,0:0:0:0:
175,253,44777,1,0,0:0:0:0:
227,103,44922,5,0,1:0:0:0:
304,88,45066,1,0,0:0:0:0:
222,89,45210,1,2,0:0:0:0:
299,102,45354,1,0,0:0:0:0:
383,15,45499,6,0,B|328:51|328:51|346:202,1,200,8|2,0:0|0:0,0:0:0:0:
418,152,45931,1,0,0:0:0:0:
264,169,46076,5,0,1:0:0:0:
254,180,46364,2,0,P|231:165|203:163,1,55.0000016784668,2|0,0:0|0:0,0:0:0:0:
0,143,46652,5,8,0:0:0:0:
139,117,46797,1,2,0:0:0:0:
162,231,46941,1,2,0:0:0:0:
96,186,47085,1,0,0:0:0:0:
187,51,47229,6,0,L|385:75,1,160,0|2,1:0|0:0,0:0:0:0:
413,26,47662,1,0,0:0:0:0:
257,138,47806,5,8,0:0:0:0:
267,147,48095,1,2,0:0:0:0:
256,226,48239,1,0,0:0:0:0:
334,350,48383,6,0,L|320:238,1,80,0|0,1:0|0:0,0:0:0:0:
436,158,48672,1,2,0:0:0:0:
406,281,48816,1,2,0:0:0:0:
467,231,48960,5,8,0:0:0:0:
307,192,49104,1,2,0:0:0:0:
203,166,49249,1,2,0:0:0:0:
226,89,49393,1,0,0:0:0:0:
132,202,49537,6,0,P|80:176|32:270,1,160,0|2,1:0|0:0,0:0:0:0:
41,104,49970,1,0,0:0:0:0:
97,273,50114,6,0,B|125:333|125:333|276:315,1,200,8|2,0:0|0:0,0:0:0:0:
318,370,50547,1,0,0:0:0:0:
205,245,50691,6,0,L|219:133,1,80,0|0,1:0|0:0,0:0:0:0:
343,44,50979,1,2,0:0:0:0:
201,88,51124,1,2,0:0:0:0:
188,11,51268,5,8,0:0:0:0:
375,120,51412,1,2,0:0:0:0:
214,165,51556,1,2,0:0:0:0:
201,88,51701,1,0,0:0:0:0:
355,37,51845,6,0,L|335:195,1,160,0|2,1:0|0:0,0:0:0:0:
390,255,52277,1,0,0:0:0:0:
208,333,52422,6,0,B|268:305|268:305|250:154,1,200,8|2,0:0|0:0,0:0:0:0:
179,205,52854,1,0,0:0:0:0:
61,119,52999,5,0,1:0:0:0:
55,130,53287,1,2,0:0:0:0:
134,141,53431,1,0,0:0:0:0:
225,46,53576,6,0,B|195:85|195:85|213:131,1,100,8|0,0:0|0:0,0:0:0:0:
438,143,53864,2,0,B|454:121|454:121|444:96,1,55.0000016784668,2|0,0:0|0:0,0:0:0:0:
286,100,54152,6,0,L|373:110,1,80,0|0,1:0|0:0,0:0:0:0:
290,224,54441,2,0,B|299:198|299:198|283:177,1,55.0000016784668,2|0,0:0|0:0,0:0:0:0:
135,199,54729,6,0,P|176:185|209:212,1,89.9999972534181,8|0,0:0|0:0,0:0:0:0:
230,341,55018,2,0,L|238:269,1,55.0000016784668,2|0,0:0|0:0,0:0:0:0:
224,122,55306,5,0,1:0:0:0:
216,111,55595,2,0,L|229:3,1,80,2|0,0:0|0:0,0:0:0:0:
357,149,55883,5,8,0:0:0:0:
279,166,56027,1,2,0:0:0:0:
158,300,56172,5,2,0:0:0:0:
259,322,56316,1,2,0:0:0:0:
338,340,56460,6,0,L|325:234,1,89.9999972534181,4|0,1:2|0:0,0:0:0:0:
387,197,57037,2,0,P|368:175|318:182,1,59.9999981689454,8|0,0:1|0:0,0:0:0:0:
254,336,57614,5,8,0:1:0:0:
246,327,57902,2,0,L|251:374,1,44.999998626709,2|0,0:0|0:0,0:0:0:0:
180,201,58191,6,0,L|164:328,1,110.000003356934,8|2,0:1|0:0,0:0:0:0:
100,212,58624,1,2,0:0:0:0:
129,138,58768,6,0,P|163:109|209:134,1,89.9999972534181,8|0,0:1|0:0,0:0:0:0:
274,88,59345,2,0,P|297:105|303:134,1,59.9999981689454,8|0,0:1|0:0,0:0:0:0:
114,46,59922,5,8,0:1:0:0:
106,56,60210,2,0,L|111:11,1,44.999998626709,2|0,0:0|0:0,0:0:0:0:
117,165,60499,5,8,0:1:0:0:
165,100,60643,2,0,B|106:69|106:69|55:111,1,129.999994049073,2|2,0:0|0:0,0:0:0:0:
199,176,61076,6,0,P|258:159|274:220,1,110.000003356934,8|2,0:1|0:0,0:0:0:0:
225,252,61508,1,0,0:0:0:0:
294,297,61652,2,0,P|328:258|375:280,1,110.000003356934,8|2,0:1|0:0,0:0:0:0:
317,105,62229,5,8,0:1:0:0:
310,114,62518,2,0,L|301:42,1,44.999998626709,2|0,0:0|0:0,0:0:0:0:
378,160,62806,5,8,0:1:0:0:
437,215,62951,2,0,L|423:324,1,110.000003356934,2|2,0:0|0:0,0:0:0:0:
352,248,63383,6,0,P|293:231|277:292,1,110.000003356934,8|2,0:1|0:0,0:0:0:0:
326,324,63816,1,0,0:0:0:0:
257,369,63960,2,0,P|222:330|175:352,1,110.000003356934,8|2,0:1|0:0,0:0:0:0:
235,171,64537,5,8,0:1:0:0:
242,180,64826,2,0,L|250:108,1,44.999998626709,2|0,0:0|0:0,0:0:0:0:
312,85,65114,6,0,L|304:20,1,64.9999970245363,8|0,0:1|0:0,0:0:0:0:
383,38,65402,1,2,0:0:0:0:
231,56,65547,1,2,0:0:0:0:
171,112,65691,6,0,B|128:70|128:70|73:94,1,119.999996337891,4|0,1:2|0:0,0:0:0:0:
111,165,66124,1,8,0:1:0:0:
247,182,66268,6,0,L|187:189,1,59.9999981689454,8|0,0:1|0:0,0:0:0:0:
251,102,66556,1,2,0:0:0:0:
243,92,66845,5,8,0:1:0:0:
346,112,66989,1,8,0:1:0:0:
449,132,67133,1,8,0:1:0:0:
442,141,67422,6,0,L|426:13,1,119.999996337891,8|2,0:1|0:0,0:0:0:0:
507,36,67854,1,2,0:0:0:0:
358,111,67999,6,0,B|334:158|334:158|223:144,1,150.000005722046,8|0,0:1|0:0,0:0:0:0:
178,200,68431,1,8,0:1:0:0:
285,74,68576,6,0,L|271:-37,1,75.0000028610231,8|0,0:1|0:0,0:0:0:0:
438,89,68864,2,0,L|431:143,1,55.0000016784668,2|0,0:0|0:0,0:0:0:0:
364,58,69152,5,8,0:1:0:0:
278,154,69297,1,8,0:1:0:0:
374,240,69441,1,8,0:1:0:0:
356,163,69585,1,0,0:0:0:0:
216,206,69729,5,8,0:1:0:0:
198,283,69874,2,0,L|39:263,1,135.000000514984,2|2,0:0|0:0,0:0:0:0:
248,347,70306,5,8,0:0:0:0:
278,274,70451,1,2,0:0:0:0:
356,285,70595,1,2,0:0:0:0:
368,362,70739,1,2,0:0:0:0:
272,263,70883,5,8,0:0:0:0:
242,190,71027,1,2,0:0:0:0:
164,201,71172,1,2,0:0:0:0:
152,278,71316,2,0,L|155:309,1,22.4999993133545,2|2,0:0|0:0,0:0:0:0:
223,114,71460,6,0,B|263:102|263:102|295:129,1,85.0000016212464,8|2,0:0|0:0,0:0:0:0:
242,190,71749,1,2,0:0:0:0:
276,66,71893,1,2,0:0:0:0:
130,11,72037,5,8,0:0:0:0:
145,90,72181,1,2,0:0:0:0:
242,190,72326,5,2,0:0:0:0:
227,269,72470,2,0,L|223:300,1,22.4999993133545,2|2,0:0|0:0,0:0:0:0:
304,245,72614,5,8,0:0:0:0:
166,218,72758,2,0,B|126:206|126:206|94:233,1,85.0000016212464,2|2,0:0|0:0,0:0:0:0:
146,295,73047,1,2,0:0:0:0:
242,190,73191,5,8,0:0:0:0:
182,137,73335,1,2,0:0:0:0:
264,54,73479,2,0,L|256:113,1,59.9999981689454,2|2,0:0|0:0,0:0:0:0:
157,244,73768,6,0,P|148:210|161:243,1,104.999996795654,12|0,0:0|0:0,0:0:0:0:
442,120,74922,6,0,P|388:110|366:220,1,135.000000514984,4|0,1:2|0:0,0:0:0:0:
209,26,75210,2,0,P|232:24|251:35,1,44.999998626709,2|0,0:0|0:0,0:0:0:0:
274,112,75499,5,8,0:0:0:0:
437,33,75643,1,2,0:0:0:0:
512,152,75787,5,2,0:0:0:0:
327,52,75931,1,2,0:0:0:0:
274,112,76076,5,0,1:0:0:0:
506,74,76220,5,2,0:0:0:0:
475,261,76364,2,0,L|363:274,1,104.999996795654,2|0,0:0|0:0,0:0:0:0:
471,182,76652,6,0,P|494:180|513:191,1,44.999998626709,8|0,0:0|0:0,0:0:0:0:
508,334,76941,1,0,3:0:0:0:
508,334,77085,1,0,3:0:0:0:
389,191,77229,6,0,L|398:111,1,80,0|0,1:0|0:0,0:0:0:0:
319,33,77518,2,0,L|324:77,1,44.999998626709,2|0,0:0|0:0,0:0:0:0:
475,160,77806,5,8,0:0:0:0:
469,171,78095,1,2,0:0:0:0:
317,152,78239,1,2,0:0:0:0:
254,203,78383,6,0,L|263:282,1,80,0|0,1:0|0:0,0:0:0:0:
184,361,78672,2,0,L|189:316,1,44.999998626709,2|0,0:0|0:0,0:0:0:0:
340,233,78960,5,8,0:0:0:0:
334,222,79249,1,2,0:0:0:0:
182,241,79393,1,2,0:0:0:0:
69,149,79537,6,0,B|136:158|136:158|139:155|139:155|206:163,1,139.999995727539,4|0,1:3|0:0,0:0:0:0:
296,55,79826,2,0,B|271:42|271:42|250:60,1,55.0000016784668,2|0,0:0|0:0,0:0:0:0:
134,235,80114,5,8,0:0:0:0:
46,75,80258,1,2,0:0:0:0:
281,130,80402,5,2,0:0:0:0:
193,290,80547,1,2,0:0:0:0:
231,222,80691,5,0,1:0:0:0:
302,384,80835,5,2,0:0:0:0:
114,312,80979,2,0,L|10:325,1,104.999996795654,2|0,0:0|0:0,0:0:0:0:
233,346,81268,6,0,L|242:266,1,44.999998626709,8|0,0:0|0:0,0:0:0:0:
113,234,81556,1,0,3:0:0:0:
113,234,81701,1,0,3:0:0:0:
186,188,81845,6,0,L|191:232,1,44.999998626709,0|0,1:0|0:0,0:0:0:0:
311,336,82133,2,0,B|346:318|346:318|376:344,1,80,2|0,0:0|0:0,0:0:0:0:
406,202,82422,5,8,0:0:0:0:
279,166,82566,1,2,0:0:0:0:
243,293,82710,1,2,0:0:0:0:
306,244,82854,1,0,0:0:0:0:
304,92,82999,6,0,B|268:74|268:74|238:100,1,80,0|0,1:0|0:0,0:0:0:0:
313,255,83287,2,0,L|417:267,1,104.999996795654,2|0,0:0|0:0,0:0:0:0:
204,174,83576,5,8,0:0:0:0:
49,157,83720,1,2,0:0:0:0:
173,101,83864,1,2,0:0:0:0:
53,171,84008,1,2,0:0:0:0:
183,350,84152,6,0,B|248:342|248:342|251:345|251:345|316:336,1,135.000000514984,4|0,1:3|0:0,0:0:0:0:
117,268,84441,2,0,L|164:273,1,44.999998626709,2|0,0:0|0:0,0:0:0:0:
103,346,84729,5,8,0:0:0:0:
240,263,84874,1,2,0:0:0:0:
157,126,85018,5,2,0:0:0:0:
20,209,85162,1,2,0:0:0:0:
60,277,85306,5,0,1:0:0:0:
99,70,85451,5,2,0:0:0:0:
291,200,85595,2,0,L|395:187,1,104.999996795654,2|0,0:0|0:0,0:0:0:0:
495,258,85883,6,0,P|476:244|454:244,1,44.999998626709,8|0,0:0|0:0,0:0:0:0:
362,114,86172,1,0,3:0:0:0:
362,114,86316,1,0,3:0:0:0:
379,269,86460,5,0,1:0:0:0:
265,340,86604,1,2,0:0:0:0:
182,270,86749,1,2,0:0:0:0:
212,195,86893,1,2,0:0:0:0:
346,343,87037,6,0,B|392:366|392:366|431:332,1,104.999996795654,8|0,0:0|0:0,0:0:0:0:
369,189,87326,1,2,0:0:0:0:
379,269,87470,1,2,0:0:0:0:
273,375,87614,6,0,L|194:384,1,80,0|0,1:0|0:0,0:0:0:0:
135,329,87902,2,0,L|90:324,1,44.999998626709,2|0,0:0|0:0,0:0:0:0:
192,162,88191,5,8,0:0:0:0:
186,151,88479,1,2,0:0:0:0:
210,301,88624,1,2,0:0:0:0:
43,255,88768,6,0,P|44:188|106:165,1,139.999995727539,4|0,1:3|0:0,0:0:0:0:
0,86,89056,2,0,B|24:74|24:74|45:92,1,55.0000016784668,2|0,0:0|0:0,0:0:0:0:
224,44,89345,5,8,0:0:0:0:
151,225,89489,1,2,0:0:0:0:
301,191,89633,5,2,0:0:0:0:
120,118,89777,1,2,0:0:0:0:
82,187,89922,5,0,1:0:0:0:
232,55,90066,5,2,0:0:0:0:
207,286,90210,2,0,L|311:273,1,104.999996795654,2|0,0:0|0:0,0:0:0:0:
368,373,90499,6,0,L|373:328,1,44.999998626709,8|0,0:0|0:0,0:0:0:0:
301,196,90787,1,0,3:0:0:0:
301,196,90931,1,0,3:0:0:0:
448,280,91076,6,0,L|453:324,1,44.999998626709,4|0,1:2|0:0,0:0:0:0:
311,272,91364,1,2,0:0:0:0:
236,300,91508,1,0,0:0:0:0:
177,248,91652,5,2,0:0:0:0:
102,276,91797,1,0,0:0:0:0:
52,213,91941,1,2,0:0:0:0:
96,146,92085,2,0,L|91:107,2,22.4999993133545,0|0|2,0:0|0:0|0:0,0:0:0:0:
177,248,92374,5,0,0:0:0:0:
236,300,92518,2,0,L|231:344,1,44.999998626709,2|0,0:0|0:0,0:0:0:0:
100,224,92806,5,2,0:0:0:0:
242,164,92951,1,0,0:0:0:0:
96,146,93095,1,2,0:0:0:0:
166,182,93239,1,0,0:0:0:0:
308,104,93383,6,0,B|244:131|244:131|192:85,1,139.999995727539,4|2,1:2|0:0,0:0:0:0:
258,39,93816,1,0,0:0:0:0:
336,176,93960,5,8,0:0:0:0:
328,167,94249,2,0,L|392:175,1,34.9999989318848,2|0,0:0|0:0,0:0:0:0:
465,233,94537,5,0,1:0:0:0:
474,240,94826,2,0,P|438:227|397:252,1,69.9999978637696,2|0,0:0|0:0,0:0:0:0:
338,318,95114,6,0,L|329:248,1,69.9999978637696,8|0,0:0|0:0,0:0:0:0:
193,326,95402,2,0,P|228:338|269:313,1,69.9999978637696,2|0,0:0|0:0,0:0:0:0:
318,170,95691,6,0,L|309:100,1,69.9999978637696,0|0,1:0|0:0,0:0:0:0:
413,7,95979,1,2,0:0:0:0:
388,83,96124,1,0,0:0:0:0:
238,61,96268,5,8,0:0:0:0:
247,53,96556,2,0,B|215:39|215:39|189:62,1,69.9999978637696,2|0,0:0|0:0,0:0:0:0:
62,49,96845,6,0,P|146:61|175:142,1,179.999994506836,0|2,1:0|0:0,0:0:0:0:
100,167,97277,1,0,0:0:0:0:
258,153,97422,6,0,P|268:113|301:89,1,82.5000007867813,8|0,0:0|0:0,0:0:0:0:
356,231,97710,2,0,P|325:238|296:226,1,62.5,2|0,0:0|0:0,0:0:0:0:
175,142,97999,5,0,1:0:0:0:
167,131,98287,2,0,L|172:97,1,34.9999989318848,2|0,0:0|0:0,0:0:0:0:
57,189,98576,6,0,P|124:198|147:260,1,139.999995727539,8|2,0:0|0:0,0:0:0:0:
84,311,99008,1,0,0:0:0:0:
226,229,99152,5,0,1:0:0:0:
219,218,99441,1,2,0:0:0:0:
296,240,99585,1,0,0:0:0:0:
359,115,99729,6,0,B|311:165|311:165|245:143,1,139.999995727539,8|2,0:0|0:0,0:0:0:0:
288,75,100162,1,0,0:0:0:0:
373,215,100306,5,0,1:0:0:0:
379,205,100595,2,0,L|414:201,1,34.9999989318848,2|0,0:0|0:0,0:0:0:0:
297,372,100883,6,0,L|311:252,1,119.999996337891,8|2,0:0|0:0,0:0:0:0:
255,195,101316,1,0,0:0:0:0:
384,303,101460,2,0,L|388:338,1,34.9999989318848,0|0,1:0|0:0,0:0:0:0:
247,205,101749,6,0,B|240:151|240:151|237:149|237:149|239:146|239:146|233:92,1,115.000002193451,12|0,0:3|0:0,0:0:0:0:
55,181,102037,2,0,B|48:234|48:234|50:237|50:237|47:239|47:239|41:293,1,115.000002193451,12|0,0:3|0:0,0:0:0:0:
182,254,102326,6,0,L|128:248,1,55.0000016784668,2|0,0:0|0:0,0:0:0:0:
234,324,102614,6,0,P|271:288|319:310,1,110.000003356934,0|2,1:0|0:0,0:0:0:0:
290,384,103047,1,0,0:0:0:0:
357,232,103191,6,0,B|348:157|348:157|351:154|351:154|340:79,1,155.000001182556,8|2,0:0|0:0,0:0:0:0:
273,35,103624,1,0,0:0:0:0:
427,118,103768,6,0,L|492:123,1,55.0000016784668,0|0,1:0|0:0,0:0:0:0:
276,217,104056,2,0,L|210:222,1,34.9999989318848,2|0,0:0|0:0,0:0:0:0:
421,109,104345,6,0,L|491:117,1,69.9999978637696,8|0,0:0|0:0,0:0:0:0:
356,241,104633,2,0,P|358:206|382:182,1,69.9999978637696,2|0,0:0|0:0,0:0:0:0:
274,81,104922,6,0,P|298:105|300:139,1,69.9999978637696,0|0,1:0|0:0,0:0:0:0:
176,196,105210,1,2,0:0:0:0:
255,207,105354,1,0,0:0:0:0:
194,66,105499,6,0,P|159:83|150:121,1,80,8|0,0:0|0:0,0:0:0:0:
263,218,105787,2,0,L|327:209,1,64.9999970245363,2|0,0:0|0:0,0:0:0:0:
186,293,106076,6,0,P|172:222|104:202,1,150.000005722046,0|2,1:0|0:0,0:0:0:0:
50,260,106508,1,0,0:0:0:0:
87,125,106652,6,0,P|120:116|140:88,1,69.9999978637696,8|0,0:0|0:0,0:0:0:0:
239,149,106941,2,0,L|204:144,1,34.9999989318848,2|0,0:0|0:0,0:0:0:0:
326,225,107229,5,0,1:0:0:0:
317,217,107518,2,0,L|252:226,1,55.0000016784668,2|0,0:0|0:0,0:0:0:0:
393,143,107806,6,0,P|326:134|303:72,1,139.999995727539,8|2,0:0|0:0,0:0:0:0:
366,21,108239,1,0,0:0:0:0:
245,163,108383,5,0,1:0:0:0:
238,152,108672,1,2,0:0:0:0:
216,229,108816,1,0,0:0:0:0:
173,314,108960,6,0,B|221:264|221:264|287:286,1,139.999995727539,8|2,0:0|0:0,0:0:0:0:
244,354,109393,1,0,0:0:0:0:
366,278,109537,5,0,1:0:0:0:
431,324,109681,1,0,0:0:0:0:
494,276,109826,1,2,0:0:0:0:
360,288,109970,1,0,3:0:0:0:
302,229,110114,6,0,L|320:75,1,155.000001182556,8|2,0:0|0:0,0:0:0:0:
265,17,110547,1,0,0:0:0:0:
390,147,110691,2,0,L|394:182,1,34.9999989318848,0|2,1:0|0:0,0:0:0:0:
232,306,110979,6,0,B|226:252|226:252|223:250|223:250|225:247|225:247|219:194,1,115.000002193451,12|0,0:3|0:0,0:0:0:0:
471,158,111268,2,0,B|477:105|477:105|475:102|475:102|478:100|478:100|484:46,1,115.000002193451,12|0,0:3|0:0,0:0:0:0:
406,260,111556,6,0,L|412:314,1,55.0000016784668,2|0,0:0|0:0,0:0:0:0:
232,306,111845,5,4,1:2:0:0:
203,235,111989,1,0,0:0:0:0:
157,296,112133,1,2,0:0:0:0:
186,367,112277,1,0,0:0:0:0:
195,227,112422,6,0,L|180:100,1,100,8|0,0:0|0:0,0:0:0:0:
63,75,112710,2,0,B|86:91|86:91|112:85,1,55.0000016784668,2|0,0:0|0:0,0:0:0:0:
270,189,112999,5,0,1:0:0:0:
111,163,113143,1,2,0:0:0:0:
57,223,113287,2,0,L|65:287,1,55.0000016784668,2|0,0:0|0:0,0:0:0:0:
183,127,113576,5,8,0:0:0:0:
151,53,113720,1,0,0:0:0:0:
274,13,113864,1,2,0:0:0:0:
306,87,114008,1,0,0:0:0:0:
379,186,114152,6,0,P|331:121|259:157,1,175.00000166893,0|2,1:0|0:0,0:0:0:0:
308,221,114585,1,0,0:0:0:0:
182,144,114729,6,0,B|134:125|134:125|95:155,1,100,8|0,0:0|0:0,0:0:0:0:
199,270,115018,2,0,L|279:280,1,55.0000016784668,2|0,0:0|0:0,0:0:0:0:
242,91,115306,6,0,L|322:81,1,80,0|0,1:0|0:0,0:0:0:0:
131,231,115595,2,0,L|77:237,1,55.0000016784668,2|0,0:0|0:0,0:0:0:0:
199,270,115883,5,8,0:0:0:0:
257,217,116027,1,0,0:0:0:0:
327,254,116172,1,2,0:0:0:0:
385,201,116316,1,0,0:0:0:0:
483,100,116460,6,0,P|468:174|395:193,1,160,0|2,1:0|0:0,0:0:0:0:
342,131,116893,1,0,0:0:0:0:
466,269,117037,5,8,0:0:0:0:
433,338,117181,1,0,0:0:0:0:
354,328,117326,1,2,0:0:0:0:
339,250,117470,1,0,0:0:0:0:
288,374,117614,6,0,L|209:364,1,80,0|0,1:0|0:0,0:0:0:0:
135,299,117902,2,0,L|169:295,1,34.9999989318848,2|0,0:0|0:0,0:0:0:0:
75,182,118191,6,0,B|126:156|165:199|165:199|205:241|256:215,1,200,8|2,0:0|0:0,0:0:0:0:
225,141,118624,1,0,0:0:0:0:
277,291,118768,5,0,1:0:0:0:
354,306,118912,1,0,0:0:0:0:
272,305,119056,1,2,0:0:0:0:
349,292,119201,1,0,0:0:0:0:
405,166,119345,6,0,B|369:221|369:221|218:203,1,200,8|2,0:0|0:0,0:0:0:0:
327,140,119777,1,0,0:0:0:0:
465,224,119922,5,0,1:0:0:0:
418,287,120066,1,0,0:0:0:0:
405,166,120210,2,0,P|407:138|422:116,1,55.0000016784668,8|2,0:0|0:0,0:0:0:0:
497,301,120499,5,8,0:0:0:0:
357,231,120643,1,2,0:0:0:0:
486,172,120787,1,2,0:0:0:0:
439,240,120931,1,0,0:0:0:0:
299,179,121076,6,0,L|101:203,1,160,0|2,1:0|0:0,0:0:0:0:
73,154,121508,1,0,0:0:0:0:
174,52,121652,5,8,0:0:0:0:
145,125,121797,1,0,0:0:0:0:
161,44,121941,1,2,0:0:0:0:
160,122,122085,1,0,0:0:0:0:
226,268,122229,6,0,L|305:277,1,80,0|0,1:0|0:0,0:0:0:0:
205,192,122518,1,2,0:0:0:0:
165,320,122662,1,2,0:0:0:0:
239,348,122806,5,8,0:0:0:0:
91,292,122951,1,2,0:0:0:0:
3,380,123095,1,2,0:0:0:0:
83,368,123239,1,0,0:0:0:0:
164,264,123383,6,0,P|125:200|55:223,1,160,0|2,1:0|0:0,0:0:0:0:
146,125,123816,1,0,0:0:0:0:
278,205,123960,6,0,B|218:177|218:177|236:26,1,200,8|2,0:0|0:0,0:0:0:0:
300,0,124393,1,0,0:0:0:0:
384,119,124537,6,0,L|304:128,1,80,0|0,1:0|0:0,0:0:0:0:
246,274,124826,1,2,0:0:0:0:
357,201,124970,1,2,0:0:0:0:
406,261,125114,5,8,0:0:0:0:
239,198,125258,1,2,0:0:0:0:
400,271,125402,1,2,0:0:0:0:
326,295,125547,1,0,0:0:0:0:
200,353,125691,6,0,L|358:373,1,160,0|2,1:0|0:0,0:0:0:0:
318,288,126124,1,0,0:0:0:0:
397,207,126268,6,0,B|346:233|307:190|307:190|267:148|216:174,1,200,8|2,0:0|0:0,0:0:0:0:
249,247,126701,1,0,0:0:0:0:
364,133,126845,5,0,1:0:0:0:
333,57,126989,1,0,0:0:0:0:
253,63,127133,1,2,0:0:0:0:
235,138,127277,1,0,0:0:0:0:
91,95,127422,6,0,B|130:65|130:65|177:83,1,100,8|0,0:0|0:0,0:0:0:0:
294,193,127710,2,0,L|286:256,1,55.0000016784668,2|0,0:0|0:0,0:0:0:0:
244,370,127999,5,0,1:0:0:0:
222,293,128143,1,0,0:0:0:0:
365,260,128287,1,2,0:0:0:0:
387,337,128431,1,0,0:0:0:0:
448,169,128576,6,0,B|413:195|413:195|370:179,1,89.9999972534181,8|0,0:0|0:0,0:0:0:0:
258,69,128864,2,0,L|265:5,1,55.0000016784668,2|0,0:0|0:0,0:0:0:0:
160,149,129152,6,0,P|181:132|208:133,1,55.0000016784668,0|0,1:0|0:0,0:0:0:0:
296,223,129441,2,0,L|283:115,1,80,2|0,0:0|0:0,0:0:0:0:
179,308,129729,5,8,0:0:0:0:
257,291,129874,1,2,0:0:0:0:
407,161,130018,5,2,0:0:0:0:
280,133,130162,1,2,0:0:0:0:
226,75,130306,6,0,L|120:88,1,89.9999972534181,4|0,1:2|0:0,0:0:0:0:
83,26,130883,2,0,P|61:45|68:95,1,59.9999981689454,8|0,0:1|0:0,0:0:0:0:
188,154,131460,5,8,0:1:0:0:
196,163,131749,2,0,L|191:116,1,44.999998626709,2|0,0:0|0:0,0:0:0:0:
265,230,132037,6,0,L|281:103,1,110.000003356934,8|2,0:1|0:0,0:0:0:0:
345,219,132470,1,2,0:0:0:0:
316,293,132614,6,0,P|282:322|236:297,1,89.9999972534181,8|0,0:1|0:0,0:0:0:0:
171,343,133191,2,0,P|148:326|142:297,1,59.9999981689454,8|0,0:1|0:0,0:0:0:0:
378,251,133768,5,8,0:1:0:0:
386,241,134056,2,0,L|381:286,1,44.999998626709,2|0,0:0|0:0,0:0:0:0:
375,132,134345,5,8,0:1:0:0:
327,197,134489,2,0,B|386:228|386:228|437:186,1,129.999994049073,2|2,0:0|0:0,0:0:0:0:
293,121,134922,6,0,P|234:138|218:77,1,110.000003356934,8|2,0:1|0:0,0:0:0:0:
265,45,135354,1,0,0:0:0:0:
196,0,135499,2,0,P|162:39|115:17,1,110.000003356934,8|2,0:1|0:0,0:0:0:0:
226,124,136076,5,8,0:1:0:0:
233,133,136364,2,0,L|242:61,1,44.999998626709,2|0,0:0|0:0,0:0:0:0:
165,179,136652,5,8,0:1:0:0:
118,114,136797,2,0,L|132:223,1,110.000003356934,2|2,0:0|0:0,0:0:0:0:
203,147,137229,6,0,P|262:130|278:191,1,110.000003356934,8|2,0:1|0:0,0:0:0:0:
227,221,137662,1,0,0:0:0:0:
295,271,137806,2,0,P|330:232|377:254,1,110.000003356934,8|2,0:1|0:0,0:0:0:0:
296,127,138383,5,8,0:1:0:0:
289,118,138672,2,0,L|281:190,1,44.999998626709,2|0,0:0|0:0,0:0:0:0:
219,213,138960,6,0,L|227:278,1,64.9999970245363,8|0,0:1|0:0,0:0:0:0:
148,260,139249,1,2,0:0:0:0:
300,242,139393,1,2,0:0:0:0:
360,186,139537,6,0,B|403:228|403:228|458:204,1,119.999996337891,4|0,1:2|0:0,0:0:0:0:
420,133,139970,1,8,0:1:0:0:
308,252,140114,6,0,L|315:312,1,59.9999981689454,8|0,0:1|0:0,0:0:0:0:
365,371,140402,1,2,0:0:0:0:
370,382,140691,5,8,0:1:0:0:
256,360,140835,1,8,0:1:0:0:
143,338,140979,1,8,0:1:0:0:
152,347,141268,6,0,L|136:219,1,119.999996337891,8|2,0:1|0:0,0:0:0:0:
217,241,141701,1,2,0:0:0:0:
65,190,141845,6,0,P|68:117|174:115,1,150.000005722046,8|0,0:1|0:0,0:0:0:0:
193,38,142277,1,8,0:1:0:0:
247,162,142422,6,0,L|256:87,1,75.0000028610231,8|0,0:1|0:0,0:0:0:0:
193,222,142710,2,0,L|139:229,1,55.0000016784668,2|0,0:0|0:0,0:0:0:0:
371,323,142999,5,8,0:1:0:0:
270,239,143143,1,8,0:1:0:0:
156,303,143287,1,8,0:1:0:0:
235,313,143431,1,0,0:0:0:0:
130,155,143576,5,8,0:1:0:0:
51,165,143720,2,0,L|71:6,1,135.000000514984,2|2,0:0|0:0,0:0:0:0:
195,201,144152,5,8,0:0:0:0:
258,154,144297,1,2,0:0:0:0:
331,187,144441,1,2,0:0:0:0:
394,140,144585,1,2,0:0:0:0:
427,297,144729,5,8,0:0:0:0:
350,315,144874,1,2,0:0:0:0:
296,256,145018,1,2,0:0:0:0:
219,275,145162,2,0,L|215:306,1,22.4999993133545,2|2,0:0|0:0,0:0:0:0:
89,168,145306,6,0,L|102:279,1,85.0000016212464,8|2,0:0|0:0,0:0:0:0:
21,232,145595,1,2,0:0:0:0:
170,214,145739,1,2,0:0:0:0:
46,312,145883,5,8,0:0:0:0:
125,327,146027,1,2,0:0:0:0:
246,227,146172,5,2,0:0:0:0:
325,242,146316,2,0,L|356:246,1,22.4999993133545,2|2,0:0|0:0,0:0:0:0:
301,165,146460,5,8,0:0:0:0:
274,303,146604,2,0,B|262:343|262:343|289:375,1,85.0000016212464,2|2,0:0|0:0,0:0:0:0:
351,323,146893,1,2,0:0:0:0:
246,227,147037,5,8,0:0:0:0:
193,287,147181,1,2,0:0:0:0:
110,205,147326,2,0,L|169:213,1,59.9999981689454,2|2,0:0|0:0,0:0:0:0:
300,352,147614,6,0,B|309:324|274:302|274:302|245:332|261:357,1,122.500001168251,12|0,0:0|0:0,0:0:0:0:
70,264,148768,6,0,P|124:274|146:164,1,135.000000514984,4|0,1:2|0:0,0:0:0:0:
329,160,149056,2,0,P|306:162|287:151,1,44.999998626709,2|0,0:0|0:0,0:0:0:0:
209,151,149345,5,8,0:0:0:0:
307,330,149489,1,2,0:0:0:0:
394,203,149633,5,2,0:0:0:0:
443,42,149777,1,2,0:0:0:0:
369,14,149922,5,0,1:0:0:0:
512,222,150066,5,2,0:0:0:0:
381,92,150210,2,0,L|276:104,1,104.999996795654,2|0,0:0|0:0,0:0:0:0:
456,172,150499,6,0,P|437:159|415:162,1,44.999998626709,8|0,0:0|0:0,0:0:0:0:
498,301,150787,1,0,3:0:0:0:
498,301,150931,1,0,3:0:0:0:
351,257,151076,6,0,L|431:248,1,80,0|0,1:0|0:0,0:0:0:0:
512,94,151364,2,0,L|468:89,1,44.999998626709,2|0,0:0|0:0,0:0:0:0:
501,220,151652,5,8,0:0:0:0:
508,231,151941,1,2,0:0:0:0:
389,64,152085,1,2,0:0:0:0:
379,189,152229,6,0,P|407:161|450:168,1,80,0|0,1:0|0:0,0:0:0:0:
315,100,152518,2,0,L|310:145,1,44.999998626709,2|0,0:0|0:0,0:0:0:0:
364,274,152806,5,8,0:0:0:0:
359,264,153095,1,2,0:0:0:0:
234,171,153239,1,2,0:0:0:0:
162,198,153383,6,0,B|229:207|229:207|232:204|232:204|299:212,1,139.999995727539,4|0,1:3|0:0,0:0:0:0:
76,271,153672,2,0,B|100:283|100:283|121:265,1,55.0000016784668,2|0,0:0|0:0,0:0:0:0:
246,128,153960,5,8,0:0:0:0:
85,197,154104,1,2,0:0:0:0:
133,1,154249,5,2,0:0:0:0:
313,83,154393,1,2,0:0:0:0:
242,50,154537,5,0,1:0:0:0:
163,210,154681,5,2,0:0:0:0:
349,153,154826,2,0,L|362:257,1,104.999996795654,2|0,0:0|0:0,0:0:0:0:
432,97,155114,6,0,P|413:84|392:87,1,44.999998626709,8|0,0:0|0:0,0:0:0:0:
273,154,155402,1,0,3:0:0:0:
273,154,155547,1,0,3:0:0:0:
442,176,155691,6,0,L|437:220,1,44.999998626709,0|0,1:0|0:0,0:0:0:0:
314,321,155979,2,0,B|279:339|279:339|249:313,1,80,2|0,0:0|0:0,0:0:0:0:
177,338,156268,5,8,0:0:0:0:
292,249,156412,1,2,0:0:0:0:
264,119,156556,1,2,0:0:0:0:
192,88,156701,1,0,0:0:0:0:
322,176,156845,6,0,B|358:158|358:158|388:184,1,80,0|0,1:0|0:0,0:0:0:0:
293,326,157133,2,0,L|189:314,1,104.999996795654,2|0,0:0|0:0,0:0:0:0:
22,260,157422,5,8,0:0:0:0:
173,228,157566,1,2,0:0:0:0:
53,187,157710,1,2,0:0:0:0:
169,242,157854,1,2,0:0:0:0:
235,195,157999,6,0,B|226:130|226:130|229:127|229:127|221:62,1,135.000000514984,4|0,1:3|0:0,0:0:0:0:
347,221,158287,2,0,P|325:218|307:231,1,44.999998626709,2|0,0:0|0:0,0:0:0:0:
306,144,158576,5,8,0:0:0:0:
474,196,158720,1,2,0:0:0:0:
422,365,158864,5,2,0:0:0:0:
254,313,159008,1,2,0:0:0:0:
177,288,159152,5,0,1:0:0:0:
286,384,159297,5,2,0:0:0:0:
479,309,159441,2,0,L|466:205,1,104.999996795654,2|0,0:0|0:0,0:0:0:0:
280,221,159729,6,0,P|257:221|240:235,1,44.999998626709,8|0,0:0|0:0,0:0:0:0:
349,338,160018,1,0,3:0:0:0:
349,338,160162,1,0,3:0:0:0:
278,142,160306,5,0,1:0:0:0:
172,277,160451,1,2,0:0:0:0:
352,256,160595,1,2,0:0:0:0:
280,221,160739,1,2,0:0:0:0:
165,287,160883,6,0,B|119:310|119:310|80:276,1,104.999996795654,8|0,0:0|0:0,0:0:0:0:
142,133,161172,1,2,0:0:0:0:
132,213,161316,1,2,0:0:0:0:
200,360,161460,6,0,L|279:351,1,80,0|0,1:0|0:0,0:0:0:0:
432,242,161749,2,0,L|387:237,1,44.999998626709,2|0,0:0|0:0,0:0:0:0:
335,296,162037,5,8,0:0:0:0:
341,307,162326,1,2,0:0:0:0:
428,163,162470,1,2,0:0:0:0:
284,76,162614,6,0,B|248:57|221:87|221:87|193:117|157:99,1,139.999995727539,4|0,1:3|0:0,0:0:0:0:
349,158,162902,2,0,B|325:170|325:170|304:152,1,55.0000016784668,2|0,0:0|0:0,0:0:0:0:
350,25,163191,5,8,0:0:0:0:
269,225,163335,1,2,0:0:0:0:
484,157,163479,5,2,0:0:0:0:
284,76,163624,1,2,0:0:0:0:
208,46,163768,5,0,1:0:0:0:
120,232,163912,5,2,0:0:0:0:
304,151,164056,2,0,L|408:164,1,100,2|0,0:0|0:0,0:0:0:0:
190,274,164345,6,0,L|195:319,1,44.999998626709,8|0,0:0|0:0,0:0:0:0:
162,162,164633,1,0,3:0:0:0:
162,162,164777,1,0,3:0:0:0:
273,225,164922,6,0,L|268:269,1,44.999998626709,0|0,1:0|0:0,0:0:0:0:
341,141,165210,2,0,L|354:252,1,80,2|0,0:0|0:0,0:0:0:0:
422,175,165499,5,8,0:0:0:0:
266,151,165643,1,2,0:0:0:0:
198,192,165787,1,2,0:0:0:0:
127,156,165931,1,0,0:0:0:0:
226,82,166076,6,0,B|191:60|191:60|159:84,1,80,0|0,1:0|0:0,0:0:0:0:
94,227,166364,2,0,L|106:331,1,104.999996795654,2|0,0:0|0:0,0:0:0:0:
255,276,166652,5,8,0:0:0:0:
176,277,166797,1,2,0:0:0:0:
257,290,166941,1,2,0:0:0:0:
183,264,167085,1,2,0:0:0:0:
242,214,167229,6,0,B|218:174|202:100|251:59|251:59|251:52|251:52|253:58|253:58|290:70|290:70|300:69|300:69|337:81|337:81|298:101|294:144,1,330.000010070801,4|0,1:2|0:0,0:0:0:0:
471,321,169537,6,0,B|423:305|401:274|417:215|417:215|353:202|311:227|312:274|312:274|283:304|253:307|222:288,1,371.9999852417,2|0,0:0|0:0,0:0:0:0:
115,55,171845,6,0,B|127:158|127:158|98:187|98:187|169:231|169:231|140:260|140:260|153:363,1,371.9999852417,2|0,0:0|0:0,0:0:0:0:
477,139,174152,6,0,B|440:95|440:95|340:119|340:119|322:174|322:174|216:166|216:166|202:121,1,371.9999852417,2|0,0:0|0:0,0:0:0:0:
74,305,176460,6,0,B|18:320|18:320|-11:240|34:155|120:139|120:139|140:202,1,353.999987576294,2|0,0:0|0:0,0:0:0:0:
419,290,178768,6,0,B|412:229|352:196|352:196|295:287|194:260|194:260|231:220|220:178,1,389.999982147218,2|0,0:0|0:0,0:0:0:0:
475,199,181076,6,0,L|493:50,1,150.000005722046,8|2,0:0|0:0,0:0:0:0:
430,0,181508,1,2,0:0:0:0:
332,60,181652,5,8,0:0:0:0:
267,24,181797,1,2,0:0:0:0:
193,122,181941,1,2,0:0:0:0:
258,158,182085,6,0,B|303:134|338:173|338:173|374:210|420:187,1,179.999994506836,2|2,0:0|0:0,0:0:0:0:
437,295,182518,2,0,P|446:269|468:253,1,55.0000016784668,2|2,0:0|0:0,0:0:0:0:
358,276,182806,5,8,0:0:0:0:
292,320,182951,1,2,0:0:0:0:
222,285,183095,1,2,0:0:0:0:
158,329,183239,2,0,L|161:360,1,22.4999993133545,2|2,0:0|0:0,0:0:0:0:
237,211,183383,6,0,B|264:175|264:175|247:132,1,89.9999972534181,8|2,0:0|0:0,0:0:0:0:
109,115,183672,2,0,B|81:150|81:150|98:193,1,89.9999972534181,2|2,0:0|0:0,0:0:0:0:
173,163,183960,5,8,0:0:0:0:
184,86,184104,1,2,0:0:0:0:
352,103,184249,1,2,0:0:0:0:
341,180,184393,1,2,0:0:0:0:
294,261,184537,6,0,L|291:238,3,22.4999993133545,2|0|0|0,0:0|0:0|0:0|0:0,0:0:0:0:
367,296,184826,2,0,L|370:273,3,22.4999993133545,2|0|0|0,0:0|0:0|0:0|0:0,0:0:0:0:
391,370,185114,6,0,B|398:345|398:345|368:326|368:326|342:352|342:352|356:374,1,125,12|0,0:0|0:0,0:0:0:0:
401,109,185691,6,0,B|332:26|332:26|235:74,1,209.999993591309,4|2,1:2|0:0,0:0:0:0:
310,121,186124,1,2,0:0:0:0:
209,171,186268,5,8,0:0:0:0:
214,145,186412,1,2,0:0:0:0:
239,150,186556,1,2,0:0:0:0:
234,176,186701,1,2,0:0:0:0:
86,267,186845,6,0,L|98:372,1,85.0000016212464,0|2,1:0|0:0,0:0:0:0:
5,285,187133,2,2,L|12:221,1,64.9999970245363
149,217,187422,5,8,0:0:0:0:
158,137,187566,1,2,0:0:0:0:
238,147,187710,1,2,0:0:0:0:
229,227,187854,1,2,0:0:0:0:
341,288,187999,6,0,B|259:298|259:298|240:310|240:310|218:303|218:303|137:313,1,209.999993591309,4|2,1:3|0:0,0:0:0:0:
79,369,188431,1,2,0:0:0:0:
229,227,188576,5,8,0:0:0:0:
179,164,188720,1,2,0:0:0:0:
212,91,188864,1,2,0:0:0:0:
292,87,189008,1,2,0:0:0:0:
443,58,189152,6,0,P|344:64|320:159,1,209.999993591309,0|2,1:0|0:0,0:0:0:0:
399,170,189585,1,2,0:0:0:0:
451,325,189729,5,8,0:0:0:0:
427,248,189874,1,2,0:0:0:0:
348,234,190018,1,2,0:0:0:0:
299,298,190162,1,2,0:0:0:0:
145,338,190306,6,0,B|198:310|239:355|239:355|281:399|334:372,1,209.999993591309,4|2,1:3|0:0,0:0:0:0:
378,305,190739,1,2,0:0:0:0:
401,150,190883,5,8,0:0:0:0:
331,239,191027,1,2,0:0:0:0:
411,230,191172,1,2,0:0:0:0:
321,159,191316,1,2,0:0:0:0:
259,108,191460,6,0,P|246:59|282:24,1,104.999996795654,0|2,1:0|0:0,0:0:0:0:
422,66,191749,2,0,P|435:114|400:149,1,104.999996795654,2|2,0:0|0:0,0:0:0:0:
245,182,192037,5,8,0:0:0:0:
153,307,192181,1,2,0:0:0:0:
111,178,192326,1,2,0:0:0:0:
236,270,192470,1,2,0:0:0:0:
2,154,192614,6,0,P|101:148|125:53,1,209.999993591309,4|2,1:3|0:0,0:0:0:0:
46,42,193047,1,2,0:0:0:0:
202,133,193191,5,8,0:0:0:0:
246,65,193335,1,2,0:0:0:0:
323,85,193479,1,2,0:0:0:0:
327,165,193624,1,2,0:0:0:0:
297,266,193768,5,0,1:0:0:0:
253,198,193912,1,2,0:0:0:0:
176,218,194056,1,2,0:0:0:0:
172,298,194201,1,2,0:0:0:0:
334,175,194345,6,0,L|468:191,1,104.999996795654,8|2,0:0|0:0,0:0:0:0:
434,109,194633,1,2,0:0:0:0:
339,255,194777,1,2,0:0:0:0:
357,102,194922,6,0,B|288:19|288:19|191:67,1,209.999993591309,4|2,1:3|0:0,0:0:0:0:
266,114,195354,1,2,0:0:0:0:
117,131,195499,5,8,0:0:0:0:
122,157,195643,1,2,0:0:0:0:
147,152,195787,1,2,0:0:0:0:
142,126,195931,1,2,0:0:0:0:
244,190,196076,6,0,L|349:202,1,85.0000016212464,0|2,1:0|0:0,0:0:0:0:
442,255,196364,2,2,L|377:262,1,64.9999970245363
218,264,196652,5,8,0:0:0:0:
177,148,196797,1,2,0:0:0:0:
206,272,196941,1,2,0:0:0:0:
187,141,197085,1,2,0:0:0:0:
96,55,197229,6,0,B|177:65|177:65|199:58|199:58|218:70|218:70|300:80,1,209.999993591309,4|2,1:3|0:0,0:0:0:0:
363,29,197662,1,2,0:0:0:0:
512,103,197806,5,8,0:0:0:0:
433,120,197951,1,2,0:0:0:0:
354,137,198095,1,2,0:0:0:0:
275,154,198239,1,2,0:0:0:0:
122,127,198383,6,0,P|221:133|245:228,1,209.999993591309,0|2,1:0|0:0,0:0:0:0:
166,239,198816,1,2,0:0:0:0:
33,279,198960,5,8,0:0:0:0:
112,296,199104,1,2,0:0:0:0:
191,313,199249,1,2,0:0:0:0:
270,330,199393,1,2,0:0:0:0:
443,254,199537,6,0,P|371:193|318:270,1,209.999993591309,4|2,1:3|0:0,0:0:0:0:
387,314,199970,1,2,0:0:0:0:
269,170,200114,5,8,0:0:0:0:
128,244,200258,1,2,0:0:0:0:
214,110,200402,1,2,0:0:0:0:
208,263,200547,1,2,0:0:0:0:
35,325,200691,6,0,P|84:311|119:346,1,104.999996795654,0|2,1:0|0:0,0:0:0:0:
149,166,200979,2,0,P|101:153|66:188,1,104.999996795654,2|2,0:0|0:0,0:0:0:0:
208,263,201268,5,8,0:0:0:0:
214,110,201412,1,2,0:0:0:0:
128,244,201556,1,2,0:0:0:0:
269,170,201701,1,2,0:0:0:0:
316,6,201845,5,4,1:3:0:0:
210,33,201989,1,2,0:0:0:0:
325,16,202133,1,2,0:0:0:0:
342,208,202277,5,6,0:3:0:0:
357,88,202422,1,8,0:0:0:0:
278,78,202566,1,2,0:0:0:0:
192,181,202710,6,0,B|156:142|156:142|107:161,1,104.999996795654,6|2,0:3|0:0,0:0:0:0:
134,232,202999,1,0,1:0:0:0:
324,287,203143,5,6,0:3:0:0:
294,213,203287,1,2,0:0:0:0:
245,277,203431,1,2,0:0:0:0:
124,309,203576,5,12,0:3:0:0:
276,351,203720,1,2,0:0:0:0:
71,367,203864,5,6,0:3:0:0:
235,271,204008,1,2,0:0:0:0:
265,199,204152,6,0,L|253:103,1,59.9999981689454,2|0,0:0|0:0,0:0:0:0:
343,154,204441,2,0,L|339:178,1,25,2|0,0:0|0:0,0:0:0:0:
198,86,204729,6,0,P|173:69|144:72,1,59.9999981689454,2|0,0:0|0:0,0:0:0:0:
267,39,205018,2,0,L|271:63,1,25,2|0,0:0|0:0,0:0:0:0:
176,181,205306,6,0,B|198:161|198:161|227:167,1,59.9999981689454,2|0,0:0|0:0,0:0:0:0:
277,249,205595,2,0,L|281:225,1,25,2|0,0:0|0:0,0:0:0:0:
387,290,205883,6,0,B|358:283|358:283|335:303,1,59.9999981689454,2|0,0:0|0:0,0:0:0:0:
258,348,206172,2,0,L|262:324,1,25,2|0,0:0|0:0,0:0:0:0:
203,269,206460,6,0,L|191:173,1,59.9999981689454,2|0,0:0|0:0,0:0:0:0:
281,224,206749,2,0,L|277:248,1,25,2|0,0:0|0:0,0:0:0:0:
365,267,207037,6,0,L|353:171,1,59.9999981689454,2|0,0:0|0:0,0:0:0:0:
443,222,207326,2,0,L|439:246,1,25,2|0,0:0|0:0,0:0:0:0:
374,132,207614,6,0,P|349:115|320:118,1,59.9999981689454,2|0,0:0|0:0,0:0:0:0:
242,71,207902,2,0,P|253:64|268:64,1,25,2|0,0:0|0:0,0:0:0:0:
147,104,208191,6,0,P|146:74|166:52,1,59.9999981689454,2|0,0:0|0:0,0:0:0:0:
238,154,208479,2,0,P|228:148|211:147,1,25,2|0,0:0|0:0,0:0:0:0:
316,221,208768,6,0,L|196:235,1,119.999996337891,2|2,0:0|0:0,0:0:0:0:
130,297,209201,1,0,0:0:0:0:
130,297,209345,2,0,L|154:300,3,25,2|0|2|0,0:0|0:0|0:0|0:0,0:0:0:0:
176,371,209922,6,0,P|189:314|243:294,1,119.999996337891,2|2,0:0|0:0,0:0:0:0:
336,332,210354,1,0,0:0:0:0:
336,332,210499,2,0,L|311:335,3,25,2|0|2|0,0:0|0:0|0:0|0:0,0:0:0:0:
270,221,211076,6,0,L|245:217,3,25,2|0|2|0,0:0|0:0|0:0|0:0,0:0:0:0:
200,154,211652,2,0,L|203:129,3,25,2|0|2|0,0:0|0:0|0:0|0:0,0:0:0:0:
267,84,212229,6,0,L|291:87,3,25,2|0|2|0,0:0|0:0|0:0|0:0,0:0:0:0:
337,151,212806,2,0,L|333:175,3,25,2|0|2|0,0:0|0:0|0:0|0:0,0:0:0:0:
404,203,213383,6,0,L|284:217,1,89.9999972534181,2|2,0:0|0:0,0:0:0:0:
267,276,213816,1,0,0:0:0:0:
267,276,213960,6,0,L|171:264,1,59.9999981689454,2|0,0:0|0:0,0:0:0:0:
158,331,214249,2,0,L|134:335,1,25,2|0,0:0|0:0,0:0:0:0:
28,246,214537,6,0,P|65:278|107:256,1,89.9999972534181,2|2,0:0|0:0,0:0:0:0:
157,213,214970,1,0,0:0:0:0:
157,213,215114,6,0,L|145:117,1,59.9999981689454,2|0,0:0|0:0,0:0:0:0:
84,113,215402,2,0,L|88:89,1,25,2|0,0:0|0:0,0:0:0:0:
234,61,215691,6,0,P|192:50|162:80,1,89.9999972534181,2|2,0:0|0:0,0:0:0:0:
188,155,216124,1,0,0:0:0:0:
188,155,216268,2,0,P|229:165|259:135,1,89.9999972534181,2|2,0:0|0:0,0:0:0:0:
319,192,216701,1,0,0:0:0:0:
319,192,216845,6,0,P|360:181|390:211,1,89.9999972534181,2|2,0:0|0:0,0:0:0:0:
365,286,217277,1,0,0:0:0:0:
365,286,217422,2,0,P|323:296|293:266,1,89.9999972534181,2|2,0:0|0:0,0:0:0:0:
234,323,217854,1,0,0:0:0:0:
234,323,217999,6,0,L|114:337,1,89.9999972534181,2|2,0:0|0:0,0:0:0:0:
92,261,218431,1,0,0:0:0:0:
92,261,218576,2,0,L|116:264,3,25,2|0|2|0,0:0|0:0|0:0|0:0,0:0:0:0:
19,182,219152,6,0,P|60:192|90:162,1,89.9999972534181,2|2,0:0|0:0,0:0:0:0:
186,196,219585,1,0,0:0:0:0:
186,196,219729,2,0,L|162:199,3,25,2|0|2|0,0:0|0:0|0:0|0:0,0:0:0:0:
242,250,220306,6,0,B|357:264|357:264|368:269|368:269|428:277|428:277|483:284|493:208|437:201|437:201|393:196|393:196|378:190|378:190|322:183,1,424.000000646973,2|0,0:0|0:0,0:0:0:0:
