osu file format v14

[General]
AudioFilename: audio.mp3
AudioLeadIn: 0
PreviewTime: 73987
Countdown: 0
SampleSet: Soft
StackLeniency: 0.7
Mode: 0
LetterboxInBreaks: 0
WidescreenStoryboard: 1

[Editor]
Bookmarks: 1076,19537,37999,56460,74922,93383,111845,130306,148768,167229,181076,185691,204152,222614
DistanceSpacing: 0.86
BeatDivisor: 4
GridSize: 16
TimelineZoom: 1.4

[Metadata]
Title:Good Day feat. DJ Snake & Elliphant
TitleUnicode:Good Day feat. DJ Snake & Elliphant
Artist:Yellow Claw
ArtistUnicode:Yellow Claw
Creator:Xen
Version:Insane
Source:
Tags:los amsterdam dance electronic edm english now im free xenon- xehn
BeatmapID:2245993
BeatmapSetID:1040120

[Difficulty]
HPDrainRate:4.5
CircleSize:4.2
OverallDifficulty:8
ApproachRate:9
SliderMultiplier:2
SliderTickRate:1

[Events]
//Background and Video events
0,0,"bg.jpg",0,0
//Break Periods
2,167429,180476
//Storyboard Layer 0 (Background)
//Storyboard Layer 1 (Fail)
//Storyboard Layer 2 (Pass)
//Storyboard Layer 3 (Foreground)
//Storyboard Layer 4 (Overlay)
//Storyboard Sound Samples

[TimingPoints]
1076,576.923076923077,4,2,2,40,1,0
1076,-149.253731343284,4,2,2,40,0,0
17229,-222.222222222222,4,2,2,40,0,0
19537,-76.9230769230769,4,2,2,55,0,0
20402,-125,4,2,2,55,0,0
20979,-76.9230769230769,4,2,2,55,0,0
24441,-125,4,2,2,55,0,0
25883,-76.9230769230769,4,2,2,55,0,0
26749,-125,4,2,2,55,0,0
27902,-51.2820512820513,4,2,2,55,0,0
28479,-76.9230769230769,4,2,2,55,0,0
31941,-105.263157894737,4,2,2,55,0,0
32229,-76.9230769230769,4,2,2,55,0,0
32518,-105.263157894737,4,2,2,55,0,0
32806,-76.9230769230769,4,2,2,55,0,0
33672,-125,4,2,2,55,0,0
35114,-76.9230769230769,4,2,2,55,0,0
37133,-51.2820512820513,4,2,2,55,0,0
37710,-76.9230769230769,4,2,2,55,0,0
37999,-66.6666666666667,4,2,2,65,0,0
40883,-57.1428571428571,4,2,2,65,0,0
41172,-71.4285714285714,4,2,2,65,0,0
41460,-57.1428571428571,4,2,2,65,0,0
41749,-71.4285714285714,4,2,2,65,0,0
42037,-66.6666666666667,4,2,2,65,0,0
42902,-125,4,2,2,65,0,0
43768,-66.6666666666667,4,2,2,65,0,0
44633,-125,4,2,2,65,0,0
44922,-66.6666666666667,4,2,2,65,0,0
45787,-125,4,2,2,65,0,0
46076,-66.6666666666667,4,2,2,65,0,0
53287,-125,4,2,2,65,0,0
53576,-57.1428571428571,4,2,2,65,0,0
53864,-71.4285714285714,4,2,2,65,0,0
54152,-66.6666666666667,4,2,2,65,0,0
54729,-57.1428571428571,4,2,2,65,0,0
55018,-71.4285714285714,4,2,2,65,0,0
55595,-90.9090909090909,4,2,2,65,0,0
56460,-166.666666666667,4,2,2,55,0,0
57902,-111.111111111111,4,2,2,55,0,0
58768,-166.666666666667,4,2,2,55,0,0
59922,-111.111111111111,4,2,2,55,0,0
60643,-90.9090909090909,4,2,2,55,0,0
62229,-111.111111111111,4,2,2,55,0,0
62806,-90.9090909090909,4,2,2,55,0,0
64536,-111.111111111111,4,2,2,55,0,0
65113,-76.9230769230769,4,2,2,55,0,0
65691,-83.3333333333333,4,2,2,60,0,0
67999,-71.4285714285714,4,2,2,60,0,0
68576,-76.9230769230769,4,2,2,60,0,0
70306,-76.9230769230769,4,2,2,65,0,0
71316,-111.111111111111,4,2,2,65,0,0
71460,-76.9230769230769,4,2,2,65,0,0
72470,-111.111111111111,4,2,2,65,0,0
72614,-76.9230769230769,4,2,2,65,0,0
73768,-47.6190476190476,4,2,2,65,0,0
73912,-47.6190476190476,4,2,2,20,0,0
74922,-45.4545454545455,4,2,2,80,0,1
75210,-71.4285714285714,4,2,2,80,0,1
77229,-58.8235294117647,4,2,2,80,0,1
79537,-45.4545454545455,4,2,2,80,0,1
79825,-71.4285714285714,4,2,2,80,0,1
81845,-58.8235294117647,4,2,2,80,0,1
82133,-71.4285714285714,4,2,2,80,0,1
83287,-58.8235294117647,4,2,2,80,0,1
84152,-45.4545454545455,4,2,2,80,0,1
84441,-71.4285714285714,4,2,2,80,0,1
87037,-58.8235294117647,4,2,2,80,0,1
88768,-45.4545454545455,4,2,2,80,0,1
89056,-71.4285714285714,4,2,2,80,0,1
91076,-100,4,2,2,50,0,0
93383,-76.9230769230769,4,2,2,55,0,0
94248,-125,4,2,2,55,0,0
95402,-76.9230769230769,4,2,2,55,0,0
98287,-125,4,2,2,55,0,0
99729,-76.9230769230769,4,2,2,55,0,0
100595,-125,4,2,2,55,0,0
101748,-51.2820512820513,4,2,2,55,0,0
102325,-76.9230769230769,4,2,2,55,0,0
105787,-105.263157894737,4,2,2,55,0,0
106075,-76.9230769230769,4,2,2,55,0,0
106364,-105.263157894737,4,2,2,55,0,0
106652,-76.9230769230769,4,2,2,55,0,0
107518,-125,4,2,2,55,0,0
108960,-76.9230769230769,4,2,2,55,0,0
110979,-51.2820512820513,4,2,2,55,0,0
111556,-76.9230769230769,4,2,2,55,0,0
111845,-66.6666666666667,4,2,2,65,0,0
114729,-57.1428571428571,4,2,2,65,0,0
115018,-71.4285714285714,4,2,2,65,0,0
115306,-57.1428571428571,4,2,2,65,0,0
115595,-71.4285714285714,4,2,2,65,0,0
115883,-66.6666666666667,4,2,2,65,0,0
117037,-125,4,2,2,65,0,0
117614,-66.6666666666667,4,2,2,65,0,0
118479,-125,4,2,2,65,0,0
118768,-66.6666666666667,4,2,2,65,0,0
119633,-125,4,2,2,65,0,0
119922,-66.6666666666667,4,2,2,65,0,0
127133,-125,4,2,2,65,0,0
127422,-57.1428571428571,4,2,2,65,0,0
127710,-80,4,2,2,65,0,0
127998,-66.6666666666667,4,2,2,65,0,0
128575,-57.1428571428571,4,2,2,65,0,0
128864,-71.4285714285714,4,2,2,65,0,0
129152,-81.9672131147541,4,2,2,65,0,0
129441,-90.9090909090909,4,2,2,65,0,0
130306,-166.666666666667,4,2,2,55,0,0
131748,-111.111111111111,4,2,2,55,0,0
132614,-166.666666666667,4,2,2,55,0,0
133768,-111.111111111111,4,2,2,55,0,0
134489,-90.9090909090909,4,2,2,55,0,0
136075,-111.111111111111,4,2,2,55,0,0
136652,-90.9090909090909,4,2,2,55,0,0
138382,-111.111111111111,4,2,2,55,0,0
138959,-76.9230769230769,4,2,2,55,0,0
139537,-83.3333333333333,4,2,2,60,0,0
141845,-71.4285714285714,4,2,2,60,0,0
142422,-76.9230769230769,4,2,2,60,0,0
144152,-76.9230769230769,4,2,2,65,0,0
145162,-111.111111111111,4,2,2,65,0,0
145306,-76.9230769230769,4,2,2,65,0,0
146316,-111.111111111111,4,2,2,65,0,0
146460,-76.9230769230769,4,2,2,65,0,0
147614,-40.8163265306122,4,2,2,65,0,0
147758,-40.8163265306122,4,2,2,20,0,0
148768,-45.4545454545455,4,2,2,80,0,1
149056,-71.4285714285714,4,2,2,80,0,1
151076,-58.8235294117647,4,2,2,80,0,1
153383,-45.4545454545455,4,2,2,80,0,1
153672,-71.4285714285714,4,2,2,80,0,1
155691,-58.8235294117647,4,2,2,80,0,1
155979,-71.4285714285714,4,2,2,80,0,1
157133,-58.8235294117647,4,2,2,80,0,1
157999,-45.4545454545455,4,2,2,80,0,1
158287,-71.4285714285714,4,2,2,80,0,1
160306,-58.8235294117647,4,2,2,80,0,1
162614,-45.4545454545455,4,2,2,80,0,1
162902,-71.4285714285714,4,2,2,80,0,1
164922,-58.8235294117647,4,2,2,80,0,1
165210,-71.4285714285714,4,2,2,80,0,1
166364,-58.8235294117647,4,2,2,80,0,1
167229,-100,4,2,2,50,0,0
181076,-71.4285714285714,4,2,2,60,0,0
182518,-111.111111111111,4,2,2,60,0,0
183383,-76.9230769230769,4,2,2,60,0,0
184537,-111.111111111111,4,2,2,60,0,0
185114,-40,4,2,2,60,0,0
185258,-40,4,2,2,20,0,0
185691,-54.054054054054,4,2,2,70,0,1
186268,-71.4285714285714,4,2,2,70,0,1
186845,-54.054054054054,4,2,2,70,0,1
188576,-71.4285714285714,4,2,2,70,0,1
189152,-54.054054054054,4,2,2,70,0,1
190883,-71.4285714285714,4,2,2,70,0,1
191460,-54.054054054054,4,2,2,70,0,1
192037,-71.4285714285714,4,2,2,70,0,1
192614,-54.054054054054,4,2,2,70,0,1
194922,-54.054054054054,4,2,2,70,0,1
195499,-71.4285714285714,4,2,2,70,0,1
196076,-54.054054054054,4,2,2,70,0,1
197806,-71.4285714285714,4,2,2,70,0,1
198383,-54.054054054054,4,2,2,70,0,1
200114,-71.4285714285714,4,2,2,70,0,1
200691,-54.054054054054,4,2,2,70,0,1
201268,-71.4285714285714,4,2,2,70,0,1
201845,-54.054054054054,4,2,2,70,0,1
204152,-90.9090909090909,4,2,2,40,0,0
204729,-166.666666666667,4,2,2,40,0,0
205306,-90.9090909090909,4,2,2,40,0,0
205883,-166.666666666667,4,2,2,40,0,0
206460,-90.9090909090909,4,2,2,40,0,0
207037,-166.666666666667,4,2,2,40,0,0
207614,-90.9090909090909,4,2,2,40,0,0
208191,-166.666666666667,4,2,2,40,0,0
213383,-90.9090909090909,4,2,2,40,0,0
213960,-166.666666666667,4,2,2,40,0,0
214537,-90.9090909090909,4,2,2,40,0,0
215114,-166.666666666667,4,2,2,40,0,0
215691,-90.9090909090909,4,2,2,40,0,0
216268,-166.666666666667,4,2,2,40,0,0
216845,-90.9090909090909,4,2,2,40,0,0
217422,-166.666666666667,4,2,2,40,0,0
220306,-290.023201856148,4,2,2,40,0,0
222614,-290.023201856148,4,2,2,20,0,0

[Colours]
Combo1 : 251,160,103
Combo2 : 114,142,186
Combo3 : 216,60,73
Combo4 : 38,48,117

[HitObjects]
90,123,10306,6,0,B|94:86|71:63|71:63|185:32|144:135|258:104,1,267.999987322999,2|0,0:0|0:0,0:0:0:0:
322,278,12614,6,0,B|283:265|271:231|276:191|276:191|295:32,1,267.999987322999,2|0,0:0|0:0,0:0:0:0:
467,286,14922,6,0,B|403:293|361:218|361:218|339:301|276:309,1,267.999987322999,2|0,0:0|0:0,0:0:0:0:
86,197,17229,6,0,L|97:101,1,89.9999972534181,2|0,0:0|0:0,0:0:0:0:
393,222,18960,6,0,L|390:199,2,22.4999993133545,12|0|0,0:0|0:0|0:0,0:0:0:0:
476,93,19537,6,0,B|409:77|425:136|356:121,1,129.999994049073,0|2,1:0|0:0,0:0:0:0:
296,69,19970,1,0,0:0:0:0:
206,132,20114,5,8,0:0:0:0:
199,123,20402,2,0,L|191:186,2,40,2|0|0,0:0|0:0|1:0,0:0:0:0:
308,245,20979,6,0,P|284:223|252:218,1,64.9999970245363,2|0,0:0|0:0,0:0:0:0:
127,296,21268,2,0,P|122:327|137:356,1,64.9999970245363,8|0,0:0|0:0,0:0:0:0:
213,342,21556,2,0,P|217:310|202:281,1,64.9999970245363,2|0,0:0|0:0,0:0:0:0:
300,325,21845,6,0,B|367:341|351:282|420:297,1,129.999994049073,0|2,1:0|0:0,0:0:0:0:
487,337,22277,1,0,0:0:0:0:
422,219,22422,5,8,0:0:0:0:
430,212,22710,2,0,L|439:132,1,64.9999970245363,2|0,0:0|0:0,0:0:0:0:
391,2,22999,6,0,B|354:28|354:28|366:123,1,129.999994049073,0|2,1:0|0:0,0:0:0:0:
316,173,23431,1,0,0:0:0:0:
223,68,23576,6,0,P|192:63|163:78,1,64.9999970245363,8|0,0:0|0:0,0:0:0:0:
181,154,23864,2,0,P|213:158|242:143,1,64.9999970245363,2|0,0:0|0:0,0:0:0:0:
142,246,24152,5,0,1:0:0:0:
135,255,24441,2,0,L|127:192,2,40,2|0|8,0:0|0:0|0:0,0:0:0:0:
67,140,25018,2,0,L|61:179,2,40,2|0|0,0:0|0:0|1:0,0:0:0:0:
208,203,25595,6,0,L|213:242,1,40,2|0,0:0|0:0,0:0:0:0:
320,336,25883,2,0,B|283:310|283:310|295:215,1,129.999994049073,8|2,0:0|0:0,0:0:0:0:
356,179,26316,1,0,0:0:0:0:
282,87,26460,5,0,1:0:0:0:
276,97,26749,2,0,L|237:103,2,40,2|0|8,0:0|0:0|0:0,0:0:0:0:
154,164,27326,2,0,L|193:170,2,40,2|0|0,0:0|0:0|1:0,0:0:0:0:
289,22,27902,6,0,B|334:5|334:5|373:35,1,97.500000371933,12|0,0:3|0:0,0:0:0:0:
345,230,28191,2,0,B|299:246|299:246|260:216,1,97.500000371933,12|0,0:3|0:0,0:0:0:0:
320,93,28479,2,0,L|312:157,1,64.9999970245363,2|0,0:0|0:0,0:0:0:0:
222,292,28768,6,0,B|153:307|169:248|102:264,1,129.999994049073,0|2,1:0|0:0,0:0:0:0:
47,320,29201,1,0,0:0:0:0:
106,181,29345,5,8,0:0:0:0:
115,187,29633,2,0,P|110:156|125:127,1,64.9999970245363,2|0,0:0|0:0,0:0:0:0:
64,13,29922,6,0,B|88:54|88:54|183:42,1,129.999994049073,0|2,1:0|0:0,0:0:0:0:
237,81,30354,1,0,0:0:0:0:
350,12,30499,5,8,0:0:0:0:
341,19,30787,2,0,P|355:47|350:78,1,64.9999970245363,2|0,0:0|0:0,0:0:0:0:
249,169,31076,6,0,P|302:141|338:188,1,129.999994049073,0|2,1:0|0:0,0:0:0:0:
279,239,31508,1,0,0:0:0:0:
362,328,31652,6,0,L|350:232,1,64.9999970245363,8|0,0:0|0:0,0:0:0:0:
434,266,31941,2,0,L|439:313,1,47.4999987316132,2|0,0:0|0:0,0:0:0:0:
281,317,32229,6,0,L|273:381,1,64.9999970245363,0|0,1:0|0:0,0:0:0:0:
196,365,32518,2,0,L|201:317,1,47.4999987316132,2|0,0:0|0:0,0:0:0:0:
27,286,32806,6,0,B|96:301|80:242|147:258,1,129.999994049073,8|2,0:0|0:0,0:0:0:0:
211,212,33239,1,0,0:0:0:0:
162,108,33383,5,0,1:0:0:0:
169,101,33672,2,0,L|175:62,2,40,2|0|8,0:0|0:0|0:0,0:0:0:0:
246,1,34249,2,0,L|252:40,2,40,2|0|0,0:0|0:0|1:0,0:0:0:0:
97,51,34826,6,0,L|91:90,1,40,2|0,0:0|0:0,0:0:0:0:
14,213,35114,2,0,P|50:165|102:193,1,129.999994049073,8|2,0:0|0:0,0:0:0:0:
171,232,35547,1,0,0:0:0:0:
283,163,35691,6,0,B|242:187|242:187|254:282,1,129.999994049073,0|2,1:0|0:0,0:0:0:0:
178,365,36124,1,0,3:0:0:0:
341,328,36268,6,0,B|272:343|288:284|221:300,1,129.999994049073,8|2,0:0|0:0,0:0:0:0:
155,256,36701,1,0,0:0:0:0:
52,343,36845,2,0,P|77:323|109:322,1,64.9999970245363,0|2,1:0|0:0,0:0:0:0:
225,221,37133,6,0,B|195:182|195:182|212:137,1,97.500000371933,12|0,0:3|0:0,0:0:0:0:
406,108,37422,2,0,B|436:147|436:147|420:193,1,97.500000371933,12|0,0:3|0:0,0:0:0:0:
283,170,37710,2,0,L|347:162,1,64.9999970245363,2|0,0:0|0:0,0:0:0:0:
286,306,37999,6,0,L|127:286,1,150.000005722046,4|2,1:2|0:0,0:0:0:0:
75,335,38431,1,0,0:0:0:0:
25,209,38576,5,8,0:0:0:0:
18,218,38864,2,0,P|53:208|85:226,1,75.0000028610231,2|0,0:0|0:0,0:0:0:0:
220,115,39152,5,0,1:0:0:0:
239,192,39297,1,2,0:0:0:0:
137,287,39441,2,0,L|127:361,1,75.0000028610231,2|0,0:0|0:0,0:0:0:0:
162,211,39729,5,8,0:0:0:0:
143,134,39874,1,2,0:0:0:0:
197,42,40018,2,0,P|232:32|264:50,1,75.0000028610231,2|0,0:0|0:0,0:0:0:0:
350,1,40306,6,0,L|331:149,1,150.000005722046,0|2,1:0|0:0,0:0:0:0:
385,208,40739,1,0,0:0:0:0:
253,125,40883,6,0,P|210:125|179:166,1,87.500000834465,8|0,0:0|0:0,0:0:0:0:
99,38,41172,2,0,P|131:38|157:69,1,69.9999978637696,2|0,0:0|0:0,0:0:0:0:
290,197,41460,6,0,P|261:228|218:229,1,87.500000834465,0|0,1:0|0:0,0:0:0:0:
173,340,41749,2,0,P|207:338|229:313,1,69.9999978637696,2|0,0:0|0:0,0:0:0:0:
182,157,42037,6,0,B|102:174|120:106|43:124,1,150.000005722046,8|2,0:0|0:0,0:0:0:0:
13,197,42470,1,0,0:0:0:0:
97,47,42614,5,0,1:0:0:0:
104,52,42902,2,0,L|110:13,2,40,2|0|8,0:0|0:0|0:0,0:0:0:0:
257,123,43479,6,0,L|263:162,1,40,2|0,0:0|0:0,0:0:0:0:
358,68,43768,2,0,L|338:226,1,150.000005722046,0|2,1:0|0:0,0:0:0:0:
393,275,44201,1,0,0:0:0:0:
292,384,44345,5,8,0:0:0:0:
300,376,44633,2,0,L|294:337,1,40,2|0,0:0|0:0,0:0:0:0:
168,250,44922,6,0,P|232:280|256:214,1,150.000005722046,0|2,1:0|0:0,0:0:0:0:
194,176,45354,1,0,0:0:0:0:
333,197,45499,5,8,0:0:0:0:
327,188,45787,2,0,L|333:149,1,40,2|0,0:0|0:0,0:0:0:0:
426,236,46076,6,0,L|407:87,1,150.000005722046,0|2,1:0|0:0,0:0:0:0:
459,28,46508,1,0,0:0:0:0:
330,73,46652,5,8,0:0:0:0:
262,32,46797,1,2,0:0:0:0:
201,84,46941,2,0,P|170:63|134:71,1,75.0000028610231,2|0,0:0|0:0,0:0:0:0:
30,192,47229,6,0,P|66:134|126:166,1,150.000005722046,0|2,1:0|0:0,0:0:0:0:
95,238,47662,1,0,0:0:0:0:
207,164,47806,6,0,B|284:146|266:214|346:197,1,150.000005722046,8|2,0:0|0:0,0:0:0:0:
403,142,48239,1,0,0:0:0:0:
341,281,48383,5,0,1:0:0:0:
349,289,48672,2,0,P|380:268|416:276,1,75.0000028610231,2|2,0:0|0:0,0:0:0:0:
289,348,48960,5,8,0:0:0:0:
214,322,49104,1,2,0:0:0:0:
119,370,49249,2,0,L|45:380,1,75.0000028610231,2|0,0:0|0:0,0:0:0:0:
209,204,49537,6,0,B|183:249|183:249|80:236,1,150.000005722046,0|2,1:0|0:0,0:0:0:0:
45,168,49970,1,0,0:0:0:0:
197,123,50114,6,0,B|274:105|256:173|336:156,1,150.000005722046,8|2,0:0|0:0,0:0:0:0:
404,195,50547,1,0,0:0:0:0:
451,64,50691,5,0,1:0:0:0:
457,73,50979,1,2,0:0:0:0:
379,89,51124,1,2,0:0:0:0:
271,152,51268,5,8,0:0:0:0:
193,136,51412,1,2,0:0:0:0:
136,189,51556,2,0,P|105:168|70:175,1,75.0000028610231,2|0,0:0|0:0,0:0:0:0:
126,72,51845,6,0,P|186:104|222:46,1,150.000005722046,0|2,1:0|0:0,0:0:0:0:
157,0,52277,1,0,0:0:0:0:
301,51,52422,6,0,P|361:18|397:76,1,150.000005722046,8|2,0:0|0:0,0:0:0:0:
332,123,52854,1,0,0:0:0:0:
373,237,52999,5,0,1:0:0:0:
368,229,53287,2,0,L|373:189,1,40,2|0,0:0|0:0,0:0:0:0:
443,304,53576,6,0,P|400:299|367:327,1,87.500000834465,8|0,0:0|0:0,0:0:0:0:
287,218,53864,2,0,L|298:313,1,69.9999978637696,2|0,0:0|0:0,0:0:0:0:
100,311,54152,6,0,B|177:293|159:361|239:344,1,150.000005722046,0|2,1:0|0:0,0:0:0:0:
307,383,54585,1,0,0:0:0:0:
368,229,54729,6,0,L|379:131,1,87.500000834465,8|0,0:0|0:0,0:0:0:0:
512,187,55018,2,0,P|478:183|452:203,1,69.9999978637696,2|0,0:0|0:0,0:0:0:0:
318,89,55306,5,0,1:0:0:0:
311,96,55595,2,0,L|304:41,1,55.0000016784668,2|0,0:0|0:0,0:0:0:0:
337,168,55883,5,8,0:0:0:0:
259,152,56027,1,2,0:0:0:0:
227,260,56172,5,2,0:0:0:0:
134,280,56316,1,2,0:0:0:0:
77,227,56460,6,0,B|41:200|41:200|0:217,1,89.9999972534181,4|0,1:2|0:0,0:0:0:0:
30,287,57037,2,0,L|22:350,1,59.9999981689454,8|0,0:1|0:0,0:0:0:0:
152,212,57614,5,8,0:1:0:0:
162,218,57902,2,0,L|156:173,1,44.999998626709,2|0,0:0|0:0,0:0:0:0:
219,129,58191,6,0,L|232:17,1,89.9999972534181,8|2,0:1|0:0,0:0:0:0:
298,3,58624,1,2,0:0:0:0:
365,41,58768,6,0,B|401:14|401:14|442:31,1,89.9999972534181,8|0,0:1|0:0,0:0:0:0:
412,101,59345,2,0,L|420:164,1,59.9999981689454,8|0,0:1|0:0,0:0:0:0:
290,52,59922,5,8,0:1:0:0:
283,61,60210,2,0,L|288:16,1,44.999998626709,2|0,0:0|0:0,0:0:0:0:
211,90,60499,5,8,0:1:0:0:
153,38,60643,2,0,P|101:25|90:100,1,110.000003356934,2|2,0:0|0:0,0:0:0:0:
7,134,61076,6,0,L|116:147,1,110.000003356934,8|2,0:1|0:0,0:0:0:0:
164,211,61508,1,0,0:0:0:0:
237,235,61652,2,0,L|127:248,1,110.000003356934,8|2,0:1|0:0,0:0:0:0:
155,80,62229,5,8,0:1:0:0:
163,88,62518,2,0,L|158:43,1,44.999998626709,2|0,0:0|0:0,0:0:0:0:
235,117,62806,5,8,0:1:0:0:
293,65,62951,2,0,P|345:52|356:127,1,110.000003356934,2|2,0:0|0:0,0:0:0:0:
439,161,63383,6,0,L|330:174,1,110.000003356934,8|2,0:1|0:0,0:0:0:0:
282,238,63816,1,0,0:0:0:0:
209,262,63960,2,0,L|319:275,1,110.000003356934,8|2,0:1|0:0,0:0:0:0:
153,359,64537,5,8,0:1:0:0:
161,367,64826,2,0,L|156:322,1,44.999998626709,2|0,0:0|0:0,0:0:0:0:
90,280,65114,6,0,L|97:215,1,64.9999970245363,8|0,0:1|0:0,0:0:0:0:
156,161,65402,1,2,0:0:0:0:
223,204,65547,1,2,0:0:0:0:
292,164,65691,6,0,P|332:126|385:159,1,119.999996337891,4|0,1:2|0:0,0:0:0:0:
346,223,66124,1,8,0:1:0:0:
460,281,66268,6,0,B|435:263|435:263|408:273,1,59.9999981689454,8|0,0:1|0:0,0:0:0:0:
428,347,66556,1,2,0:0:0:0:
420,354,66845,5,8,0:1:0:0:
347,325,66989,1,8,0:1:0:0:
294,382,67133,1,8,0:1:0:0:
290,373,67422,6,0,L|166:358,1,119.999996337891,8|2,0:1|0:0,0:0:0:0:
130,292,67854,1,2,0:0:0:0:
58,181,67999,6,0,B|81:221|81:221|173:209,1,139.999995727539,8|0,0:1|0:0,0:0:0:0:
222,146,68431,1,8,0:1:0:0:
279,258,68576,6,0,P|307:272|338:267,1,64.9999970245363,8|0,0:1|0:0,0:0:0:0:
353,192,68864,2,0,P|324:177|292:181,1,64.9999970245363,2|0,0:0|0:0,0:0:0:0:
215,304,69152,5,8,0:1:0:0:
142,275,69297,1,8,0:1:0:0:
89,332,69441,2,0,L|24:324,1,64.9999970245363,8|0,0:1|0:0,0:0:0:0:
125,201,69729,5,8,0:1:0:0:
64,152,69874,2,0,B|113:109|113:109|171:139,1,129.999994049073,2|2,0:0|0:0,0:0:0:0:
254,50,70306,6,0,P|222:45|195:62,1,64.9999970245363,8|2,0:0|0:0,0:0:0:0:
125,201,70595,2,0,L|133:266,1,64.9999970245363,2|2,0:0|0:0,0:0:0:0:
271,276,70883,5,8,0:0:0:0:
199,311,71027,1,2,0:0:0:0:
265,355,71172,1,2,0:0:0:0:
337,320,71316,2,0,L|359:322,1,22.4999993133545,2|2,0:0|0:0,0:0:0:0:
320,213,71460,6,0,P|325:181|308:154,1,64.9999970245363,8|2,0:0|0:0,0:0:0:0:
189,250,71749,2,0,L|254:258,1,64.9999970245363,2|2,0:0|0:0,0:0:0:0:
234,129,72037,5,8,0:0:0:0:
295,77,72181,1,2,0:0:0:0:
220,50,72326,1,2,0:0:0:0:
159,102,72470,2,0,L|128:106,1,22.4999993133545,2|2,0:0|0:0,0:0:0:0:
60,177,72614,6,0,P|92:172|119:189,1,64.9999970245363,8|2,0:0|0:0,0:0:0:0:
227,283,72902,2,0,L|219:348,1,64.9999970245363,2|2,0:0|0:0,0:0:0:0:
196,208,73191,5,8,0:0:0:0:
238,139,73335,1,2,0:0:0:0:
189,75,73479,2,0,P|184:43|201:16,1,64.9999970245363,2|2,0:0|0:0,0:0:0:0:
96,115,73768,6,0,P|87:81|100:114,1,104.999996795654,12|0,0:0|0:0,0:0:0:0:
472,145,74922,6,0,B|419:151|419:151|416:149|416:149|363:156,1,110.000003356934,4|0,1:2|0:0,0:0:0:0:
247,11,75210,2,0,B|279:0|279:0|307:19,1,69.9999978637696,2|0,0:0|0:0,0:0:0:0:
267,85,75499,5,8,0:0:0:0:
143,111,75643,1,2,0:0:0:0:
69,215,75787,5,2,0:0:0:0:
194,256,75931,2,0,L|205:351,1,69.9999978637696,2|0,0:0|1:0,0:0:0:0:
116,282,76220,5,2,0:0:0:0:
241,192,76364,2,0,B|273:181|273:181|301:200,1,69.9999978637696,2|0,0:0|0:0,0:0:0:0:
124,106,76652,6,0,L|132:36,1,69.9999978637696,8|0,0:0|0:0,0:0:0:0:
52,143,76941,1,0,3:0:0:0:
52,143,77085,1,0,3:0:0:0:
208,78,77229,6,0,B|295:57|274:134|365:114,1,170.000003242493,0|2,1:0|0:0,0:0:0:0:
428,64,77662,1,0,0:0:0:0:
357,194,77806,5,8,0:0:0:0:
351,203,78095,1,2,0:0:0:0:
403,334,78239,1,2,0:0:0:0:
477,306,78383,6,0,B|525:277|525:277|511:165,1,170.000003242493,0|2,1:0|0:0,0:0:0:0:
444,120,78816,1,0,0:0:0:0:
500,0,78960,5,8,0:0:0:0:
508,10,79249,1,2,0:0:0:0:
383,67,79393,1,2,0:0:0:0:
310,100,79537,6,0,P|273:63|228:88,1,110.000003356934,4|0,1:3|0:0,0:0:0:0:
145,9,79826,2,0,B|174:-11|174:-11|206:0,1,69.9999978637696,2|0,0:0|0:0,0:0:0:0:
152,87,80114,5,8,0:0:0:0:
38,43,80258,1,2,0:0:0:0:
77,197,80402,5,2,0:0:0:0:
191,153,80547,2,0,L|260:161,1,69.9999978637696,2|0,0:0|1:0,0:0:0:0:
156,227,80835,5,2,0:0:0:0:
112,72,80979,2,0,B|143:58|143:58|173:76,1,69.9999978637696,2|0,0:0|0:0,0:0:0:0:
77,197,81268,6,0,L|7:205,1,69.9999978637696,8|0,0:0|0:0,0:0:0:0:
142,151,81556,1,0,3:0:0:0:
142,151,81701,1,0,3:0:0:0:
228,265,81845,6,0,P|203:298|210:339,1,85.0000016212464,0|0,1:0|0:0,0:0:0:0:
289,353,82133,2,0,P|309:326|306:293,1,69.9999978637696,2|0,0:0|0:0,0:0:0:0:
131,261,82422,5,8,0:0:0:0:
120,165,82566,1,2,0:0:0:0:
110,86,82710,1,2,0:0:0:0:
101,92,82999,6,0,P|122:65|119:32,1,69.9999978637696,0|0,1:0|0:0,0:0:0:0:
43,3,83287,2,0,P|18:36|25:77,1,85.0000016212464,2|0,0:0|0:0,0:0:0:0:
202,77,83576,5,8,0:0:0:0:
321,34,83720,1,2,0:0:0:0:
193,1,83864,1,2,0:0:0:0:
279,101,84008,1,2,0:0:0:0:
338,156,84152,6,0,B|332:209|332:209|334:212|334:212|327:265,1,110.000003356934,4|0,1:3|0:0,0:0:0:0:
476,201,84441,2,0,B|444:190|444:190|416:209,1,69.9999978637696,2|0,0:0|0:0,0:0:0:0:
290,93,84729,5,8,0:0:0:0:
168,125,84874,1,2,0:0:0:0:
254,23,85018,5,2,0:0:0:0:
368,78,85162,2,0,L|360:148,1,69.9999978637696,2|0,0:0|1:0,0:0:0:0:
331,8,85451,5,2,0:0:0:0:
207,86,85595,2,0,B|175:75|175:75|147:94,1,69.9999978637696,2|0,0:0|0:0,0:0:0:0:
287,196,85883,6,0,L|279:126,1,69.9999978637696,8|0,0:0|0:0,0:0:0:0:
365,225,86172,1,0,3:0:0:0:
365,225,86316,1,0,3:0:0:0:
218,236,86460,5,0,1:0:0:0:
194,344,86604,1,2,0:0:0:0:
85,321,86749,1,2,0:0:0:0:
151,279,86893,1,2,0:0:0:0:
272,355,87037,6,0,P|313:362|346:337,1,85.0000016212464,8|0,0:0|0:0,0:0:0:0:
457,249,87326,1,2,0:0:0:0:
426,352,87470,1,2,0:0:0:0:
387,210,87614,6,0,B|358:162|358:162|246:176,1,170.000003242493,0|2,1:0|0:0,0:0:0:0:
201,243,88047,1,0,0:0:0:0:
101,325,88191,5,8,0:0:0:0:
111,333,88479,1,2,0:0:0:0:
134,200,88624,1,2,0:0:0:0:
82,139,88768,6,0,P|119:102|164:127,1,110.000003356934,4|0,1:3|0:0,0:0:0:0:
247,48,89056,2,0,B|218:28|218:28|186:39,1,69.9999978637696,2|0,0:0|0:0,0:0:0:0:
243,129,89345,5,8,0:0:0:0:
357,85,89489,1,2,0:0:0:0:
323,239,89633,5,2,0:0:0:0:
199,198,89777,2,0,L|130:206,1,69.9999978637696,2|0,0:0|1:0,0:0:0:0:
248,268,90066,5,2,0:0:0:0:
283,114,90210,2,0,B|251:100|251:100|221:118,1,69.9999978637696,2|0,0:0|0:0,0:0:0:0:
323,239,90499,6,0,L|393:247,1,69.9999978637696,8|0,0:0|0:0,0:0:0:0:
261,192,90787,1,0,3:0:0:0:
261,192,90931,1,0,3:0:0:0:
198,273,91076,6,0,L|247:267,1,50,4|0,1:2|0:0,0:0:0:0:
209,349,91364,2,0,L|258:343,1,50,2|0,0:0|0:0,0:0:0:0:
156,204,91652,6,0,L|106:198,1,50,2|0,0:0|0:0,0:0:0:0:
36,159,91941,1,2,0:0:0:0:
0,230,92085,2,0,L|3:256,2,25,0|0|2,0:0|0:0|0:0,0:0:0:0:
44,82,92374,5,0,0:0:0:0:
114,121,92518,2,0,L|163:126,1,50,2|0,0:0|0:0,0:0:0:0:
283,213,92806,5,2,0:0:0:0:
206,192,92951,1,0,0:0:0:0:
149,247,93095,2,0,L|154:296,1,50,2|0,0:0|0:0,0:0:0:0:
44,347,93383,6,0,B|111:331|95:390|164:375,1,129.999994049073,4|2,1:2|0:0,0:0:0:0:
229,329,93816,1,0,0:0:0:0:
330,382,93960,5,8,0:0:0:0:
325,372,94249,2,0,L|333:309,2,40,2|0|0,0:0|0:0|1:0,0:0:0:0:
399,262,94826,2,0,L|404:301,2,40,2|0|8,0:0|0:0|0:0,0:0:0:0:
312,75,95402,6,0,P|297:103|301:135,1,64.9999970245363,2|0,0:0|0:0,0:0:0:0:
409,185,95691,2,0,B|342:169|358:228|289:213,1,129.999994049073,0|2,1:0|0:0,0:0:0:0:
227,164,96124,1,0,0:0:0:0:
287,291,96268,5,8,0:0:0:0:
279,298,96556,2,0,L|270:378,1,64.9999970245363,2|0,0:0|0:0,0:0:0:0:
357,337,96845,6,0,B|394:311|394:311|382:216,1,129.999994049073,0|2,1:0|0:0,0:0:0:0:
432,166,97277,1,0,0:0:0:0:
307,203,97422,6,0,P|322:175|318:143,1,64.9999970245363,8|0,0:0|0:0,0:0:0:0:
240,134,97710,2,0,P|225:162|229:195,1,64.9999970245363,2|0,0:0|0:0,0:0:0:0:
151,153,97999,5,0,1:0:0:0:
144,162,98287,2,0,L|136:99,2,40,2|0|8,0:0|0:0|0:0,0:0:0:0:
76,47,98864,2,0,L|70:86,2,40,2|0|0,0:0|0:0|1:0,0:0:0:0:
219,116,99441,6,0,L|224:155,1,40,2|0,0:0|0:0,0:0:0:0:
175,289,99729,2,0,B|138:263|138:263|150:168,1,129.999994049073,8|2,0:0|0:0,0:0:0:0:
92,123,100162,1,0,0:0:0:0:
0,189,100306,5,0,1:0:0:0:
8,197,100595,2,0,L|47:191,2,40,2|0|8,0:0|0:0|0:0,0:0:0:0:
136,260,101172,2,0,L|97:254,2,40,2|0|0,0:0|0:0|1:0,0:0:0:0:
266,312,101749,6,0,B|227:342|227:342|182:325,1,97.500000371933,12|0,0:3|0:0,0:0:0:0:
153,131,102037,2,0,B|192:101|192:101|238:117,1,97.500000371933,12|0,0:3|0:0,0:0:0:0:
213,254,102326,2,0,L|205:190,1,64.9999970245363,2|0,0:0|0:0,0:0:0:0:
310,85,102614,6,0,B|379:70|363:129|430:113,1,129.999994049073,0|2,1:0|0:0,0:0:0:0:
485,57,103047,1,0,0:0:0:0:
426,196,103191,5,8,0:0:0:0:
417,190,103479,2,0,P|422:221|407:250,1,64.9999970245363,2|0,0:0|0:0,0:0:0:0:
296,316,103768,6,0,B|337:292|337:292|325:197,1,129.999994049073,0|2,1:0|0:0,0:0:0:0:
358,139,104201,1,0,0:0:0:0:
252,187,104345,5,8,0:0:0:0:
245,196,104633,2,0,P|217:182|186:187,1,64.9999970245363,2|0,0:0|0:0,0:0:0:0:
90,304,104922,6,0,P|126:256|178:284,1,129.999994049073,0|2,1:0|0:0,0:0:0:0:
149,356,105354,1,0,0:0:0:0:
257,286,105499,6,0,L|353:298,1,64.9999970245363,8|0,0:0|0:0,0:0:0:0:
320,215,105787,2,0,L|273:210,1,47.4999987316132,2|0,0:0|0:0,0:0:0:0:
167,68,106076,6,0,L|231:60,1,64.9999970245363,0|0,1:0|0:0,0:0:0:0:
233,140,106364,2,0,L|185:145,1,47.4999987316132,2|0,0:0|0:0,0:0:0:0:
299,14,106652,6,0,B|368:-1|352:58|419:42,1,129.999994049073,8|2,0:0|0:0,0:0:0:0:
483,88,107085,1,0,0:0:0:0:
425,191,107229,5,0,1:0:0:0:
430,181,107518,2,0,L|424:142,2,40,2|0|8,0:0|0:0|0:0,0:0:0:0:
353,81,108095,2,0,L|347:120,2,40,2|0|0,0:0|0:0|1:0,0:0:0:0:
502,134,108672,6,0,L|508:173,1,40,2|0,0:0|0:0,0:0:0:0:
445,236,108960,2,0,P|409:188|357:216,1,129.999994049073,8|2,0:0|0:0,0:0:0:0:
288,255,109393,1,0,0:0:0:0:
176,186,109537,6,0,B|217:210|217:210|205:305,1,129.999994049073,0|2,1:0|0:0,0:0:0:0:
289,383,109970,1,0,3:0:0:0:
118,351,110114,6,0,B|187:366|171:307|238:323,1,129.999994049073,8|2,0:0|0:0,0:0:0:0:
306,281,110547,1,0,0:0:0:0:
413,363,110691,2,0,P|388:343|356:342,1,64.9999970245363,0|2,1:0|0:0,0:0:0:0:
261,218,110979,6,0,B|291:179|291:179|274:134,1,97.500000371933,12|0,0:3|0:0,0:0:0:0:
80,105,111268,2,0,B|50:144|50:144|66:190,1,97.500000371933,12|0,0:3|0:0,0:0:0:0:
203,167,111556,2,0,L|139:159,1,64.9999970245363,2|0,0:0|0:0,0:0:0:0:
200,303,111845,6,0,L|359:283,1,150.000005722046,4|2,1:2|0:0,0:0:0:0:
418,323,112277,1,0,0:0:0:0:
512,239,112422,5,8,0:0:0:0:
433,223,112566,1,0,0:0:0:0:
354,207,112710,2,0,P|344:172|362:140,1,75.0000028610231,2|0,0:0|0:0,0:0:0:0:
258,43,112999,5,0,1:0:0:0:
277,120,113143,1,2,0:0:0:0:
204,211,113287,2,0,L|130:201,1,75.0000028610231,2|0,0:0|0:0,0:0:0:0:
45,295,113576,6,0,P|35:259|53:227,1,75.0000028610231,8|0,0:0|0:0,0:0:0:0:
182,130,113864,2,0,P|192:94|174:62,1,75.0000028610231,2|0,0:0|0:0,0:0:0:0:
267,262,114152,6,0,B|347:279|329:211|406:229,1,150.000005722046,0|2,1:0|0:0,0:0:0:0:
472,275,114585,1,0,0:0:0:0:
475,120,114729,6,0,P|432:120|401:161,1,87.500000834465,8|0,0:0|0:0,0:0:0:0:
321,33,115018,2,0,P|353:33|379:64,1,69.9999978637696,2|0,0:0|0:0,0:0:0:0:
512,192,115306,6,0,P|483:223|440:224,1,87.500000834465,0|0,1:0|0:0,0:0:0:0:
395,335,115595,2,0,P|429:333|451:308,1,69.9999978637696,2|0,0:0|0:0,0:0:0:0:
328,126,115883,6,0,B|248:143|266:75|189:93,1,150.000005722046,8|2,0:0|0:0,0:0:0:0:
129,40,116316,1,0,0:0:0:0:
37,144,116460,6,0,P|83:107|117:190,1,150.000005722046,0|2,1:0|0:0,0:0:0:0:
70,217,116893,1,0,0:0:0:0:
212,174,117037,5,8,0:0:0:0:
291,190,117181,1,0,0:0:0:0:
370,206,117326,2,0,L|376:245,1,40,2|0,0:0|0:0,0:0:0:0:
468,153,117614,6,0,L|449:301,1,150.000005722046,0|2,1:0|0:0,0:0:0:0:
503,359,118047,1,0,0:0:0:0:
376,322,118191,5,8,0:0:0:0:
308,362,118335,1,0,0:0:0:0:
244,317,118479,2,0,L|250:278,1,40,2|0,0:0|0:0,0:0:0:0:
235,137,118768,6,0,P|171:107|147:173,1,150.000005722046,0|2,1:0|0:0,0:0:0:0:
209,211,119201,1,0,0:0:0:0:
67,187,119345,5,8,0:0:0:0:
83,266,119489,1,0,0:0:0:0:
99,345,119633,2,0,L|105:384,1,40,2|0,0:0|0:0,0:0:0:0:
215,342,119922,6,0,B|172:316|172:316|184:217,1,150.000005722046,0|8,1:0|0:0,0:0:0:0:
139,156,120354,1,2,0:0:0:0:
280,148,120499,5,8,0:0:0:0:
184,90,120643,1,2,0:0:0:0:
262,222,120787,2,0,P|297:229|327:208,1,75.0000028610231,2|0,0:0|0:0,0:0:0:0:
470,169,121076,6,0,P|434:111|374:143,1,150.000005722046,0|2,1:0|0:0,0:0:0:0:
405,215,121508,1,0,0:0:0:0:
491,325,121652,6,0,B|411:342|429:274|352:292,1,150.000005722046,8|2,0:0|0:0,0:0:0:0:
302,348,122085,1,0,0:0:0:0:
207,289,122229,5,0,1:0:0:0:
140,324,122374,1,0,0:0:0:0:
73,290,122518,2,0,P|52:259|60:223,1,75.0000028610231,2|2,0:0|0:0,0:0:0:0:
186,131,122806,5,8,0:0:0:0:
153,28,122951,1,2,0:0:0:0:
112,154,123095,2,0,L|38:144,1,75.0000028610231,2|0,0:0|0:0,0:0:0:0:
186,131,123383,6,0,B|212:176|212:176|315:163,1,150.000005722046,0|2,1:0|0:0,0:0:0:0:
350,95,123816,1,0,0:0:0:0:
482,202,123960,6,0,P|446:144|386:176,1,150.000005722046,8|2,0:0|0:0,0:0:0:0:
417,248,124393,1,0,0:0:0:0:
350,95,124537,6,0,L|340:20,1,75.0000028610231,0|0,1:0|0:0,0:0:0:0:
189,58,124826,1,2,0:0:0:0:
267,74,124970,1,2,0:0:0:0:
211,176,125114,5,8,0:0:0:0:
133,192,125258,1,2,0:0:0:0:
249,300,125402,2,0,L|323:309,1,75.0000028610231,2|0,0:0|0:0,0:0:0:0:
426,206,125691,6,0,P|366:174|330:232,1,150.000005722046,0|2,1:0|0:0,0:0:0:0:
395,278,126124,1,0,0:0:0:0:
251,227,126268,6,0,P|191:260|155:202,1,150.000005722046,8|2,0:0|0:0,0:0:0:0:
218,155,126701,1,0,0:0:0:0:
76,206,126845,5,0,1:0:0:0:
92,127,126989,1,0,0:0:0:0:
108,48,127133,2,0,L|114:9,1,40,2|0,0:0|0:0,0:0:0:0:
243,81,127422,6,0,P|200:76|167:104,1,87.500000834465,8|0,0:0|0:0,0:0:0:0:
289,203,127710,2,0,L|297:141,1,62.5,2|0,0:0|0:0,0:0:0:0:
430,52,127999,6,0,B|353:70|371:2|291:19,1,150.000005722046,0|2,1:0|0:0,0:0:0:0:
243,81,128431,1,0,0:0:0:0:
379,134,128576,6,0,L|369:220,1,87.500000834465,8|0,0:0|0:0,0:0:0:0:
512,175,128864,2,0,P|478:171|452:191,1,69.9999978637696,2|0,0:0|0:0,0:0:0:0:
296,290,129152,6,0,P|326:286|349:304,1,60.9999974868775,0|0,1:0|0:0,0:0:0:0:
432,384,129441,2,0,L|425:329,1,55.0000016784668,2|0,0:0|0:0,0:0:0:0:
259,358,129729,5,8,0:0:0:0:
181,374,129874,1,2,0:0:0:0:
149,266,130018,5,2,0:0:0:0:
56,246,130162,1,2,0:0:0:0:
8,186,130306,6,0,B|49:203|49:203|85:176,1,89.9999972534181,4|0,1:2|0:0,0:0:0:0:
38,116,130883,2,0,L|30:53,1,59.9999981689454,8|0,0:1|0:0,0:0:0:0:
161,198,131460,5,8,0:1:0:0:
171,192,131749,2,0,L|165:237,1,44.999998626709,2|0,0:0|0:0,0:0:0:0:
228,281,132037,6,0,L|241:393,1,89.9999972534181,8|2,0:1|0:0,0:0:0:0:
313,342,132470,1,2,0:0:0:0:
389,368,132614,6,0,B|430:385|430:385|466:358,1,89.9999972534181,8|0,0:1|0:0,0:0:0:0:
419,298,133191,2,0,L|411:235,1,59.9999981689454,8|0,0:1|0:0,0:0:0:0:
311,345,133768,5,8,0:1:0:0:
318,336,134056,2,0,L|313:381,1,44.999998626709,2|0,0:0|0:0,0:0:0:0:
262,280,134345,5,8,0:1:0:0:
195,318,134489,2,0,P|142:309|136:385,1,110.000003356934,2|2,0:0|0:0,0:0:0:0:
95,245,134922,6,0,P|51:213|49:160,1,110.000003356934,8|2,0:1|0:0,0:0:0:0:
126,151,135354,1,0,0:0:0:0:
183,99,135499,2,0,P|224:131|225:184,1,110.000003356934,8|2,0:1|0:0,0:0:0:0:
257,37,136076,5,8,0:1:0:0:
250,46,136364,2,0,L|255:1,1,44.999998626709,2|0,0:0|0:0,0:0:0:0:
306,102,136652,5,8,0:1:0:0:
373,64,136797,2,0,P|426:73|432:-3,1,110.000003356934,2|2,0:0|0:0,0:0:0:0:
467,140,137229,6,0,P|510:171|512:224,1,110.000003356934,8|2,0:1|0:0,0:0:0:0:
436,234,137662,1,0,0:0:0:0:
379,286,137806,2,0,P|337:253|336:200,1,110.000003356934,8|2,0:1|0:0,0:0:0:0:
206,33,138383,5,8,0:1:0:0:
198,25,138672,2,0,L|203:70,1,44.999998626709,2|0,0:0|0:0,0:0:0:0:
269,112,138960,6,0,L|262:177,1,64.9999970245363,8|0,0:1|0:0,0:0:0:0:
209,236,139249,1,2,0:0:0:0:
142,193,139393,1,2,0:0:0:0:
86,252,139537,6,0,P|36:225|-1:265,1,119.999996337891,4|0,1:2|0:0,0:0:0:0:
51,324,139970,1,8,0:1:0:0:
163,270,140114,6,0,B|191:259|191:259|215:275,1,59.9999981689454,8|0,0:1|0:0,0:0:0:0:
178,342,140402,1,2,0:0:0:0:
184,351,140691,5,8,0:1:0:0:
255,383,140835,1,8,0:1:0:0:
321,343,140979,1,8,0:1:0:0:
315,335,141268,6,0,L|330:211,1,119.999996337891,8|2,0:1|0:0,0:0:0:0:
396,175,141701,1,2,0:0:0:0:
509,125,141845,6,0,B|434:140|451:77|379:94,1,139.999995727539,8|0,0:1|0:0,0:0:0:0:
318,43,142277,1,8,0:1:0:0:
193,79,142422,6,0,P|224:73|253:87,1,64.9999970245363,8|0,0:1|0:0,0:0:0:0:
239,164,142710,2,0,P|207:167|178:152,1,64.9999970245363,2|0,0:0|0:0,0:0:0:0:
190,245,142999,5,8,0:1:0:0:
155,314,143143,1,8,0:1:0:0:
195,381,143287,2,0,L|260:373,1,64.9999970245363,8|0,0:1|0:0,0:0:0:0:
336,233,143576,5,8,0:1:0:0:
275,282,143720,2,0,B|324:325|324:325|382:295,1,129.999994049073,2|2,0:0|0:0,0:0:0:0:
465,384,144152,6,0,P|433:389|406:372,1,64.9999970245363,8|2,0:0|0:0,0:0:0:0:
336,233,144441,2,0,L|344:168,1,64.9999970245363,2|2,0:0|0:0,0:0:0:0:
268,57,144729,5,8,0:0:0:0:
340,92,144874,1,2,0:0:0:0:
274,136,145018,1,2,0:0:0:0:
202,101,145162,2,0,L|171:104,1,22.4999993133545,2|2,0:0|0:0,0:0:0:0:
91,21,145306,6,0,P|123:16|150:33,1,64.9999970245363,8|2,0:0|0:0,0:0:0:0:
206,179,145595,2,0,L|198:244,1,64.9999970245363,2|2,0:0|0:0,0:0:0:0:
150,371,145883,5,8,0:0:0:0:
211,319,146027,1,2,0:0:0:0:
136,292,146172,1,2,0:0:0:0:
75,344,146316,2,0,L|52:346,1,22.4999993133545,2|2,0:0|0:0,0:0:0:0:
211,319,146460,6,0,P|238:335|269:330,1,64.9999970245363,8|2,0:0|0:0,0:0:0:0:
377,235,146749,2,0,L|369:170,1,64.9999970245363,2|2,0:0|0:0,0:0:0:0:
444,49,147037,5,8,0:0:0:0:
381,95,147181,1,2,0:0:0:0:
311,60,147326,2,0,P|279:54|252:71,1,64.9999970245363,2|2,0:0|0:0,0:0:0:0:
150,154,147614,6,0,B|141:126|176:104|176:104|205:134|189:159,1,122.500001168251,12|0,0:0|0:0,0:0:0:0:
89,182,148768,6,0,B|83:129|83:129|85:126|85:126|78:73,1,110.000003356934,4|0,1:2|0:0,0:0:0:0:
223,135,149056,2,0,B|193:114|193:114|161:125,1,69.9999978637696,2|0,0:0|0:0,0:0:0:0:
182,201,149345,5,8,0:0:0:0:
301,121,149489,1,2,0:0:0:0:
429,184,149633,5,2,0:0:0:0:
310,264,149777,2,0,L|318:334,1,69.9999978637696,2|0,0:0|1:0,0:0:0:0:
471,253,150066,5,2,0:0:0:0:
349,195,150210,2,0,B|319:174|319:174|287:185,1,69.9999978637696,2|0,0:0|0:0,0:0:0:0:
170,255,150499,6,0,B|199:234|199:234|231:245,1,69.9999978637696,8|0,0:0|0:0,0:0:0:0:
216,321,150787,1,0,3:0:0:0:
216,321,150931,1,0,3:0:0:0:
104,212,151076,6,0,P|73:145|15:191,1,170.000003242493,0|2,1:0|0:0,0:0:0:0:
45,265,151508,1,0,0:0:0:0:
170,255,151652,5,8,0:0:0:0:
177,246,151941,1,2,0:0:0:0:
295,288,152085,1,2,0:0:0:0:
353,232,152229,6,0,B|401:203|401:203|387:91,1,170.000003242493,0|2,1:0|0:0,0:0:0:0:
311,64,152662,1,0,0:0:0:0:
215,176,152806,5,8,0:0:0:0:
224,182,153095,1,2,0:0:0:0:
155,77,153239,1,2,0:0:0:0:
214,29,153383,6,0,P|159:37|104:42,1,110.000003356934,4|0,1:3|0:0,0:0:0:0:
0,99,153672,2,0,B|32:88|32:88|62:109,1,69.9999978637696,2|0,0:0|0:0,0:0:0:0:
18,173,153960,5,8,0:0:0:0:
144,117,154104,1,2,0:0:0:0:
224,213,154249,5,2,0:0:0:0:
337,247,154393,2,0,L|329:317,1,69.9999978637696,2|0,0:0|1:0,0:0:0:0:
173,276,154681,5,2,0:0:0:0:
244,138,154826,2,0,B|212:127|212:127|182:148,1,69.9999978637696,2|0,0:0|0:0,0:0:0:0:
90,62,155114,6,0,B|122:51|122:51|151:72,1,69.9999978637696,8|0,0:0|0:0,0:0:0:0:
105,138,155402,1,0,3:0:0:0:
105,138,155547,1,0,3:0:0:0:
0,230,155691,6,0,P|33:205|74:212,1,85.0000016212464,0|0,1:0|0:0,0:0:0:0:
89,291,155979,2,0,P|62:311|29:308,1,69.9999978637696,2|0,0:0|0:0,0:0:0:0:
105,138,156268,5,8,0:0:0:0:
201,149,156412,1,2,0:0:0:0:
280,159,156556,1,2,0:0:0:0:
286,167,156845,6,0,P|313:146|346:149,1,69.9999978637696,0|0,1:0|0:0,0:0:0:0:
374,225,157133,2,0,P|341:250|300:243,1,85.0000016212464,2|0,0:0|0:0,0:0:0:0:
145,271,157422,5,8,0:0:0:0:
264,314,157566,1,2,0:0:0:0:
136,347,157710,1,2,0:0:0:0:
222,247,157854,1,2,0:0:0:0:
164,196,157999,6,0,B|171:143|171:143|169:140|169:140|175:87,1,110.000003356934,4|0,1:3|0:0,0:0:0:0:
30,143,158287,2,0,B|60:122|60:122|92:133,1,69.9999978637696,2|0,0:0|0:0,0:0:0:0:
73,208,158576,5,8,0:0:0:0:
192,270,158720,1,2,0:0:0:0:
308,197,158864,5,2,0:0:0:0:
186,135,159008,2,0,L|199:23,1,69.9999978637696,2|0,0:0|1:0,0:0:0:0:
367,18,159297,5,2,0:0:0:0:
327,122,159441,2,0,B|295:111|295:111|265:132,1,69.9999978637696,2|0,0:0|0:0,0:0:0:0:
100,203,159729,6,0,B|132:192|132:192|161:213,1,69.9999978637696,8|0,0:0|0:0,0:0:0:0:
121,281,160018,1,0,3:0:0:0:
121,281,160162,1,0,3:0:0:0:
259,317,160306,5,0,1:0:0:0:
242,207,160451,1,2,0:0:0:0:
352,189,160595,1,2,0:0:0:0:
306,252,160739,1,2,0:0:0:0:
175,164,160883,6,0,L|188:52,1,85.0000016212464,8|0,0:0|0:0,0:0:0:0:
73,0,161172,1,2,0:0:0:0:
105,95,161316,1,2,0:0:0:0:
232,16,161460,6,0,B|322:-9|297:76|389:52,1,170.000003242493,0|2,1:0|0:0,0:0:0:0:
449,4,161893,1,0,0:0:0:0:
397,134,162037,5,8,0:0:0:0:
388,128,162326,1,2,0:0:0:0:
457,233,162470,1,2,0:0:0:0:
395,282,162614,6,0,P|450:274|505:269,1,110.000003356934,4|0,1:3|0:0,0:0:0:0:
320,152,162902,2,0,B|352:141|352:141|382:162,1,69.9999978637696,2|0,0:0|0:0,0:0:0:0:
339,226,163191,5,8,0:0:0:0:
213,170,163335,1,2,0:0:0:0:
133,266,163479,5,2,0:0:0:0:
20,300,163624,2,0,L|28:370,1,69.9999978637696,2|0,0:0|1:0,0:0:0:0:
186,328,163912,5,2,0:0:0:0:
115,190,164056,2,0,B|147:179|147:179|177:200,1,69.9999978637696,2|0,0:0|0:0,0:0:0:0:
269,114,164345,6,0,B|237:103|237:103|208:124,1,69.9999978637696,8|0,0:0|0:0,0:0:0:0:
257,190,164633,1,0,3:0:0:0:
257,190,164777,1,0,3:0:0:0:
367,122,164922,6,0,P|342:89|349:48,1,85.0000016212464,0|0,1:0|0:0,0:0:0:0:
428,33,165210,2,0,P|448:60|445:93,1,69.9999978637696,2|0,0:0|0:0,0:0:0:0:
353,201,165499,5,8,0:0:0:0:
257,190,165643,1,2,0:0:0:0:
178,180,165787,1,2,0:0:0:0:
173,190,166076,6,0,P|194:217|191:250,1,69.9999978637696,0|0,1:0|0:0,0:0:0:0:
115,278,166364,2,0,P|90:245|97:204,1,85.0000016212464,2|0,0:0|0:0,0:0:0:0:
33,63,166652,5,8,0:0:0:0:
37,151,166797,1,2,0:0:0:0:
21,71,166941,1,2,0:0:0:0:
50,144,167085,1,2,0:0:0:0:
100,79,167229,5,4,1:2:0:0:
337,66,181076,6,0,L|146:89,1,139.999995727539,8|2,0:0|0:0,0:0:0:0:
134,39,181508,1,2,0:0:0:0:
81,127,181652,6,0,B|113:116|113:116|142:137,1,69.9999978637696,8|2,0:0|0:0,0:0:0:0:
99,201,181941,1,2,0:0:0:0:
260,228,182085,6,0,P|227:194|186:273,1,139.999995727539,2|2,0:0|0:0,0:0:0:0:
233,345,182518,2,0,L|227:300,1,44.999998626709,2|2,0:0|0:0,0:0:0:0:
334,199,182806,5,8,0:0:0:0:
397,245,182951,1,2,0:0:0:0:
469,213,183095,1,2,0:0:0:0:
476,134,183239,2,0,L|472:103,1,22.4999993133545,2|2,0:0|0:0,0:0:0:0:
410,17,183383,6,0,P|417:47|403:76,1,64.9999970245363,8|2,0:0|0:0,0:0:0:0:
324,65,183672,2,0,P|316:34|330:5,1,64.9999970245363,2|2,0:0|0:0,0:0:0:0:
251,102,183960,6,0,L|262:197,1,64.9999970245363,8|2,0:0|0:0,0:0:0:0:
167,236,184249,1,2,0:0:0:0:
97,198,184393,1,2,0:0:0:0:
27,237,184537,6,0,L|4:234,3,22.4999993133545,2|0|0|0,0:0|0:0|0:0|0:0,0:0:0:0:
72,301,184826,2,0,L|95:298,3,22.4999993133545,2|0|0|0,0:0|0:0|0:0|0:0,0:0:0:0:
96,375,185114,6,0,B|103:350|103:350|73:331|73:331|47:357|47:357|61:379,1,125,12|0,0:0|0:0,0:0:0:0:
237,79,185691,6,0,P|324:87|366:199,1,184.999999294281,4|2,1:2|0:0,0:0:0:0:
301,205,186124,1,2,0:0:0:0:
288,363,186268,6,0,L|383:351,1,69.9999978637696,8|2,0:0|0:0,0:0:0:0:
278,286,186556,2,0,L|373:274,1,69.9999978637696,2|2,0:0|0:0,0:0:0:0:
166,194,186845,6,0,B|177:104|177:104|173:99|173:99|184:10,1,184.999999294281,0|2,1:0|0:0,0:0:0:0:
257,44,187277,1,2,0:0:0:0:
401,82,187422,5,8,0:0:0:0:
321,91,187566,1,2,0:0:0:0:
330,170,187710,1,2,0:0:0:0:
409,160,187854,1,2,0:0:0:0:
389,267,187999,6,0,B|323:201|323:201|237:233,1,184.999999294281,4|2,1:3|0:0,0:0:0:0:
302,293,188431,1,2,0:0:0:0:
166,365,188576,6,0,L|70:353,1,69.9999978637696,8|2,0:0|0:0,0:0:0:0:
179,288,188864,2,0,L|83:276,1,69.9999978637696,2|2,0:0|0:0,0:0:0:0:
0,257,189152,6,0,B|52:225|52:225|37:103,1,184.999999294281,0|2,1:0|0:0,0:0:0:0:
87,40,189585,1,2,0:0:0:0:
192,99,189729,5,8,0:0:0:0:
264,66,189874,1,2,0:0:0:0:
330,110,190018,1,2,0:0:0:0:
398,69,190162,1,2,0:0:0:0:
314,187,190306,6,0,B|214:163|243:252|143:226,1,184.999999294281,4|2,1:3|0:0,0:0:0:0:
80,275,190739,1,2,0:0:0:0:
162,376,190883,6,0,L|153:306,1,69.9999978637696,8|2,0:0|0:0,0:0:0:0:
239,363,191172,2,0,L|227:267,1,69.9999978637696,2|2,0:0|0:0,0:0:0:0:
348,182,191460,6,0,P|316:232|263:155,1,184.999999294281,0|2,1:0|0:0,0:0:0:0:
321,109,191893,1,2,0:0:0:0:
238,15,192037,6,0,L|246:84,1,69.9999978637696,8|2,0:0|0:0,0:0:0:0:
161,28,192326,2,0,L|173:124,1,69.9999978637696,2|2,0:0|0:0,0:0:0:0:
59,157,192614,6,0,B|159:133|130:222|230:196,1,184.999999294281,4|2,1:3|0:0,0:0:0:0:
293,245,193047,1,2,0:0:0:0:
357,375,193191,5,8,0:0:0:0:
356,295,193335,1,2,0:0:0:0:
343,377,193479,1,2,0:0:0:0:
369,302,193624,1,2,0:0:0:0:
472,202,193768,6,0,P|440:151|387:228,1,184.999999294281,0|2,1:0|0:0,0:0:0:0:
445,275,194201,1,2,0:0:0:0:
357,375,194345,5,8,0:0:0:0:
356,295,194489,1,2,0:0:0:0:
343,377,194633,1,2,0:0:0:0:
369,302,194777,1,2,0:0:0:0:
271,219,194922,6,0,P|184:211|142:99,1,184.999999294281,4|2,1:3|0:0,0:0:0:0:
70,90,195354,1,2,0:0:0:0:
215,22,195499,6,0,L|203:117,1,69.9999978637696,8|2,0:0|0:0,0:0:0:0:
292,32,195787,2,0,L|280:127,1,69.9999978637696,2|2,0:0|0:0,0:0:0:0:
386,265,196076,6,0,B|375:177|375:177|379:172|379:172|368:82,1,184.999999294281,0|2,1:0|0:0,0:0:0:0:
431,34,196508,1,2,0:0:0:0:
294,112,196652,5,8,0:0:0:0:
214,103,196797,1,2,0:0:0:0:
223,24,196941,1,2,0:0:0:0:
302,34,197085,1,2,0:0:0:0:
385,167,197229,6,0,B|299:135|299:135|233:201,1,184.999999294281,4|2,1:3|0:0,0:0:0:0:
320,227,197662,1,2,0:0:0:0:
173,336,197806,6,0,L|185:240,1,69.9999978637696,8|2,0:0|0:0,0:0:0:0:
250,347,198095,2,0,L|262:251,1,69.9999978637696,2|2,0:0|0:0,0:0:0:0:
379,154,198383,6,0,B|327:186|327:186|342:308,1,184.999999294281,0|2,1:0|0:0,0:0:0:0:
416,339,198816,1,2,0:0:0:0:
263,305,198960,5,8,0:0:0:0:
191,338,199104,1,2,0:0:0:0:
125,294,199249,1,2,0:0:0:0:
57,335,199393,1,2,0:0:0:0:
139,218,199537,6,0,B|239:242|210:153|310:179,1,184.999999294281,4|2,1:3|0:0,0:0:0:0:
365,235,199970,1,2,0:0:0:0:
319,102,200114,6,0,L|310:32,1,69.9999978637696,8|2,0:0|0:0,0:0:0:0:
396,92,200402,2,0,L|384:-4,1,69.9999978637696,2|2,0:0|0:0,0:0:0:0:
184,197,200691,6,0,P|216:147|269:224,1,184.999999294281,0|2,1:0|0:0,0:0:0:0:
211,270,201124,1,2,0:0:0:0:
294,364,201268,6,0,L|286:295,1,69.9999978637696,8|2,0:0|0:0,0:0:0:0:
371,353,201556,2,0,L|359:257,1,69.9999978637696,2|2,0:0|0:0,0:0:0:0:
211,270,201845,6,0,B|111:294|140:205|40:231,1,184.999999294281,4|2,1:3|0:0,0:0:0:0:
0,300,202277,5,6,0:3:0:0:
52,151,202422,1,8,0:0:0:0:
3,88,202566,1,2,0:0:0:0:
168,99,202710,6,0,P|140:26|79:76,1,184.999999294281,6|0,0:3|1:0,0:0:0:0:
252,37,203143,5,6,0:3:0:0:
315,130,203287,2,0,B|274:111|274:111|236:140,1,92.4999996471405,2|2,0:0|0:0,0:0:0:0:
100,204,203576,5,12,0:3:0:0:
168,99,203720,1,2,0:0:0:0:
25,221,203864,5,6,0:3:0:0:
175,187,204008,1,2,0:0:0:0:
236,139,204152,6,0,L|394:158,1,110.000003356934,2|2,0:0|0:0,0:0:0:0:
394,75,204585,1,0,0:0:0:0:
394,75,204729,2,0,L|346:80,3,29.9999990844727,2|0|2|0,0:0|0:0|0:0|0:0,0:0:0:0:
502,154,205306,6,0,P|455:133|423:173,1,110.000003356934,2|2,0:0|0:0,0:0:0:0:
481,259,205739,1,0,0:0:0:0:
481,259,205883,2,0,L|475:211,3,29.9999990844727,2|0|2|0,0:0|0:0|0:0|0:0,0:0:0:0:
423,314,206460,6,0,L|264:294,1,110.000003356934,2|2,0:0|0:0,0:0:0:0:
265,378,206893,1,0,0:0:0:0:
265,378,207037,2,0,L|312:372,3,29.9999990844727,2|0|2|0,0:0|0:0|0:0|0:0,0:0:0:0:
156,298,207614,6,0,P|202:318|235:279,1,110.000003356934,2|2,0:0|0:0,0:0:0:0:
178,194,208047,1,0,0:0:0:0:
178,194,208191,2,0,L|183:241,3,29.9999990844727,2|0|2|0,0:0|0:0|0:0|0:0,0:0:0:0:
252,161,208768,6,0,L|256:132,3,29.9999990844727,2|0|2|0,0:0|0:0|0:0|0:0,0:0:0:0:
205,72,209345,2,0,L|158:67,3,29.9999990844727,2|0|2|0,0:0|0:0|0:0|0:0,0:0:0:0:
115,119,209922,6,0,L|110:166,3,29.9999990844727,2|0|2|0,0:0|0:0|0:0|0:0,0:0:0:0:
162,209,210499,2,0,L|209:214,3,29.9999990844727,2|0|2|0,0:0|0:0|0:0|0:0,0:0:0:0:
243,272,211076,6,0,L|248:319,3,29.9999990844727,2|0|2|0,0:0|0:0|0:0|0:0,0:0:0:0:
324,303,211652,2,0,L|319:350,3,29.9999990844727,2|0|2|0,0:0|0:0|0:0|0:0,0:0:0:0:
397,261,212229,6,0,L|402:308,3,29.9999990844727,2|0|2|0,0:0|0:0|0:0|0:0,0:0:0:0:
478,292,212806,2,0,L|473:339,3,29.9999990844727,2|0|2|0,0:0|0:0|0:0|0:0,0:0:0:0:
411,367,213383,6,0,L|253:348,1,110.000003356934,2|2,0:0|0:0,0:0:0:0:
239,287,213816,1,0,0:0:0:0:
239,287,213960,2,0,L|287:282,3,29.9999990844727,2|0|2|0,0:0|0:0|0:0|0:0,0:0:0:0:
358,198,214537,6,0,P|311:219|279:179,1,110.000003356934,2|2,0:0|0:0,0:0:0:0:
203,122,214970,1,0,0:0:0:0:
203,122,215114,2,0,L|209:170,3,29.9999990844727,2|0|2|0,0:0|0:0|0:0|0:0,0:0:0:0:
247,41,215691,6,0,L|89:60,1,110.000003356934,2|2,0:0|0:0,0:0:0:0:
75,121,216124,1,0,0:0:0:0:
75,121,216268,2,0,L|123:126,3,29.9999990844727,2|0|2|0,0:0|0:0|0:0|0:0,0:0:0:0:
194,210,216845,6,0,P|147:189|115:229,1,110.000003356934,2|2,0:0|0:0,0:0:0:0:
39,286,217277,1,0,0:0:0:0:
39,286,217422,2,0,L|45:238,3,29.9999990844727,2|0|2|0,0:0|0:0|0:0|0:0,0:0:0:0:
122,327,217999,6,0,L|117:280,3,29.9999990844727,2|0|2|0,0:0|0:0|0:0|0:0,0:0:0:0:
200,292,218576,2,0,L|205:245,3,29.9999990844727,2|0|2|0,0:0|0:0|0:0|0:0,0:0:0:0:
283,254,219152,6,0,L|278:207,3,29.9999990844727,2|0|2|0,0:0|0:0|0:0|0:0,0:0:0:0:
361,219,219729,2,0,L|366:172,3,29.9999990844727,2|0|2|0,0:0|0:0|0:0|0:0,0:0:0:0:
296,149,220306,6,0,B|354:77|346:-22|235:-34|199:49|240:87,1,275.999990734864,2|0,0:0|0:0,0:0:0:0:
