osu file format v14

[General]
AudioFilename: audio.mp3
AudioLeadIn: 0
PreviewTime: -1
Countdown: 1
SampleSet: Normal
StackLeniency: 0.7
Mode: 0
LetterboxInBreaks: 0
WidescreenStoryboard: 0

[Editor]
DistanceSpacing: 1
BeatDivisor: 4
GridSize: 4
TimelineZoom: 1

[Metadata]
Title:Beastmode
TitleUnicode:Beastmode
Artist:Yellow Claw & Stoltenhoff
ArtistUnicode:Yellow Claw & Stoltenhoff
Creator:Poised
Version:Streams 160bpm
Source:
Tags:
BeatmapID:1630176
BeatmapSetID:775813

[Difficulty]
HPDrainRate:5
CircleSize:4
OverallDifficulty:8
ApproachRate:9
SliderMultiplier:1.4
SliderTickRate:1

[Events]
//Background and Video events
//Break Periods
//Storyboard Layer 0 (Background)
//Storyboard Layer 1 (Fail)
//Storyboard Layer 2 (Pass)
//Storyboard Layer 3 (Foreground)
//Storyboard Sound Samples

[TimingPoints]
288,375,4,1,0,100,1,0

[HitObjects]
260,239,70788,2,0,L|125:239,1,105
260,239,71163,2,0,L|373:239,1,105
260,239,71538,2,0,L|253:128,1,105
260,239,71913,2,0,L|260:345,1,105
108,292,72288,5,0,0:0:0:0:
108,257,72381,1,0,0:0:0:0:
109,222,72475,1,0,0:0:0:0:
109,187,72569,1,0,0:0:0:0:
110,152,72663,1,0,0:0:0:0:
111,117,72756,1,0,0:0:0:0:
111,82,72850,1,0,0:0:0:0:
140,76,72944,1,0,0:0:0:0:
175,76,73038,1,0,0:0:0:0:
210,76,73131,1,0,0:0:0:0:
245,76,73225,1,0,0:0:0:0:
280,76,73319,1,0,0:0:0:0:
315,76,73413,1,0,0:0:0:0:
350,76,73506,1,0,0:0:0:0:
385,76,73600,1,0,0:0:0:0:
420,76,73694,1,0,0:0:0:0:
440,91,73788,1,0,0:0:0:0:
440,126,73881,1,0,0:0:0:0:
440,161,73975,1,0,0:0:0:0:
440,196,74069,1,0,0:0:0:0:
440,231,74163,1,0,0:0:0:0:
440,266,74256,1,0,0:0:0:0:
434,295,74350,1,0,0:0:0:0:
399,295,74444,1,0,0:0:0:0:
364,295,74538,1,0,0:0:0:0:
329,294,74631,1,0,0:0:0:0:
294,294,74725,1,0,0:0:0:0:
259,293,74819,1,0,0:0:0:0:
224,293,74913,1,0,0:0:0:0:
189,292,75006,1,0,0:0:0:0:
154,292,75100,1,0,0:0:0:0:
119,292,75194,1,0,0:0:0:0:
108,292,75288,1,0,0:0:0:0:
108,257,75381,1,0,0:0:0:0:
109,222,75475,1,0,0:0:0:0:
109,187,75569,1,0,0:0:0:0:
110,152,75663,1,0,0:0:0:0:
111,117,75756,1,0,0:0:0:0:
111,82,75850,1,0,0:0:0:0:
140,76,75944,1,0,0:0:0:0:
175,76,76038,1,0,0:0:0:0:
210,76,76131,1,0,0:0:0:0:
245,76,76225,1,0,0:0:0:0:
280,76,76319,1,0,0:0:0:0:
315,76,76413,1,0,0:0:0:0:
350,76,76506,1,0,0:0:0:0:
385,76,76600,1,0,0:0:0:0:
420,76,76694,1,0,0:0:0:0:
440,91,76788,1,0,0:0:0:0:
440,126,76881,1,0,0:0:0:0:
440,161,76975,1,0,0:0:0:0:
440,196,77069,1,0,0:0:0:0:
440,231,77163,1,0,0:0:0:0:
440,266,77256,1,0,0:0:0:0:
434,295,77350,1,0,0:0:0:0:
399,295,77444,1,0,0:0:0:0:
364,295,77538,1,0,0:0:0:0:
329,294,77631,1,0,0:0:0:0:
294,294,77725,1,0,0:0:0:0:
259,293,77819,1,0,0:0:0:0:
224,293,77913,1,0,0:0:0:0:
189,292,78006,1,0,0:0:0:0:
154,292,78100,1,0,0:0:0:0:
119,292,78194,1,0,0:0:0:0:
108,292,78288,1,0,0:0:0:0:
108,257,78381,1,0,0:0:0:0:
109,222,78475,1,0,0:0:0:0:
109,187,78569,1,0,0:0:0:0:
110,152,78663,1,0,0:0:0:0:
111,117,78756,1,0,0:0:0:0:
111,82,78850,1,0,0:0:0:0:
140,76,78944,1,0,0:0:0:0:
175,76,79038,1,0,0:0:0:0:
210,76,79131,1,0,0:0:0:0:
245,76,79225,1,0,0:0:0:0:
280,76,79319,1,0,0:0:0:0:
315,76,79413,1,0,0:0:0:0:
350,76,79506,1,0,0:0:0:0:
385,76,79600,1,0,0:0:0:0:
420,76,79694,1,0,0:0:0:0:
440,91,79788,1,0,0:0:0:0:
440,126,79881,1,0,0:0:0:0:
440,161,79975,1,0,0:0:0:0:
440,196,80069,1,0,0:0:0:0:
440,231,80163,1,0,0:0:0:0:
440,266,80256,1,0,0:0:0:0:
434,295,80350,1,0,0:0:0:0:
399,295,80444,1,0,0:0:0:0:
364,295,80538,1,0,0:0:0:0:
329,294,80631,1,0,0:0:0:0:
294,294,80725,1,0,0:0:0:0:
259,293,80819,1,0,0:0:0:0:
224,293,80913,1,0,0:0:0:0:
189,292,81006,1,0,0:0:0:0:
154,292,81100,1,0,0:0:0:0:
119,292,81194,1,0,0:0:0:0:
108,292,81288,1,0,0:0:0:0:
108,257,81381,1,0,0:0:0:0:
109,222,81475,1,0,0:0:0:0:
109,187,81569,1,0,0:0:0:0:
110,152,81663,1,0,0:0:0:0:
111,117,81756,1,0,0:0:0:0:
111,82,81850,1,0,0:0:0:0:
140,76,81944,1,0,0:0:0:0:
175,76,82038,1,0,0:0:0:0:
210,76,82131,1,0,0:0:0:0:
245,76,82225,1,0,0:0:0:0:
280,76,82319,1,0,0:0:0:0:
315,76,82413,1,0,0:0:0:0:
350,76,82506,1,0,0:0:0:0:
385,76,82600,1,0,0:0:0:0:
420,76,82694,1,0,0:0:0:0:
440,91,82788,1,0,0:0:0:0:
440,126,82881,1,0,0:0:0:0:
440,161,82975,1,0,0:0:0:0:
440,196,83069,1,0,0:0:0:0:
440,231,83163,1,0,0:0:0:0:
440,266,83256,1,0,0:0:0:0:
434,295,83350,1,0,0:0:0:0:
399,295,83444,1,0,0:0:0:0:
356,296,83538,2,0,L|356:248,1,35
312,256,83725,2,0,L|312:300,1,35
268,296,83913,2,0,L|268:200,1,70
268,188,84288,1,0,0:0:0:0:
268,153,84381,1,0,0:0:0:0:
268,118,84475,1,0,0:0:0:0:
268,83,84569,1,0,0:0:0:0:
244,72,84663,1,0,0:0:0:0:
209,72,84756,1,0,0:0:0:0:
174,72,84850,1,0,0:0:0:0:
139,72,84944,1,0,0:0:0:0:
104,72,85038,1,0,0:0:0:0:
69,72,85131,1,0,0:0:0:0:
48,86,85225,1,0,0:0:0:0:
48,121,85319,1,0,0:0:0:0:
48,156,85413,1,0,0:0:0:0:
48,191,85506,1,0,0:0:0:0:
48,226,85600,1,0,0:0:0:0:
48,261,85694,1,0,0:0:0:0:
48,296,85788,1,0,0:0:0:0:
70,307,85881,1,0,0:0:0:0:
105,307,85975,1,0,0:0:0:0:
140,307,86069,1,0,0:0:0:0:
175,306,86163,1,0,0:0:0:0:
210,306,86256,1,0,0:0:0:0:
245,305,86350,1,0,0:0:0:0:
280,305,86444,1,0,0:0:0:0:
315,305,86538,1,0,0:0:0:0:
350,304,86631,1,0,0:0:0:0:
385,304,86725,1,0,0:0:0:0:
420,304,86819,1,0,0:0:0:0:
423,272,86913,1,0,0:0:0:0:
422,237,87006,1,0,0:0:0:0:
422,202,87100,1,0,0:0:0:0:
421,167,87194,1,0,0:0:0:0:
421,132,87288,1,0,0:0:0:0:
420,97,87381,1,0,0:0:0:0:
420,62,87475,1,0,0:0:0:0:
387,60,87569,1,0,0:0:0:0:
352,61,87663,1,0,0:0:0:0:
317,62,87756,1,0,0:0:0:0:
282,63,87850,1,0,0:0:0:0:
244,72,87944,1,0,0:0:0:0:
209,72,88037,1,0,0:0:0:0:
174,72,88131,1,0,0:0:0:0:
139,72,88225,1,0,0:0:0:0:
104,72,88319,1,0,0:0:0:0:
69,72,88412,1,0,0:0:0:0:
48,86,88506,1,0,0:0:0:0:
48,121,88600,1,0,0:0:0:0:
48,156,88694,1,0,0:0:0:0:
48,191,88787,1,0,0:0:0:0:
48,226,88881,1,0,0:0:0:0:
48,261,88975,1,0,0:0:0:0:
48,296,89069,1,0,0:0:0:0:
70,307,89162,1,0,0:0:0:0:
105,307,89256,1,0,0:0:0:0:
140,307,89350,1,0,0:0:0:0:
175,306,89444,1,0,0:0:0:0:
210,306,89537,1,0,0:0:0:0:
245,305,89631,1,0,0:0:0:0:
280,305,89725,1,0,0:0:0:0:
315,305,89819,1,0,0:0:0:0:
350,304,89912,1,0,0:0:0:0:
385,304,90006,1,0,0:0:0:0:
420,304,90100,1,0,0:0:0:0:
423,272,90194,1,0,0:0:0:0:
422,237,90287,1,0,0:0:0:0:
422,202,90381,1,0,0:0:0:0:
421,167,90475,1,0,0:0:0:0:
421,132,90569,1,0,0:0:0:0:
420,97,90662,1,0,0:0:0:0:
420,62,90756,1,0,0:0:0:0:
387,60,90850,1,0,0:0:0:0:
352,61,90944,1,0,0:0:0:0:
317,62,91037,1,0,0:0:0:0:
282,63,91131,1,0,0:0:0:0:
240,69,91225,1,0,0:0:0:0:
215,89,91319,1,0,0:0:0:0:
199,110,91413,1,0,0:0:0:0:
191,122,91506,1,0,0:0:0:0:
176,157,91600,1,0,0:0:0:0:
175,188,91694,1,0,0:0:0:0:
203,223,91788,1,0,0:0:0:0:
248,252,91881,1,0,0:0:0:0:
297,267,91975,1,0,0:0:0:0:
348,274,92069,1,0,0:0:0:0:
405,270,92163,1,0,0:0:0:0:
446,220,92256,1,0,0:0:0:0:
422,172,92350,1,0,0:0:0:0:
371,137,92444,1,0,0:0:0:0:
308,126,92538,1,0,0:0:0:0:
252,148,92631,1,0,0:0:0:0:
229,183,92725,1,0,0:0:0:0:
229,232,92819,1,0,0:0:0:0:
284,272,92913,1,0,0:0:0:0:
355,258,93006,1,0,0:0:0:0:
297,198,93100,1,0,0:0:0:0:
211,166,93194,1,0,0:0:0:0:
104,152,93288,1,0,0:0:0:0:
40,227,93381,1,0,0:0:0:0:
102,314,93475,1,0,0:0:0:0:
240,321,93569,1,0,0:0:0:0:
406,301,93663,1,0,0:0:0:0:
468,163,93756,1,0,0:0:0:0:
402,69,93850,1,0,0:0:0:0:
264,43,93944,1,0,0:0:0:0:
117,56,94038,1,0,0:0:0:0:
32,132,94131,1,0,0:0:0:0:
58,252,94225,1,0,0:0:0:0:
351,120,94319,1,0,0:0:0:0:
475,211,94413,1,0,0:0:0:0:
214,307,94506,1,0,0:0:0:0:
49,181,94788,2,0,L|117:180,1,35
477,190,95163,2,0,L|434:189,1,35
118,291,96288,2,0,P|212:96|194:317,1,595
190,206,96475,1,0,0:0:0:0:
190,206,96663,1,0,0:0:0:0:
190,206,96850,1,0,0:0:0:0:
190,206,97038,1,0,0:0:0:0:
190,206,97225,1,0,0:0:0:0:
190,206,97413,1,0,0:0:0:0:
190,206,97694,1,0,0:0:0:0:
190,206,97881,1,0,0:0:0:0:
