osu file format v14

[General]
AudioFilename: audio.mp3
AudioLeadIn: 0
PreviewTime: -1
Countdown: 1
SampleSet: Soft
StackLeniency: 0.7
Mode: 0
LetterboxInBreaks: 0
WidescreenStoryboard: 1

[Editor]
DistanceSpacing: 1.2
BeatDivisor: 8
GridSize: 8
TimelineZoom: 1.1

[Metadata]
Title:Oh Yeah
TitleUnicode:Oh Yeah
Artist:Yello
ArtistUnicode:Yello
Creator:theapplemaniac
Version:Ooooohhh Yeeeeaaaaahhhh
Source:
Tags:
BeatmapID:1487547
BeatmapSetID:702746

[Difficulty]
HPDrainRate:6
CircleSize:6
OverallDifficulty:6
ApproachRate:8
SliderMultiplier:1.4
SliderTickRate:1

[Events]
//Background and Video events
0,0,"maxresdefault (2).jpg",0,0
//Break Periods
//Storyboard Layer 0 (Background)
//Storyboard Layer 1 (Fail)
//Storyboard Layer 2 (Pass)
//Storyboard Layer 3 (Foreground)
//Storyboard Sound Samples

[TimingPoints]
664.768006995839,452.157791225416,4,2,0,32,1,0

[Colours]
Combo1 : 26,116,242
Combo2 : 65,179,207
Combo3 : 0,255,0
Combo4 : 255,128,0
Combo5 : 226,45,124

[HitObjects]
96,216,664,5,0,0:0:0:0:
112,192,721,1,0,0:0:0:0:
128,176,777,1,0,0:0:0:0:
152,152,834,1,0,0:0:0:0:
160,144,890,1,0,0:0:0:0:
192,128,947,1,0,0:0:0:0:
208,112,1003,1,0,0:0:0:0:
224,112,1060,1,0,0:0:0:0:
240,104,1116,1,0,0:0:0:0:
264,104,1173,1,0,0:0:0:0:
288,104,1229,1,0,0:0:0:0:
304,112,1286,1,0,0:0:0:0:
336,112,1343,1,0,0:0:0:0:
360,120,1399,1,0,0:0:0:0:
376,136,1456,1,0,0:0:0:0:
376,168,1512,1,0,0:0:0:0:
384,184,1569,1,0,0:0:0:0:
376,216,1625,1,0,0:0:0:0:
384,240,1682,1,0,0:0:0:0:
384,272,1738,1,0,0:0:0:0:
368,288,1795,1,0,0:0:0:0:
344,296,1851,1,0,0:0:0:0:
312,296,1908,1,0,0:0:0:0:
280,304,1964,1,0,0:0:0:0:
256,312,2021,1,0,0:0:0:0:
224,312,2077,1,0,0:0:0:0:
208,320,2134,1,0,0:0:0:0:
192,320,2190,1,0,0:0:0:0:
168,328,2247,1,0,0:0:0:0:
136,328,2303,1,0,0:0:0:0:
112,320,2360,1,0,0:0:0:0:
104,312,2416,1,0,0:0:0:0:
80,296,2473,1,0,0:0:0:0:
72,272,2529,1,0,0:0:0:0:
56,248,2586,1,0,0:0:0:0:
56,216,2642,1,0,0:0:0:0:
56,192,2699,1,0,0:0:0:0:
56,176,2755,1,0,0:0:0:0:
96,216,2812,1,0,0:0:0:0:
112,192,2869,1,0,0:0:0:0:
128,176,2925,1,0,0:0:0:0:
152,152,2982,1,0,0:0:0:0:
160,144,3038,1,0,0:0:0:0:
192,128,3095,1,0,0:0:0:0:
208,112,3151,1,0,0:0:0:0:
224,112,3208,1,0,0:0:0:0:
240,104,3264,1,0,0:0:0:0:
264,104,3321,1,0,0:0:0:0:
288,104,3377,1,0,0:0:0:0:
304,112,3434,1,0,0:0:0:0:
336,112,3491,1,0,0:0:0:0:
360,120,3547,1,0,0:0:0:0:
376,136,3604,1,0,0:0:0:0:
376,168,3660,1,0,0:0:0:0:
384,184,3717,1,0,0:0:0:0:
376,216,3773,1,0,0:0:0:0:
384,240,3830,1,0,0:0:0:0:
384,272,3886,1,0,0:0:0:0:
368,288,3943,1,0,0:0:0:0:
344,296,3999,1,0,0:0:0:0:
312,296,4056,1,0,0:0:0:0:
280,304,4112,1,0,0:0:0:0:
256,312,4169,1,0,0:0:0:0:
224,312,4225,1,0,0:0:0:0:
208,320,4282,1,0,0:0:0:0:
192,320,4338,1,0,0:0:0:0:
168,328,4395,1,0,0:0:0:0:
136,328,4451,1,0,0:0:0:0:
112,320,4508,1,0,0:0:0:0:
104,312,4564,1,0,0:0:0:0:
80,296,4621,1,0,0:0:0:0:
72,272,4677,1,0,0:0:0:0:
56,248,4734,1,0,0:0:0:0:
56,216,4790,1,0,0:0:0:0:
56,192,4847,1,0,0:0:0:0:
56,176,4903,1,0,0:0:0:0:
96,216,4960,1,0,0:0:0:0:
112,192,5017,1,0,0:0:0:0:
128,176,5073,1,0,0:0:0:0:
152,152,5130,1,0,0:0:0:0:
160,144,5186,1,0,0:0:0:0:
192,128,5243,1,0,0:0:0:0:
208,112,5299,1,0,0:0:0:0:
224,112,5356,1,0,0:0:0:0:
240,104,5412,1,0,0:0:0:0:
264,104,5469,1,0,0:0:0:0:
288,104,5525,1,0,0:0:0:0:
304,112,5582,1,0,0:0:0:0:
336,112,5639,1,0,0:0:0:0:
360,120,5695,1,0,0:0:0:0:
376,136,5752,1,0,0:0:0:0:
376,168,5808,1,0,0:0:0:0:
384,184,5865,1,0,0:0:0:0:
376,216,5921,1,0,0:0:0:0:
384,240,5978,1,0,0:0:0:0:
384,272,6034,1,0,0:0:0:0:
368,288,6091,1,0,0:0:0:0:
344,296,6147,1,0,0:0:0:0:
312,296,6204,1,0,0:0:0:0:
280,304,6260,1,0,0:0:0:0:
256,312,6317,1,0,0:0:0:0:
224,312,6373,1,0,0:0:0:0:
208,320,6430,1,0,0:0:0:0:
192,320,6486,1,0,0:0:0:0:
168,328,6543,1,0,0:0:0:0:
136,328,6599,1,0,0:0:0:0:
112,320,6656,1,0,0:0:0:0:
104,312,6712,1,0,0:0:0:0:
80,296,6769,1,0,0:0:0:0:
72,272,6825,1,0,0:0:0:0:
56,248,6882,1,0,0:0:0:0:
56,216,6938,1,0,0:0:0:0:
56,192,6995,1,0,0:0:0:0:
56,176,7051,1,0,0:0:0:0:
96,216,7108,1,0,0:0:0:0:
112,192,7165,1,0,0:0:0:0:
128,176,7221,1,0,0:0:0:0:
152,152,7278,1,0,0:0:0:0:
160,144,7334,1,0,0:0:0:0:
192,128,7391,1,0,0:0:0:0:
208,112,7447,1,0,0:0:0:0:
224,112,7504,1,0,0:0:0:0:
240,104,7560,1,0,0:0:0:0:
264,104,7617,1,0,0:0:0:0:
288,104,7673,1,0,0:0:0:0:
304,112,7730,1,0,0:0:0:0:
336,112,7787,1,0,0:0:0:0:
360,120,7843,1,0,0:0:0:0:
376,136,7900,1,0,0:0:0:0:
376,168,7956,1,0,0:0:0:0:
384,184,8013,1,0,0:0:0:0:
376,216,8069,1,0,0:0:0:0:
384,240,8126,1,0,0:0:0:0:
384,272,8182,1,0,0:0:0:0:
368,288,8239,1,0,0:0:0:0:
344,296,8295,1,0,0:0:0:0:
312,296,8352,1,0,0:0:0:0:
280,304,8408,1,0,0:0:0:0:
256,312,8465,1,0,0:0:0:0:
224,312,8521,1,0,0:0:0:0:
208,320,8578,1,0,0:0:0:0:
192,320,8634,1,0,0:0:0:0:
168,328,8691,1,0,0:0:0:0:
136,328,8747,1,0,0:0:0:0:
112,320,8804,1,0,0:0:0:0:
104,312,8860,1,0,0:0:0:0:
80,296,8917,1,0,0:0:0:0:
72,272,8973,1,0,0:0:0:0:
56,248,9030,1,0,0:0:0:0:
56,216,9086,1,0,0:0:0:0:
56,192,9143,1,0,0:0:0:0:
56,176,9199,1,0,0:0:0:0:
96,216,9255,1,0,0:0:0:0:
112,192,9312,1,0,0:0:0:0:
128,176,9368,1,0,0:0:0:0:
152,152,9425,1,0,0:0:0:0:
160,144,9481,1,0,0:0:0:0:
192,128,9538,1,0,0:0:0:0:
208,112,9594,1,0,0:0:0:0:
224,112,9651,1,0,0:0:0:0:
240,104,9707,1,0,0:0:0:0:
264,104,9764,1,0,0:0:0:0:
288,104,9820,1,0,0:0:0:0:
304,112,9877,1,0,0:0:0:0:
336,112,9934,1,0,0:0:0:0:
360,120,9990,1,0,0:0:0:0:
376,136,10047,1,0,0:0:0:0:
376,168,10103,1,0,0:0:0:0:
384,184,10160,1,0,0:0:0:0:
376,216,10216,1,0,0:0:0:0:
384,240,10273,1,0,0:0:0:0:
384,272,10329,1,0,0:0:0:0:
368,288,10386,1,0,0:0:0:0:
344,296,10442,1,0,0:0:0:0:
312,296,10499,1,0,0:0:0:0:
280,304,10555,1,0,0:0:0:0:
256,312,10612,1,0,0:0:0:0:
224,312,10668,1,0,0:0:0:0:
208,320,10725,1,0,0:0:0:0:
192,320,10781,1,0,0:0:0:0:
168,328,10838,1,0,0:0:0:0:
136,328,10894,1,0,0:0:0:0:
112,320,10951,1,0,0:0:0:0:
104,312,11007,1,0,0:0:0:0:
80,296,11064,1,0,0:0:0:0:
72,272,11120,1,0,0:0:0:0:
56,248,11177,1,0,0:0:0:0:
56,216,11233,1,0,0:0:0:0:
56,192,11290,1,0,0:0:0:0:
56,176,11346,1,0,0:0:0:0:
96,216,11403,1,0,0:0:0:0:
112,192,11460,1,0,0:0:0:0:
128,176,11516,1,0,0:0:0:0:
152,152,11573,1,0,0:0:0:0:
160,144,11629,1,0,0:0:0:0:
192,128,11686,1,0,0:0:0:0:
208,112,11742,1,0,0:0:0:0:
224,112,11799,1,0,0:0:0:0:
240,104,11855,1,0,0:0:0:0:
264,104,11912,1,0,0:0:0:0:
288,104,11968,1,0,0:0:0:0:
304,112,12025,1,0,0:0:0:0:
336,112,12082,1,0,0:0:0:0:
360,120,12138,1,0,0:0:0:0:
376,136,12195,1,0,0:0:0:0:
376,168,12251,1,0,0:0:0:0:
384,184,12308,1,0,0:0:0:0:
376,216,12364,1,0,0:0:0:0:
384,240,12421,1,0,0:0:0:0:
384,272,12477,1,0,0:0:0:0:
368,288,12534,1,0,0:0:0:0:
344,296,12590,1,0,0:0:0:0:
312,296,12647,1,0,0:0:0:0:
280,304,12703,1,0,0:0:0:0:
256,312,12760,1,0,0:0:0:0:
224,312,12816,1,0,0:0:0:0:
208,320,12873,1,0,0:0:0:0:
192,320,12929,1,0,0:0:0:0:
168,328,12986,1,0,0:0:0:0:
136,328,13042,1,0,0:0:0:0:
112,320,13099,1,0,0:0:0:0:
104,312,13155,1,0,0:0:0:0:
80,296,13212,1,0,0:0:0:0:
72,272,13268,1,0,0:0:0:0:
56,248,13325,1,0,0:0:0:0:
56,216,13381,1,0,0:0:0:0:
56,192,13438,1,0,0:0:0:0:
56,176,13494,1,0,0:0:0:0:
96,216,13551,1,0,0:0:0:0:
112,192,13608,1,0,0:0:0:0:
128,176,13664,1,0,0:0:0:0:
152,152,13721,1,0,0:0:0:0:
160,144,13777,1,0,0:0:0:0:
192,128,13834,1,0,0:0:0:0:
208,112,13890,1,0,0:0:0:0:
224,112,13947,1,0,0:0:0:0:
240,104,14003,1,0,0:0:0:0:
264,104,14060,1,0,0:0:0:0:
288,104,14116,1,0,0:0:0:0:
304,112,14173,1,0,0:0:0:0:
336,112,14230,1,0,0:0:0:0:
360,120,14286,1,0,0:0:0:0:
376,136,14343,1,0,0:0:0:0:
376,168,14399,1,0,0:0:0:0:
384,184,14456,1,0,0:0:0:0:
376,216,14512,1,0,0:0:0:0:
384,240,14569,1,0,0:0:0:0:
384,272,14625,1,0,0:0:0:0:
368,288,14682,1,0,0:0:0:0:
344,296,14738,1,0,0:0:0:0:
312,296,14795,1,0,0:0:0:0:
280,304,14851,1,0,0:0:0:0:
256,312,14908,1,0,0:0:0:0:
224,312,14964,1,0,0:0:0:0:
208,320,15021,1,0,0:0:0:0:
192,320,15077,1,0,0:0:0:0:
168,328,15134,1,0,0:0:0:0:
136,328,15190,1,0,0:0:0:0:
112,320,15247,1,0,0:0:0:0:
104,312,15303,1,0,0:0:0:0:
80,296,15360,1,0,0:0:0:0:
72,272,15416,1,0,0:0:0:0:
56,248,15473,1,0,0:0:0:0:
56,216,15529,1,0,0:0:0:0:
56,192,15586,1,0,0:0:0:0:
56,176,15642,1,0,0:0:0:0:
96,216,15699,1,0,0:0:0:0:
112,192,15756,1,0,0:0:0:0:
128,176,15812,1,0,0:0:0:0:
152,152,15869,1,0,0:0:0:0:
160,144,15925,1,0,0:0:0:0:
192,128,15982,1,0,0:0:0:0:
208,112,16038,1,0,0:0:0:0:
224,112,16095,1,0,0:0:0:0:
240,104,16151,1,0,0:0:0:0:
264,104,16208,1,0,0:0:0:0:
288,104,16264,1,0,0:0:0:0:
304,112,16321,1,0,0:0:0:0:
336,112,16378,1,0,0:0:0:0:
360,120,16434,1,0,0:0:0:0:
376,136,16491,1,0,0:0:0:0:
376,168,16547,1,0,0:0:0:0:
384,184,16604,1,0,0:0:0:0:
376,216,16660,1,0,0:0:0:0:
384,240,16717,1,0,0:0:0:0:
384,272,16773,1,0,0:0:0:0:
368,288,16830,1,0,0:0:0:0:
344,296,16886,1,0,0:0:0:0:
312,296,16943,1,0,0:0:0:0:
280,304,16999,1,0,0:0:0:0:
256,312,17056,1,0,0:0:0:0:
224,312,17112,1,0,0:0:0:0:
208,320,17169,1,0,0:0:0:0:
192,320,17225,1,0,0:0:0:0:
168,328,17282,1,0,0:0:0:0:
136,328,17338,1,0,0:0:0:0:
112,320,17395,1,0,0:0:0:0:
104,312,17451,1,0,0:0:0:0:
80,296,17508,1,0,0:0:0:0:
72,272,17564,1,0,0:0:0:0:
56,248,17621,1,0,0:0:0:0:
56,216,17677,1,0,0:0:0:0:
56,192,17734,1,0,0:0:0:0:
56,176,17790,1,0,0:0:0:0:
96,216,17847,1,0,0:0:0:0:
112,192,17904,1,0,0:0:0:0:
128,176,17960,1,0,0:0:0:0:
152,152,18017,1,0,0:0:0:0:
160,144,18073,1,0,0:0:0:0:
192,128,18130,1,0,0:0:0:0:
208,112,18186,1,0,0:0:0:0:
224,112,18243,1,0,0:0:0:0:
240,104,18299,1,0,0:0:0:0:
264,104,18356,1,0,0:0:0:0:
288,104,18412,1,0,0:0:0:0:
304,112,18469,1,0,0:0:0:0:
336,112,18526,1,0,0:0:0:0:
360,120,18582,1,0,0:0:0:0:
376,136,18639,1,0,0:0:0:0:
376,168,18695,1,0,0:0:0:0:
384,184,18752,1,0,0:0:0:0:
376,216,18808,1,0,0:0:0:0:
384,240,18865,1,0,0:0:0:0:
384,272,18921,1,0,0:0:0:0:
368,288,18978,1,0,0:0:0:0:
344,296,19034,1,0,0:0:0:0:
312,296,19091,1,0,0:0:0:0:
280,304,19147,1,0,0:0:0:0:
256,312,19204,1,0,0:0:0:0:
224,312,19260,1,0,0:0:0:0:
208,320,19317,1,0,0:0:0:0:
192,320,19373,1,0,0:0:0:0:
168,328,19430,1,0,0:0:0:0:
136,328,19486,1,0,0:0:0:0:
112,320,19543,1,0,0:0:0:0:
104,312,19599,1,0,0:0:0:0:
80,296,19656,1,0,0:0:0:0:
72,272,19712,1,0,0:0:0:0:
56,248,19769,1,0,0:0:0:0:
56,216,19825,1,0,0:0:0:0:
56,192,19882,1,0,0:0:0:0:
56,176,19938,1,0,0:0:0:0:
96,216,19995,1,0,0:0:0:0:
112,192,20052,1,0,0:0:0:0:
128,176,20108,1,0,0:0:0:0:
152,152,20165,1,0,0:0:0:0:
160,144,20221,1,0,0:0:0:0:
192,128,20278,1,0,0:0:0:0:
208,112,20334,1,0,0:0:0:0:
224,112,20391,1,0,0:0:0:0:
240,104,20447,1,0,0:0:0:0:
264,104,20504,1,0,0:0:0:0:
288,104,20560,1,0,0:0:0:0:
304,112,20617,1,0,0:0:0:0:
336,112,20674,1,0,0:0:0:0:
360,120,20730,1,0,0:0:0:0:
376,136,20787,1,0,0:0:0:0:
376,168,20843,1,0,0:0:0:0:
384,184,20900,1,0,0:0:0:0:
376,216,20956,1,0,0:0:0:0:
384,240,21013,1,0,0:0:0:0:
384,272,21069,1,0,0:0:0:0:
368,288,21126,1,0,0:0:0:0:
344,296,21182,1,0,0:0:0:0:
312,296,21239,1,0,0:0:0:0:
280,304,21295,1,0,0:0:0:0:
256,312,21352,1,0,0:0:0:0:
224,312,21408,1,0,0:0:0:0:
208,320,21465,1,0,0:0:0:0:
192,320,21521,1,0,0:0:0:0:
168,328,21578,1,0,0:0:0:0:
136,328,21634,1,0,0:0:0:0:
112,320,21691,1,0,0:0:0:0:
104,312,21747,1,0,0:0:0:0:
80,296,21804,1,0,0:0:0:0:
72,272,21860,1,0,0:0:0:0:
56,248,21917,1,0,0:0:0:0:
56,216,21973,1,0,0:0:0:0:
56,192,22030,1,0,0:0:0:0:
56,176,22086,1,0,0:0:0:0:
96,216,22142,1,0,0:0:0:0:
112,192,22199,1,0,0:0:0:0:
128,176,22255,1,0,0:0:0:0:
152,152,22312,1,0,0:0:0:0:
160,144,22368,1,0,0:0:0:0:
192,128,22425,1,0,0:0:0:0:
208,112,22481,1,0,0:0:0:0:
224,112,22538,1,0,0:0:0:0:
240,104,22594,1,0,0:0:0:0:
264,104,22651,1,0,0:0:0:0:
288,104,22707,1,0,0:0:0:0:
304,112,22764,1,0,0:0:0:0:
336,112,22821,1,0,0:0:0:0:
360,120,22877,1,0,0:0:0:0:
376,136,22934,1,0,0:0:0:0:
376,168,22990,1,0,0:0:0:0:
384,184,23047,1,0,0:0:0:0:
376,216,23103,1,0,0:0:0:0:
384,240,23160,1,0,0:0:0:0:
384,272,23216,1,0,0:0:0:0:
368,288,23273,1,0,0:0:0:0:
344,296,23329,1,0,0:0:0:0:
312,296,23386,1,0,0:0:0:0:
280,304,23442,1,0,0:0:0:0:
256,312,23499,1,0,0:0:0:0:
224,312,23555,1,0,0:0:0:0:
208,320,23612,1,0,0:0:0:0:
192,320,23668,1,0,0:0:0:0:
168,328,23725,1,0,0:0:0:0:
136,328,23781,1,0,0:0:0:0:
112,320,23838,1,0,0:0:0:0:
104,312,23894,1,0,0:0:0:0:
80,296,23951,1,0,0:0:0:0:
72,272,24007,1,0,0:0:0:0:
56,248,24064,1,0,0:0:0:0:
56,216,24120,1,0,0:0:0:0:
56,192,24177,1,0,0:0:0:0:
56,176,24233,1,0,0:0:0:0:
96,216,24290,1,0,0:0:0:0:
112,192,24347,1,0,0:0:0:0:
128,176,24403,1,0,0:0:0:0:
152,152,24460,1,0,0:0:0:0:
160,144,24516,1,0,0:0:0:0:
192,128,24573,1,0,0:0:0:0:
208,112,24629,1,0,0:0:0:0:
224,112,24686,1,0,0:0:0:0:
240,104,24742,1,0,0:0:0:0:
264,104,24799,1,0,0:0:0:0:
288,104,24855,1,0,0:0:0:0:
304,112,24912,1,0,0:0:0:0:
336,112,24969,1,0,0:0:0:0:
360,120,25025,1,0,0:0:0:0:
376,136,25082,1,0,0:0:0:0:
376,168,25138,1,0,0:0:0:0:
384,184,25195,1,0,0:0:0:0:
376,216,25251,1,0,0:0:0:0:
384,240,25308,1,0,0:0:0:0:
384,272,25364,1,0,0:0:0:0:
368,288,25421,1,0,0:0:0:0:
344,296,25477,1,0,0:0:0:0:
312,296,25534,1,0,0:0:0:0:
280,304,25590,1,0,0:0:0:0:
256,312,25647,1,0,0:0:0:0:
224,312,25703,1,0,0:0:0:0:
208,320,25760,1,0,0:0:0:0:
192,320,25816,1,0,0:0:0:0:
168,328,25873,1,0,0:0:0:0:
136,328,25929,1,0,0:0:0:0:
112,320,25986,1,0,0:0:0:0:
104,312,26042,1,0,0:0:0:0:
80,296,26099,1,0,0:0:0:0:
72,272,26155,1,0,0:0:0:0:
56,248,26212,1,0,0:0:0:0:
56,216,26268,1,0,0:0:0:0:
56,192,26325,1,0,0:0:0:0:
56,176,26381,1,0,0:0:0:0:
96,216,26437,1,0,0:0:0:0:
112,192,26494,1,0,0:0:0:0:
128,176,26550,1,0,0:0:0:0:
152,152,26607,1,0,0:0:0:0:
160,144,26663,1,0,0:0:0:0:
192,128,26720,1,0,0:0:0:0:
208,112,26776,1,0,0:0:0:0:
224,112,26833,1,0,0:0:0:0:
240,104,26889,1,0,0:0:0:0:
264,104,26946,1,0,0:0:0:0:
288,104,27002,1,0,0:0:0:0:
304,112,27059,1,0,0:0:0:0:
336,112,27116,1,0,0:0:0:0:
360,120,27172,1,0,0:0:0:0:
376,136,27229,1,0,0:0:0:0:
376,168,27285,1,0,0:0:0:0:
384,184,27342,1,0,0:0:0:0:
376,216,27398,1,0,0:0:0:0:
384,240,27455,1,0,0:0:0:0:
384,272,27511,1,0,0:0:0:0:
368,288,27568,1,0,0:0:0:0:
344,296,27624,1,0,0:0:0:0:
312,296,27681,1,0,0:0:0:0:
280,304,27737,1,0,0:0:0:0:
256,312,27794,1,0,0:0:0:0:
224,312,27850,1,0,0:0:0:0:
208,320,27907,1,0,0:0:0:0:
192,320,27963,1,0,0:0:0:0:
168,328,28020,1,0,0:0:0:0:
136,328,28076,1,0,0:0:0:0:
112,320,28133,1,0,0:0:0:0:
104,312,28189,1,0,0:0:0:0:
80,296,28246,1,0,0:0:0:0:
72,272,28302,1,0,0:0:0:0:
56,248,28359,1,0,0:0:0:0:
56,216,28415,1,0,0:0:0:0:
56,192,28472,1,0,0:0:0:0:
56,176,28528,1,0,0:0:0:0:
96,216,28585,1,0,0:0:0:0:
112,192,28642,1,0,0:0:0:0:
128,176,28698,1,0,0:0:0:0:
152,152,28755,1,0,0:0:0:0:
160,144,28811,1,0,0:0:0:0:
192,128,28868,1,0,0:0:0:0:
208,112,28924,1,0,0:0:0:0:
224,112,28981,1,0,0:0:0:0:
240,104,29037,1,0,0:0:0:0:
264,104,29094,1,0,0:0:0:0:
288,104,29150,1,0,0:0:0:0:
304,112,29207,1,0,0:0:0:0:
336,112,29264,1,0,0:0:0:0:
360,120,29320,1,0,0:0:0:0:
376,136,29377,1,0,0:0:0:0:
376,168,29433,1,0,0:0:0:0:
384,184,29490,1,0,0:0:0:0:
376,216,29546,1,0,0:0:0:0:
384,240,29603,1,0,0:0:0:0:
384,272,29659,1,0,0:0:0:0:
368,288,29716,1,0,0:0:0:0:
344,296,29772,1,0,0:0:0:0:
312,296,29829,1,0,0:0:0:0:
280,304,29885,1,0,0:0:0:0:
256,312,29942,1,0,0:0:0:0:
224,312,29998,1,0,0:0:0:0:
208,320,30055,1,0,0:0:0:0:
192,320,30111,1,0,0:0:0:0:
168,328,30168,1,0,0:0:0:0:
136,328,30224,1,0,0:0:0:0:
112,320,30281,1,0,0:0:0:0:
104,312,30337,1,0,0:0:0:0:
80,296,30394,1,0,0:0:0:0:
72,272,30450,1,0,0:0:0:0:
56,248,30507,1,0,0:0:0:0:
56,216,30563,1,0,0:0:0:0:
56,192,30620,1,0,0:0:0:0:
56,176,30676,1,0,0:0:0:0:
96,216,30733,1,0,0:0:0:0:
112,192,30790,1,0,0:0:0:0:
128,176,30846,1,0,0:0:0:0:
152,152,30903,1,0,0:0:0:0:
160,144,30959,1,0,0:0:0:0:
192,128,31016,1,0,0:0:0:0:
208,112,31072,1,0,0:0:0:0:
224,112,31129,1,0,0:0:0:0:
240,104,31185,1,0,0:0:0:0:
264,104,31242,1,0,0:0:0:0:
288,104,31298,1,0,0:0:0:0:
304,112,31355,1,0,0:0:0:0:
336,112,31412,1,0,0:0:0:0:
360,120,31468,1,0,0:0:0:0:
376,136,31525,1,0,0:0:0:0:
376,168,31581,1,0,0:0:0:0:
384,184,31638,1,0,0:0:0:0:
376,216,31694,1,0,0:0:0:0:
384,240,31751,1,0,0:0:0:0:
384,272,31807,1,0,0:0:0:0:
368,288,31864,1,0,0:0:0:0:
344,296,31920,1,0,0:0:0:0:
312,296,31977,1,0,0:0:0:0:
280,304,32033,1,0,0:0:0:0:
256,312,32090,1,0,0:0:0:0:
224,312,32146,1,0,0:0:0:0:
208,320,32203,1,0,0:0:0:0:
192,320,32259,1,0,0:0:0:0:
168,328,32316,1,0,0:0:0:0:
136,328,32372,1,0,0:0:0:0:
112,320,32429,1,0,0:0:0:0:
104,312,32485,1,0,0:0:0:0:
80,296,32542,1,0,0:0:0:0:
72,272,32598,1,0,0:0:0:0:
56,248,32655,1,0,0:0:0:0:
56,216,32711,1,0,0:0:0:0:
56,192,32768,1,0,0:0:0:0:
56,176,32824,1,0,0:0:0:0:
96,216,32881,1,0,0:0:0:0:
112,192,32938,1,0,0:0:0:0:
128,176,32994,1,0,0:0:0:0:
152,152,33051,1,0,0:0:0:0:
160,144,33107,1,0,0:0:0:0:
192,128,33164,1,0,0:0:0:0:
208,112,33220,1,0,0:0:0:0:
224,112,33277,1,0,0:0:0:0:
240,104,33333,1,0,0:0:0:0:
264,104,33390,1,0,0:0:0:0:
288,104,33446,1,0,0:0:0:0:
304,112,33503,1,0,0:0:0:0:
336,112,33560,1,0,0:0:0:0:
360,120,33616,1,0,0:0:0:0:
376,136,33673,1,0,0:0:0:0:
376,168,33729,1,0,0:0:0:0:
384,184,33786,1,0,0:0:0:0:
376,216,33842,1,0,0:0:0:0:
384,240,33899,1,0,0:0:0:0:
384,272,33955,1,0,0:0:0:0:
368,288,34012,1,0,0:0:0:0:
344,296,34068,1,0,0:0:0:0:
312,296,34125,1,0,0:0:0:0:
280,304,34181,1,0,0:0:0:0:
256,312,34238,1,0,0:0:0:0:
224,312,34294,1,0,0:0:0:0:
208,320,34351,1,0,0:0:0:0:
192,320,34407,1,0,0:0:0:0:
168,328,34464,1,0,0:0:0:0:
136,328,34520,1,0,0:0:0:0:
112,320,34577,1,0,0:0:0:0:
104,312,34633,1,0,0:0:0:0:
80,296,34690,1,0,0:0:0:0:
72,272,34746,1,0,0:0:0:0:
56,248,34803,1,0,0:0:0:0:
56,216,34859,1,0,0:0:0:0:
56,192,34916,1,0,0:0:0:0:
56,176,34972,1,0,0:0:0:0:
96,216,35028,1,0,0:0:0:0:
112,192,35085,1,0,0:0:0:0:
128,176,35141,1,0,0:0:0:0:
152,152,35198,1,0,0:0:0:0:
160,144,35254,1,0,0:0:0:0:
192,128,35311,1,0,0:0:0:0:
208,112,35367,1,0,0:0:0:0:
224,112,35424,1,0,0:0:0:0:
240,104,35480,1,0,0:0:0:0:
264,104,35537,1,0,0:0:0:0:
288,104,35593,1,0,0:0:0:0:
304,112,35650,1,0,0:0:0:0:
336,112,35707,1,0,0:0:0:0:
360,120,35763,1,0,0:0:0:0:
376,136,35820,1,0,0:0:0:0:
376,168,35876,1,0,0:0:0:0:
384,184,35933,1,0,0:0:0:0:
376,216,35989,1,0,0:0:0:0:
384,240,36046,1,0,0:0:0:0:
384,272,36102,1,0,0:0:0:0:
368,288,36159,1,0,0:0:0:0:
344,296,36215,1,0,0:0:0:0:
312,296,36272,1,0,0:0:0:0:
280,304,36328,1,0,0:0:0:0:
256,312,36385,1,0,0:0:0:0:
224,312,36441,1,0,0:0:0:0:
208,320,36498,1,0,0:0:0:0:
192,320,36554,1,0,0:0:0:0:
168,328,36611,1,0,0:0:0:0:
136,328,36667,1,0,0:0:0:0:
112,320,36724,1,0,0:0:0:0:
104,312,36780,1,0,0:0:0:0:
80,296,36837,1,0,0:0:0:0:
72,272,36893,1,0,0:0:0:0:
56,248,36950,1,0,0:0:0:0:
56,216,37006,1,0,0:0:0:0:
56,192,37063,1,0,0:0:0:0:
56,176,37119,1,0,0:0:0:0:
96,216,37176,1,0,0:0:0:0:
112,192,37233,1,0,0:0:0:0:
128,176,37289,1,0,0:0:0:0:
152,152,37346,1,0,0:0:0:0:
160,144,37402,1,0,0:0:0:0:
192,128,37459,1,0,0:0:0:0:
208,112,37515,1,0,0:0:0:0:
224,112,37572,1,0,0:0:0:0:
240,104,37628,1,0,0:0:0:0:
264,104,37685,1,0,0:0:0:0:
288,104,37741,1,0,0:0:0:0:
304,112,37798,1,0,0:0:0:0:
336,112,37855,1,0,0:0:0:0:
360,120,37911,1,0,0:0:0:0:
376,136,37968,1,0,0:0:0:0:
376,168,38024,1,0,0:0:0:0:
384,184,38081,1,0,0:0:0:0:
376,216,38137,1,0,0:0:0:0:
384,240,38194,1,0,0:0:0:0:
384,272,38250,1,0,0:0:0:0:
368,288,38307,1,0,0:0:0:0:
344,296,38363,1,0,0:0:0:0:
312,296,38420,1,0,0:0:0:0:
280,304,38476,1,0,0:0:0:0:
256,312,38533,1,0,0:0:0:0:
224,312,38589,1,0,0:0:0:0:
208,320,38646,1,0,0:0:0:0:
192,320,38702,1,0,0:0:0:0:
168,328,38759,1,0,0:0:0:0:
136,328,38815,1,0,0:0:0:0:
112,320,38872,1,0,0:0:0:0:
104,312,38928,1,0,0:0:0:0:
80,296,38985,1,0,0:0:0:0:
72,272,39041,1,0,0:0:0:0:
56,248,39098,1,0,0:0:0:0:
56,216,39154,1,0,0:0:0:0:
56,192,39211,1,0,0:0:0:0:
56,176,39267,1,0,0:0:0:0:
96,216,39324,1,0,0:0:0:0:
112,192,39381,1,0,0:0:0:0:
128,176,39437,1,0,0:0:0:0:
152,152,39494,1,0,0:0:0:0:
160,144,39550,1,0,0:0:0:0:
192,128,39607,1,0,0:0:0:0:
208,112,39663,1,0,0:0:0:0:
224,112,39720,1,0,0:0:0:0:
240,104,39776,1,0,0:0:0:0:
264,104,39833,1,0,0:0:0:0:
288,104,39889,1,0,0:0:0:0:
304,112,39946,1,0,0:0:0:0:
336,112,40003,1,0,0:0:0:0:
360,120,40059,1,0,0:0:0:0:
376,136,40116,1,0,0:0:0:0:
376,168,40172,1,0,0:0:0:0:
384,184,40229,1,0,0:0:0:0:
376,216,40285,1,0,0:0:0:0:
384,240,40342,1,0,0:0:0:0:
384,272,40398,1,0,0:0:0:0:
368,288,40455,1,0,0:0:0:0:
344,296,40511,1,0,0:0:0:0:
312,296,40568,1,0,0:0:0:0:
280,304,40624,1,0,0:0:0:0:
256,312,40681,1,0,0:0:0:0:
224,312,40737,1,0,0:0:0:0:
208,320,40794,1,0,0:0:0:0:
192,320,40850,1,0,0:0:0:0:
168,328,40907,1,0,0:0:0:0:
136,328,40963,1,0,0:0:0:0:
112,320,41020,1,0,0:0:0:0:
104,312,41076,1,0,0:0:0:0:
80,296,41133,1,0,0:0:0:0:
72,272,41189,1,0,0:0:0:0:
56,248,41246,1,0,0:0:0:0:
56,216,41302,1,0,0:0:0:0:
56,192,41359,1,0,0:0:0:0:
56,176,41415,1,0,0:0:0:0:
96,216,41472,1,0,0:0:0:0:
112,192,41529,1,0,0:0:0:0:
128,176,41585,1,0,0:0:0:0:
152,152,41642,1,0,0:0:0:0:
160,144,41698,1,0,0:0:0:0:
192,128,41755,1,0,0:0:0:0:
208,112,41811,1,0,0:0:0:0:
224,112,41868,1,0,0:0:0:0:
240,104,41924,1,0,0:0:0:0:
264,104,41981,1,0,0:0:0:0:
288,104,42037,1,0,0:0:0:0:
304,112,42094,1,0,0:0:0:0:
336,112,42151,1,0,0:0:0:0:
360,120,42207,1,0,0:0:0:0:
376,136,42264,1,0,0:0:0:0:
376,168,42320,1,0,0:0:0:0:
384,184,42377,1,0,0:0:0:0:
376,216,42433,1,0,0:0:0:0:
384,240,42490,1,0,0:0:0:0:
384,272,42546,1,0,0:0:0:0:
368,288,42603,1,0,0:0:0:0:
344,296,42659,1,0,0:0:0:0:
312,296,42716,1,0,0:0:0:0:
280,304,42772,1,0,0:0:0:0:
256,312,42829,1,0,0:0:0:0:
224,312,42885,1,0,0:0:0:0:
208,320,42942,1,0,0:0:0:0:
192,320,42998,1,0,0:0:0:0:
168,328,43055,1,0,0:0:0:0:
136,328,43111,1,0,0:0:0:0:
112,320,43168,1,0,0:0:0:0:
104,312,43224,1,0,0:0:0:0:
80,296,43281,1,0,0:0:0:0:
72,272,43337,1,0,0:0:0:0:
56,248,43394,1,0,0:0:0:0:
56,216,43450,1,0,0:0:0:0:
56,192,43507,1,0,0:0:0:0:
56,176,43563,1,0,0:0:0:0:
96,216,43620,1,0,0:0:0:0:
112,192,43677,1,0,0:0:0:0:
128,176,43733,1,0,0:0:0:0:
152,152,43790,1,0,0:0:0:0:
160,144,43846,1,0,0:0:0:0:
192,128,43903,1,0,0:0:0:0:
208,112,43959,1,0,0:0:0:0:
224,112,44016,1,0,0:0:0:0:
240,104,44072,1,0,0:0:0:0:
264,104,44129,1,0,0:0:0:0:
288,104,44185,1,0,0:0:0:0:
304,112,44242,1,0,0:0:0:0:
336,112,44299,1,0,0:0:0:0:
360,120,44355,1,0,0:0:0:0:
376,136,44412,1,0,0:0:0:0:
376,168,44468,1,0,0:0:0:0:
384,184,44525,1,0,0:0:0:0:
376,216,44581,1,0,0:0:0:0:
384,240,44638,1,0,0:0:0:0:
384,272,44694,1,0,0:0:0:0:
368,288,44751,1,0,0:0:0:0:
344,296,44807,1,0,0:0:0:0:
312,296,44864,1,0,0:0:0:0:
280,304,44920,1,0,0:0:0:0:
256,312,44977,1,0,0:0:0:0:
224,312,45033,1,0,0:0:0:0:
208,320,45090,1,0,0:0:0:0:
192,320,45146,1,0,0:0:0:0:
168,328,45203,1,0,0:0:0:0:
136,328,45259,1,0,0:0:0:0:
112,320,45316,1,0,0:0:0:0:
104,312,45372,1,0,0:0:0:0:
80,296,45429,1,0,0:0:0:0:
72,272,45485,1,0,0:0:0:0:
56,248,45542,1,0,0:0:0:0:
56,216,45598,1,0,0:0:0:0:
56,192,45655,1,0,0:0:0:0:
56,176,45711,1,0,0:0:0:0:
96,216,45768,1,0,0:0:0:0:
112,192,45825,1,0,0:0:0:0:
128,176,45881,1,0,0:0:0:0:
152,152,45938,1,0,0:0:0:0:
160,144,45994,1,0,0:0:0:0:
192,128,46051,1,0,0:0:0:0:
208,112,46107,1,0,0:0:0:0:
224,112,46164,1,0,0:0:0:0:
240,104,46220,1,0,0:0:0:0:
264,104,46277,1,0,0:0:0:0:
288,104,46333,1,0,0:0:0:0:
304,112,46390,1,0,0:0:0:0:
336,112,46447,1,0,0:0:0:0:
360,120,46503,1,0,0:0:0:0:
376,136,46560,1,0,0:0:0:0:
376,168,46616,1,0,0:0:0:0:
384,184,46673,1,0,0:0:0:0:
376,216,46729,1,0,0:0:0:0:
384,240,46786,1,0,0:0:0:0:
384,272,46842,1,0,0:0:0:0:
368,288,46899,1,0,0:0:0:0:
344,296,46955,1,0,0:0:0:0:
312,296,47012,1,0,0:0:0:0:
280,304,47068,1,0,0:0:0:0:
256,312,47125,1,0,0:0:0:0:
224,312,47181,1,0,0:0:0:0:
208,320,47238,1,0,0:0:0:0:
192,320,47294,1,0,0:0:0:0:
168,328,47351,1,0,0:0:0:0:
136,328,47407,1,0,0:0:0:0:
112,320,47464,1,0,0:0:0:0:
104,312,47520,1,0,0:0:0:0:
80,296,47577,1,0,0:0:0:0:
72,272,47633,1,0,0:0:0:0:
56,248,47690,1,0,0:0:0:0:
56,216,47746,1,0,0:0:0:0:
56,192,47803,1,0,0:0:0:0:
56,176,47859,1,0,0:0:0:0:
96,216,47915,1,0,0:0:0:0:
112,192,47972,1,0,0:0:0:0:
128,176,48028,1,0,0:0:0:0:
152,152,48085,1,0,0:0:0:0:
160,144,48141,1,0,0:0:0:0:
192,128,48198,1,0,0:0:0:0:
208,112,48254,1,0,0:0:0:0:
224,112,48311,1,0,0:0:0:0:
240,104,48367,1,0,0:0:0:0:
264,104,48424,1,0,0:0:0:0:
288,104,48480,1,0,0:0:0:0:
304,112,48537,1,0,0:0:0:0:
336,112,48594,1,0,0:0:0:0:
360,120,48650,1,0,0:0:0:0:
376,136,48707,1,0,0:0:0:0:
376,168,48763,1,0,0:0:0:0:
384,184,48820,1,0,0:0:0:0:
376,216,48876,1,0,0:0:0:0:
384,240,48933,1,0,0:0:0:0:
384,272,48989,1,0,0:0:0:0:
368,288,49046,1,0,0:0:0:0:
344,296,49102,1,0,0:0:0:0:
312,296,49159,1,0,0:0:0:0:
280,304,49215,1,0,0:0:0:0:
256,312,49272,1,0,0:0:0:0:
224,312,49328,1,0,0:0:0:0:
208,320,49385,1,0,0:0:0:0:
192,320,49441,1,0,0:0:0:0:
168,328,49498,1,0,0:0:0:0:
136,328,49554,1,0,0:0:0:0:
112,320,49611,1,0,0:0:0:0:
104,312,49667,1,0,0:0:0:0:
80,296,49724,1,0,0:0:0:0:
72,272,49780,1,0,0:0:0:0:
56,248,49837,1,0,0:0:0:0:
56,216,49893,1,0,0:0:0:0:
56,192,49950,1,0,0:0:0:0:
56,176,50006,1,0,0:0:0:0:
96,216,50063,1,0,0:0:0:0:
112,192,50120,1,0,0:0:0:0:
128,176,50176,1,0,0:0:0:0:
152,152,50233,1,0,0:0:0:0:
160,144,50289,1,0,0:0:0:0:
192,128,50346,1,0,0:0:0:0:
208,112,50402,1,0,0:0:0:0:
224,112,50459,1,0,0:0:0:0:
240,104,50515,1,0,0:0:0:0:
264,104,50572,1,0,0:0:0:0:
288,104,50628,1,0,0:0:0:0:
304,112,50685,1,0,0:0:0:0:
336,112,50742,1,0,0:0:0:0:
360,120,50798,1,0,0:0:0:0:
376,136,50855,1,0,0:0:0:0:
376,168,50911,1,0,0:0:0:0:
384,184,50968,1,0,0:0:0:0:
376,216,51024,1,0,0:0:0:0:
384,240,51081,1,0,0:0:0:0:
384,272,51137,1,0,0:0:0:0:
368,288,51194,1,0,0:0:0:0:
344,296,51250,1,0,0:0:0:0:
312,296,51307,1,0,0:0:0:0:
280,304,51363,1,0,0:0:0:0:
256,312,51420,1,0,0:0:0:0:
224,312,51476,1,0,0:0:0:0:
208,320,51533,1,0,0:0:0:0:
192,320,51589,1,0,0:0:0:0:
168,328,51646,1,0,0:0:0:0:
136,328,51702,1,0,0:0:0:0:
112,320,51759,1,0,0:0:0:0:
104,312,51815,1,0,0:0:0:0:
80,296,51872,1,0,0:0:0:0:
72,272,51928,1,0,0:0:0:0:
56,248,51985,1,0,0:0:0:0:
56,216,52041,1,0,0:0:0:0:
56,192,52098,1,0,0:0:0:0:
56,176,52154,1,0,0:0:0:0:
96,216,52210,1,0,0:0:0:0:
112,192,52267,1,0,0:0:0:0:
128,176,52323,1,0,0:0:0:0:
152,152,52380,1,0,0:0:0:0:
160,144,52436,1,0,0:0:0:0:
192,128,52493,1,0,0:0:0:0:
208,112,52549,1,0,0:0:0:0:
224,112,52606,1,0,0:0:0:0:
240,104,52662,1,0,0:0:0:0:
264,104,52719,1,0,0:0:0:0:
288,104,52775,1,0,0:0:0:0:
304,112,52832,1,0,0:0:0:0:
336,112,52889,1,0,0:0:0:0:
360,120,52945,1,0,0:0:0:0:
376,136,53002,1,0,0:0:0:0:
376,168,53058,1,0,0:0:0:0:
384,184,53115,1,0,0:0:0:0:
376,216,53171,1,0,0:0:0:0:
384,240,53228,1,0,0:0:0:0:
384,272,53284,1,0,0:0:0:0:
368,288,53341,1,0,0:0:0:0:
344,296,53397,1,0,0:0:0:0:
312,296,53454,1,0,0:0:0:0:
280,304,53510,1,0,0:0:0:0:
256,312,53567,1,0,0:0:0:0:
224,312,53623,1,0,0:0:0:0:
208,320,53680,1,0,0:0:0:0:
192,320,53736,1,0,0:0:0:0:
168,328,53793,1,0,0:0:0:0:
136,328,53849,1,0,0:0:0:0:
112,320,53906,1,0,0:0:0:0:
104,312,53962,1,0,0:0:0:0:
80,296,54019,1,0,0:0:0:0:
72,272,54075,1,0,0:0:0:0:
56,248,54132,1,0,0:0:0:0:
56,216,54188,1,0,0:0:0:0:
56,192,54245,1,0,0:0:0:0:
56,176,54301,1,0,0:0:0:0:
96,216,54358,1,0,0:0:0:0:
112,192,54415,1,0,0:0:0:0:
128,176,54471,1,0,0:0:0:0:
152,152,54528,1,0,0:0:0:0:
160,144,54584,1,0,0:0:0:0:
192,128,54641,1,0,0:0:0:0:
208,112,54697,1,0,0:0:0:0:
224,112,54754,1,0,0:0:0:0:
240,104,54810,1,0,0:0:0:0:
264,104,54867,1,0,0:0:0:0:
288,104,54923,1,0,0:0:0:0:
304,112,54980,1,0,0:0:0:0:
336,112,55037,1,0,0:0:0:0:
360,120,55093,1,0,0:0:0:0:
376,136,55150,1,0,0:0:0:0:
376,168,55206,1,0,0:0:0:0:
384,184,55263,1,0,0:0:0:0:
376,216,55319,1,0,0:0:0:0:
384,240,55376,1,0,0:0:0:0:
384,272,55432,1,0,0:0:0:0:
368,288,55489,1,0,0:0:0:0:
344,296,55545,1,0,0:0:0:0:
312,296,55602,1,0,0:0:0:0:
280,304,55658,1,0,0:0:0:0:
256,312,55715,1,0,0:0:0:0:
224,312,55771,1,0,0:0:0:0:
208,320,55828,1,0,0:0:0:0:
192,320,55884,1,0,0:0:0:0:
168,328,55941,1,0,0:0:0:0:
136,328,55997,1,0,0:0:0:0:
112,320,56054,1,0,0:0:0:0:
104,312,56110,1,0,0:0:0:0:
80,296,56167,1,0,0:0:0:0:
72,272,56223,1,0,0:0:0:0:
56,248,56280,1,0,0:0:0:0:
56,216,56336,1,0,0:0:0:0:
56,192,56393,1,0,0:0:0:0:
56,176,56449,1,0,0:0:0:0:
96,216,56506,1,0,0:0:0:0:
112,192,56563,1,0,0:0:0:0:
128,176,56619,1,0,0:0:0:0:
152,152,56676,1,0,0:0:0:0:
160,144,56732,1,0,0:0:0:0:
192,128,56789,1,0,0:0:0:0:
208,112,56845,1,0,0:0:0:0:
224,112,56902,1,0,0:0:0:0:
240,104,56958,1,0,0:0:0:0:
264,104,57015,1,0,0:0:0:0:
288,104,57071,1,0,0:0:0:0:
304,112,57128,1,0,0:0:0:0:
336,112,57185,1,0,0:0:0:0:
360,120,57241,1,0,0:0:0:0:
376,136,57298,1,0,0:0:0:0:
376,168,57354,1,0,0:0:0:0:
384,184,57411,1,0,0:0:0:0:
376,216,57467,1,0,0:0:0:0:
384,240,57524,1,0,0:0:0:0:
384,272,57580,1,0,0:0:0:0:
368,288,57637,1,0,0:0:0:0:
344,296,57693,1,0,0:0:0:0:
312,296,57750,1,0,0:0:0:0:
280,304,57806,1,0,0:0:0:0:
256,312,57863,1,0,0:0:0:0:
224,312,57919,1,0,0:0:0:0:
208,320,57976,1,0,0:0:0:0:
192,320,58032,1,0,0:0:0:0:
168,328,58089,1,0,0:0:0:0:
136,328,58145,1,0,0:0:0:0:
112,320,58202,1,0,0:0:0:0:
104,312,58258,1,0,0:0:0:0:
80,296,58315,1,0,0:0:0:0:
72,272,58371,1,0,0:0:0:0:
56,248,58428,1,0,0:0:0:0:
56,216,58484,1,0,0:0:0:0:
56,192,58541,1,0,0:0:0:0:
56,176,58597,1,0,0:0:0:0:
96,216,58654,1,0,0:0:0:0:
112,192,58711,1,0,0:0:0:0:
128,176,58767,1,0,0:0:0:0:
152,152,58824,1,0,0:0:0:0:
160,144,58880,1,0,0:0:0:0:
192,128,58937,1,0,0:0:0:0:
208,112,58993,1,0,0:0:0:0:
224,112,59050,1,0,0:0:0:0:
240,104,59106,1,0,0:0:0:0:
264,104,59163,1,0,0:0:0:0:
288,104,59219,1,0,0:0:0:0:
304,112,59276,1,0,0:0:0:0:
336,112,59333,1,0,0:0:0:0:
360,120,59389,1,0,0:0:0:0:
376,136,59446,1,0,0:0:0:0:
376,168,59502,1,0,0:0:0:0:
384,184,59559,1,0,0:0:0:0:
376,216,59615,1,0,0:0:0:0:
384,240,59672,1,0,0:0:0:0:
384,272,59728,1,0,0:0:0:0:
368,288,59785,1,0,0:0:0:0:
344,296,59841,1,0,0:0:0:0:
312,296,59898,1,0,0:0:0:0:
280,304,59954,1,0,0:0:0:0:
256,312,60011,1,0,0:0:0:0:
224,312,60067,1,0,0:0:0:0:
208,320,60124,1,0,0:0:0:0:
192,320,60180,1,0,0:0:0:0:
168,328,60237,1,0,0:0:0:0:
136,328,60293,1,0,0:0:0:0:
112,320,60350,1,0,0:0:0:0:
104,312,60406,1,0,0:0:0:0:
80,296,60463,1,0,0:0:0:0:
72,272,60519,1,0,0:0:0:0:
56,248,60576,1,0,0:0:0:0:
56,216,60632,1,0,0:0:0:0:
56,192,60689,1,0,0:0:0:0:
56,176,60745,1,0,0:0:0:0:
96,216,60801,1,0,0:0:0:0:
112,192,60858,1,0,0:0:0:0:
128,176,60914,1,0,0:0:0:0:
152,152,60971,1,0,0:0:0:0:
160,144,61027,1,0,0:0:0:0:
192,128,61084,1,0,0:0:0:0:
208,112,61140,1,0,0:0:0:0:
224,112,61197,1,0,0:0:0:0:
240,104,61253,1,0,0:0:0:0:
264,104,61310,1,0,0:0:0:0:
288,104,61366,1,0,0:0:0:0:
304,112,61423,1,0,0:0:0:0:
336,112,61480,1,0,0:0:0:0:
360,120,61536,1,0,0:0:0:0:
376,136,61593,1,0,0:0:0:0:
376,168,61649,1,0,0:0:0:0:
384,184,61706,1,0,0:0:0:0:
376,216,61762,1,0,0:0:0:0:
384,240,61819,1,0,0:0:0:0:
384,272,61875,1,0,0:0:0:0:
368,288,61932,1,0,0:0:0:0:
344,296,61988,1,0,0:0:0:0:
312,296,62045,1,0,0:0:0:0:
280,304,62101,1,0,0:0:0:0:
256,312,62158,1,0,0:0:0:0:
224,312,62214,1,0,0:0:0:0:
208,320,62271,1,0,0:0:0:0:
192,320,62327,1,0,0:0:0:0:
168,328,62384,1,0,0:0:0:0:
136,328,62440,1,0,0:0:0:0:
112,320,62497,1,0,0:0:0:0:
104,312,62553,1,0,0:0:0:0:
80,296,62610,1,0,0:0:0:0:
72,272,62666,1,0,0:0:0:0:
56,248,62723,1,0,0:0:0:0:
56,216,62779,1,0,0:0:0:0:
56,192,62836,1,0,0:0:0:0:
56,176,62892,1,0,0:0:0:0:
96,216,62949,1,0,0:0:0:0:
112,192,63006,1,0,0:0:0:0:
128,176,63062,1,0,0:0:0:0:
152,152,63119,1,0,0:0:0:0:
160,144,63175,1,0,0:0:0:0:
192,128,63232,1,0,0:0:0:0:
208,112,63288,1,0,0:0:0:0:
224,112,63345,1,0,0:0:0:0:
240,104,63401,1,0,0:0:0:0:
264,104,63458,1,0,0:0:0:0:
288,104,63514,1,0,0:0:0:0:
304,112,63571,1,0,0:0:0:0:
336,112,63628,1,0,0:0:0:0:
360,120,63684,1,0,0:0:0:0:
376,136,63741,1,0,0:0:0:0:
376,168,63797,1,0,0:0:0:0:
384,184,63854,1,0,0:0:0:0:
376,216,63910,1,0,0:0:0:0:
384,240,63967,1,0,0:0:0:0:
384,272,64023,1,0,0:0:0:0:
368,288,64080,1,0,0:0:0:0:
344,296,64136,1,0,0:0:0:0:
312,296,64193,1,0,0:0:0:0:
280,304,64249,1,0,0:0:0:0:
256,312,64306,1,0,0:0:0:0:
224,312,64362,1,0,0:0:0:0:
208,320,64419,1,0,0:0:0:0:
192,320,64475,1,0,0:0:0:0:
168,328,64532,1,0,0:0:0:0:
136,328,64588,1,0,0:0:0:0:
112,320,64645,1,0,0:0:0:0:
104,312,64701,1,0,0:0:0:0:
80,296,64758,1,0,0:0:0:0:
72,272,64814,1,0,0:0:0:0:
56,248,64871,1,0,0:0:0:0:
56,216,64927,1,0,0:0:0:0:
56,192,64984,1,0,0:0:0:0:
56,176,65040,1,0,0:0:0:0:
96,216,65097,1,0,0:0:0:0:
112,192,65154,1,0,0:0:0:0:
128,176,65210,1,0,0:0:0:0:
152,152,65267,1,0,0:0:0:0:
160,144,65323,1,0,0:0:0:0:
192,128,65380,1,0,0:0:0:0:
208,112,65436,1,0,0:0:0:0:
224,112,65493,1,0,0:0:0:0:
240,104,65549,1,0,0:0:0:0:
264,104,65606,1,0,0:0:0:0:
288,104,65662,1,0,0:0:0:0:
304,112,65719,1,0,0:0:0:0:
336,112,65776,1,0,0:0:0:0:
360,120,65832,1,0,0:0:0:0:
376,136,65889,1,0,0:0:0:0:
376,168,65945,1,0,0:0:0:0:
384,184,66002,1,0,0:0:0:0:
376,216,66058,1,0,0:0:0:0:
384,240,66115,1,0,0:0:0:0:
384,272,66171,1,0,0:0:0:0:
368,288,66228,1,0,0:0:0:0:
344,296,66284,1,0,0:0:0:0:
312,296,66341,1,0,0:0:0:0:
280,304,66397,1,0,0:0:0:0:
256,312,66454,1,0,0:0:0:0:
224,312,66510,1,0,0:0:0:0:
208,320,66567,1,0,0:0:0:0:
192,320,66623,1,0,0:0:0:0:
168,328,66680,1,0,0:0:0:0:
136,328,66736,1,0,0:0:0:0:
112,320,66793,1,0,0:0:0:0:
104,312,66849,1,0,0:0:0:0:
80,296,66906,1,0,0:0:0:0:
72,272,66962,1,0,0:0:0:0:
56,248,67019,1,0,0:0:0:0:
56,216,67075,1,0,0:0:0:0:
56,192,67132,1,0,0:0:0:0:
56,176,67188,1,0,0:0:0:0:
96,216,67245,1,0,0:0:0:0:
112,192,67302,1,0,0:0:0:0:
128,176,67358,1,0,0:0:0:0:
152,152,67415,1,0,0:0:0:0:
160,144,67471,1,0,0:0:0:0:
192,128,67528,1,0,0:0:0:0:
208,112,67584,1,0,0:0:0:0:
224,112,67641,1,0,0:0:0:0:
240,104,67697,1,0,0:0:0:0:
264,104,67754,1,0,0:0:0:0:
288,104,67810,1,0,0:0:0:0:
304,112,67867,1,0,0:0:0:0:
336,112,67924,1,0,0:0:0:0:
360,120,67980,1,0,0:0:0:0:
376,136,68037,1,0,0:0:0:0:
376,168,68093,1,0,0:0:0:0:
384,184,68150,1,0,0:0:0:0:
376,216,68206,1,0,0:0:0:0:
384,240,68263,1,0,0:0:0:0:
384,272,68319,1,0,0:0:0:0:
368,288,68376,1,0,0:0:0:0:
344,296,68432,1,0,0:0:0:0:
312,296,68489,1,0,0:0:0:0:
280,304,68545,1,0,0:0:0:0:
256,312,68602,1,0,0:0:0:0:
224,312,68658,1,0,0:0:0:0:
208,320,68715,1,0,0:0:0:0:
192,320,68771,1,0,0:0:0:0:
168,328,68828,1,0,0:0:0:0:
136,328,68884,1,0,0:0:0:0:
112,320,68941,1,0,0:0:0:0:
104,312,68997,1,0,0:0:0:0:
80,296,69054,1,0,0:0:0:0:
72,272,69110,1,0,0:0:0:0:
56,248,69167,1,0,0:0:0:0:
56,216,69223,1,0,0:0:0:0:
56,192,69280,1,0,0:0:0:0:
56,176,69336,1,0,0:0:0:0:
96,216,69393,1,0,0:0:0:0:
112,192,69450,1,0,0:0:0:0:
128,176,69506,1,0,0:0:0:0:
152,152,69563,1,0,0:0:0:0:
160,144,69619,1,0,0:0:0:0:
192,128,69676,1,0,0:0:0:0:
208,112,69732,1,0,0:0:0:0:
224,112,69789,1,0,0:0:0:0:
240,104,69845,1,0,0:0:0:0:
264,104,69902,1,0,0:0:0:0:
288,104,69958,1,0,0:0:0:0:
304,112,70015,1,0,0:0:0:0:
336,112,70072,1,0,0:0:0:0:
360,120,70128,1,0,0:0:0:0:
376,136,70185,1,0,0:0:0:0:
376,168,70241,1,0,0:0:0:0:
384,184,70298,1,0,0:0:0:0:
376,216,70354,1,0,0:0:0:0:
384,240,70411,1,0,0:0:0:0:
384,272,70467,1,0,0:0:0:0:
368,288,70524,1,0,0:0:0:0:
344,296,70580,1,0,0:0:0:0:
312,296,70637,1,0,0:0:0:0:
280,304,70693,1,0,0:0:0:0:
256,312,70750,1,0,0:0:0:0:
224,312,70806,1,0,0:0:0:0:
208,320,70863,1,0,0:0:0:0:
192,320,70919,1,0,0:0:0:0:
168,328,70976,1,0,0:0:0:0:
136,328,71032,1,0,0:0:0:0:
112,320,71089,1,0,0:0:0:0:
104,312,71145,1,0,0:0:0:0:
80,296,71202,1,0,0:0:0:0:
72,272,71258,1,0,0:0:0:0:
56,248,71315,1,0,0:0:0:0:
56,216,71371,1,0,0:0:0:0:
56,192,71428,1,0,0:0:0:0:
56,176,71484,1,0,0:0:0:0:
96,216,71541,1,0,0:0:0:0:
112,192,71598,1,0,0:0:0:0:
128,176,71654,1,0,0:0:0:0:
152,152,71711,1,0,0:0:0:0:
160,144,71767,1,0,0:0:0:0:
192,128,71824,1,0,0:0:0:0:
208,112,71880,1,0,0:0:0:0:
224,112,71937,1,0,0:0:0:0:
240,104,71993,1,0,0:0:0:0:
264,104,72050,1,0,0:0:0:0:
288,104,72106,1,0,0:0:0:0:
304,112,72163,1,0,0:0:0:0:
336,112,72220,1,0,0:0:0:0:
360,120,72276,1,0,0:0:0:0:
376,136,72333,1,0,0:0:0:0:
376,168,72389,1,0,0:0:0:0:
384,184,72446,1,0,0:0:0:0:
376,216,72502,1,0,0:0:0:0:
384,240,72559,1,0,0:0:0:0:
384,272,72615,1,0,0:0:0:0:
368,288,72672,1,0,0:0:0:0:
344,296,72728,1,0,0:0:0:0:
312,296,72785,1,0,0:0:0:0:
280,304,72841,1,0,0:0:0:0:
256,312,72898,1,0,0:0:0:0:
224,312,72954,1,0,0:0:0:0:
208,320,73011,1,0,0:0:0:0:
192,320,73067,1,0,0:0:0:0:
168,328,73124,1,0,0:0:0:0:
136,328,73180,1,0,0:0:0:0:
112,320,73237,1,0,0:0:0:0:
104,312,73293,1,0,0:0:0:0:
80,296,73350,1,0,0:0:0:0:
72,272,73406,1,0,0:0:0:0:
56,248,73463,1,0,0:0:0:0:
56,216,73519,1,0,0:0:0:0:
56,192,73576,1,0,0:0:0:0:
56,176,73632,1,0,0:0:0:0:
96,216,73688,1,0,0:0:0:0:
112,192,73745,1,0,0:0:0:0:
128,176,73801,1,0,0:0:0:0:
152,152,73858,1,0,0:0:0:0:
160,144,73914,1,0,0:0:0:0:
192,128,73971,1,0,0:0:0:0:
208,112,74027,1,0,0:0:0:0:
224,112,74084,1,0,0:0:0:0:
240,104,74140,1,0,0:0:0:0:
264,104,74197,1,0,0:0:0:0:
288,104,74253,1,0,0:0:0:0:
304,112,74310,1,0,0:0:0:0:
336,112,74367,1,0,0:0:0:0:
360,120,74423,1,0,0:0:0:0:
376,136,74480,1,0,0:0:0:0:
376,168,74536,1,0,0:0:0:0:
384,184,74593,1,0,0:0:0:0:
376,216,74649,1,0,0:0:0:0:
384,240,74706,1,0,0:0:0:0:
384,272,74762,1,0,0:0:0:0:
368,288,74819,1,0,0:0:0:0:
344,296,74875,1,0,0:0:0:0:
312,296,74932,1,0,0:0:0:0:
280,304,74988,1,0,0:0:0:0:
256,312,75045,1,0,0:0:0:0:
224,312,75101,1,0,0:0:0:0:
208,320,75158,1,0,0:0:0:0:
192,320,75214,1,0,0:0:0:0:
168,328,75271,1,0,0:0:0:0:
136,328,75327,1,0,0:0:0:0:
112,320,75384,1,0,0:0:0:0:
104,312,75440,1,0,0:0:0:0:
80,296,75497,1,0,0:0:0:0:
72,272,75553,1,0,0:0:0:0:
56,248,75610,1,0,0:0:0:0:
56,216,75666,1,0,0:0:0:0:
56,192,75723,1,0,0:0:0:0:
56,176,75779,1,0,0:0:0:0:
96,216,75836,1,0,0:0:0:0:
112,192,75893,1,0,0:0:0:0:
128,176,75949,1,0,0:0:0:0:
152,152,76006,1,0,0:0:0:0:
160,144,76062,1,0,0:0:0:0:
192,128,76119,1,0,0:0:0:0:
208,112,76175,1,0,0:0:0:0:
224,112,76232,1,0,0:0:0:0:
240,104,76288,1,0,0:0:0:0:
264,104,76345,1,0,0:0:0:0:
288,104,76401,1,0,0:0:0:0:
304,112,76458,1,0,0:0:0:0:
336,112,76515,1,0,0:0:0:0:
360,120,76571,1,0,0:0:0:0:
376,136,76628,1,0,0:0:0:0:
376,168,76684,1,0,0:0:0:0:
384,184,76741,1,0,0:0:0:0:
376,216,76797,1,0,0:0:0:0:
384,240,76854,1,0,0:0:0:0:
384,272,76910,1,0,0:0:0:0:
368,288,76967,1,0,0:0:0:0:
344,296,77023,1,0,0:0:0:0:
312,296,77080,1,0,0:0:0:0:
280,304,77136,1,0,0:0:0:0:
256,312,77193,1,0,0:0:0:0:
224,312,77249,1,0,0:0:0:0:
208,320,77306,1,0,0:0:0:0:
192,320,77362,1,0,0:0:0:0:
168,328,77419,1,0,0:0:0:0:
136,328,77475,1,0,0:0:0:0:
112,320,77532,1,0,0:0:0:0:
104,312,77588,1,0,0:0:0:0:
80,296,77645,1,0,0:0:0:0:
72,272,77701,1,0,0:0:0:0:
56,248,77758,1,0,0:0:0:0:
56,216,77814,1,0,0:0:0:0:
56,192,77871,1,0,0:0:0:0:
56,176,77927,1,0,0:0:0:0:
96,216,77984,1,0,0:0:0:0:
112,192,78041,1,0,0:0:0:0:
128,176,78097,1,0,0:0:0:0:
152,152,78154,1,0,0:0:0:0:
160,144,78210,1,0,0:0:0:0:
192,128,78267,1,0,0:0:0:0:
208,112,78323,1,0,0:0:0:0:
224,112,78380,1,0,0:0:0:0:
240,104,78436,1,0,0:0:0:0:
264,104,78493,1,0,0:0:0:0:
288,104,78549,1,0,0:0:0:0:
304,112,78606,1,0,0:0:0:0:
336,112,78663,1,0,0:0:0:0:
360,120,78719,1,0,0:0:0:0:
376,136,78776,1,0,0:0:0:0:
376,168,78832,1,0,0:0:0:0:
384,184,78889,1,0,0:0:0:0:
376,216,78945,1,0,0:0:0:0:
384,240,79002,1,0,0:0:0:0:
384,272,79058,1,0,0:0:0:0:
368,288,79115,1,0,0:0:0:0:
344,296,79171,1,0,0:0:0:0:
312,296,79228,1,0,0:0:0:0:
280,304,79284,1,0,0:0:0:0:
256,312,79341,1,0,0:0:0:0:
224,312,79397,1,0,0:0:0:0:
208,320,79454,1,0,0:0:0:0:
192,320,79510,1,0,0:0:0:0:
168,328,79567,1,0,0:0:0:0:
136,328,79623,1,0,0:0:0:0:
112,320,79680,1,0,0:0:0:0:
104,312,79736,1,0,0:0:0:0:
80,296,79793,1,0,0:0:0:0:
72,272,79849,1,0,0:0:0:0:
56,248,79906,1,0,0:0:0:0:
56,216,79962,1,0,0:0:0:0:
56,192,80019,1,0,0:0:0:0:
56,176,80075,1,0,0:0:0:0:
96,216,80132,1,0,0:0:0:0:
112,192,80189,1,0,0:0:0:0:
128,176,80245,1,0,0:0:0:0:
152,152,80302,1,0,0:0:0:0:
160,144,80358,1,0,0:0:0:0:
192,128,80415,1,0,0:0:0:0:
208,112,80471,1,0,0:0:0:0:
224,112,80528,1,0,0:0:0:0:
240,104,80584,1,0,0:0:0:0:
264,104,80641,1,0,0:0:0:0:
288,104,80697,1,0,0:0:0:0:
304,112,80754,1,0,0:0:0:0:
336,112,80811,1,0,0:0:0:0:
360,120,80867,1,0,0:0:0:0:
376,136,80924,1,0,0:0:0:0:
376,168,80980,1,0,0:0:0:0:
384,184,81037,1,0,0:0:0:0:
376,216,81093,1,0,0:0:0:0:
384,240,81150,1,0,0:0:0:0:
384,272,81206,1,0,0:0:0:0:
368,288,81263,1,0,0:0:0:0:
344,296,81319,1,0,0:0:0:0:
312,296,81376,1,0,0:0:0:0:
280,304,81432,1,0,0:0:0:0:
256,312,81489,1,0,0:0:0:0:
224,312,81545,1,0,0:0:0:0:
208,320,81602,1,0,0:0:0:0:
192,320,81658,1,0,0:0:0:0:
168,328,81715,1,0,0:0:0:0:
136,328,81771,1,0,0:0:0:0:
112,320,81828,1,0,0:0:0:0:
104,312,81884,1,0,0:0:0:0:
80,296,81941,1,0,0:0:0:0:
72,272,81997,1,0,0:0:0:0:
56,248,82054,1,0,0:0:0:0:
56,216,82110,1,0,0:0:0:0:
56,192,82167,1,0,0:0:0:0:
56,176,82223,1,0,0:0:0:0:
96,216,82280,1,0,0:0:0:0:
112,192,82337,1,0,0:0:0:0:
128,176,82393,1,0,0:0:0:0:
152,152,82450,1,0,0:0:0:0:
160,144,82506,1,0,0:0:0:0:
192,128,82563,1,0,0:0:0:0:
208,112,82619,1,0,0:0:0:0:
224,112,82676,1,0,0:0:0:0:
240,104,82732,1,0,0:0:0:0:
264,104,82789,1,0,0:0:0:0:
288,104,82845,1,0,0:0:0:0:
304,112,82902,1,0,0:0:0:0:
336,112,82959,1,0,0:0:0:0:
360,120,83015,1,0,0:0:0:0:
376,136,83072,1,0,0:0:0:0:
376,168,83128,1,0,0:0:0:0:
384,184,83185,1,0,0:0:0:0:
376,216,83241,1,0,0:0:0:0:
384,240,83298,1,0,0:0:0:0:
384,272,83354,1,0,0:0:0:0:
368,288,83411,1,0,0:0:0:0:
344,296,83467,1,0,0:0:0:0:
312,296,83524,1,0,0:0:0:0:
280,304,83580,1,0,0:0:0:0:
256,312,83637,1,0,0:0:0:0:
224,312,83693,1,0,0:0:0:0:
208,320,83750,1,0,0:0:0:0:
192,320,83806,1,0,0:0:0:0:
168,328,83863,1,0,0:0:0:0:
136,328,83919,1,0,0:0:0:0:
112,320,83976,1,0,0:0:0:0:
104,312,84032,1,0,0:0:0:0:
80,296,84089,1,0,0:0:0:0:
72,272,84145,1,0,0:0:0:0:
56,248,84202,1,0,0:0:0:0:
56,216,84258,1,0,0:0:0:0:
56,192,84315,1,0,0:0:0:0:
56,176,84371,1,0,0:0:0:0:
96,216,84428,1,0,0:0:0:0:
112,192,84485,1,0,0:0:0:0:
128,176,84541,1,0,0:0:0:0:
152,152,84598,1,0,0:0:0:0:
160,144,84654,1,0,0:0:0:0:
192,128,84711,1,0,0:0:0:0:
208,112,84767,1,0,0:0:0:0:
224,112,84824,1,0,0:0:0:0:
240,104,84880,1,0,0:0:0:0:
264,104,84937,1,0,0:0:0:0:
288,104,84993,1,0,0:0:0:0:
304,112,85050,1,0,0:0:0:0:
336,112,85107,1,0,0:0:0:0:
360,120,85163,1,0,0:0:0:0:
376,136,85220,1,0,0:0:0:0:
376,168,85276,1,0,0:0:0:0:
384,184,85333,1,0,0:0:0:0:
376,216,85389,1,0,0:0:0:0:
384,240,85446,1,0,0:0:0:0:
384,272,85502,1,0,0:0:0:0:
368,288,85559,1,0,0:0:0:0:
344,296,85615,1,0,0:0:0:0:
312,296,85672,1,0,0:0:0:0:
280,304,85728,1,0,0:0:0:0:
256,312,85785,1,0,0:0:0:0:
224,312,85841,1,0,0:0:0:0:
208,320,85898,1,0,0:0:0:0:
192,320,85954,1,0,0:0:0:0:
168,328,86011,1,0,0:0:0:0:
136,328,86067,1,0,0:0:0:0:
112,320,86124,1,0,0:0:0:0:
104,312,86180,1,0,0:0:0:0:
80,296,86237,1,0,0:0:0:0:
72,272,86293,1,0,0:0:0:0:
56,248,86350,1,0,0:0:0:0:
56,216,86406,1,0,0:0:0:0:
56,192,86463,1,0,0:0:0:0:
56,176,86519,1,0,0:0:0:0:
96,216,86575,1,0,0:0:0:0:
112,192,86632,1,0,0:0:0:0:
128,176,86688,1,0,0:0:0:0:
152,152,86745,1,0,0:0:0:0:
160,144,86801,1,0,0:0:0:0:
192,128,86858,1,0,0:0:0:0:
208,112,86914,1,0,0:0:0:0:
224,112,86971,1,0,0:0:0:0:
240,104,87027,1,0,0:0:0:0:
264,104,87084,1,0,0:0:0:0:
288,104,87140,1,0,0:0:0:0:
304,112,87197,1,0,0:0:0:0:
336,112,87254,1,0,0:0:0:0:
360,120,87310,1,0,0:0:0:0:
376,136,87367,1,0,0:0:0:0:
376,168,87423,1,0,0:0:0:0:
384,184,87480,1,0,0:0:0:0:
376,216,87536,1,0,0:0:0:0:
384,240,87593,1,0,0:0:0:0:
384,272,87649,1,0,0:0:0:0:
368,288,87706,1,0,0:0:0:0:
344,296,87762,1,0,0:0:0:0:
312,296,87819,1,0,0:0:0:0:
280,304,87875,1,0,0:0:0:0:
256,312,87932,1,0,0:0:0:0:
224,312,87988,1,0,0:0:0:0:
208,320,88045,1,0,0:0:0:0:
192,320,88101,1,0,0:0:0:0:
168,328,88158,1,0,0:0:0:0:
136,328,88214,1,0,0:0:0:0:
112,320,88271,1,0,0:0:0:0:
104,312,88327,1,0,0:0:0:0:
80,296,88384,1,0,0:0:0:0:
72,272,88440,1,0,0:0:0:0:
56,248,88497,1,0,0:0:0:0:
56,216,88553,1,0,0:0:0:0:
56,192,88610,1,0,0:0:0:0:
56,176,88666,1,0,0:0:0:0:
96,216,88723,1,0,0:0:0:0:
112,192,88780,1,0,0:0:0:0:
128,176,88836,1,0,0:0:0:0:
152,152,88893,1,0,0:0:0:0:
160,144,88949,1,0,0:0:0:0:
192,128,89006,1,0,0:0:0:0:
208,112,89062,1,0,0:0:0:0:
224,112,89119,1,0,0:0:0:0:
240,104,89175,1,0,0:0:0:0:
264,104,89232,1,0,0:0:0:0:
288,104,89288,1,0,0:0:0:0:
304,112,89345,1,0,0:0:0:0:
336,112,89402,1,0,0:0:0:0:
360,120,89458,1,0,0:0:0:0:
376,136,89515,1,0,0:0:0:0:
376,168,89571,1,0,0:0:0:0:
384,184,89628,1,0,0:0:0:0:
376,216,89684,1,0,0:0:0:0:
384,240,89741,1,0,0:0:0:0:
384,272,89797,1,0,0:0:0:0:
368,288,89854,1,0,0:0:0:0:
344,296,89910,1,0,0:0:0:0:
312,296,89967,1,0,0:0:0:0:
280,304,90023,1,0,0:0:0:0:
256,312,90080,1,0,0:0:0:0:
224,312,90136,1,0,0:0:0:0:
208,320,90193,1,0,0:0:0:0:
192,320,90249,1,0,0:0:0:0:
168,328,90306,1,0,0:0:0:0:
136,328,90362,1,0,0:0:0:0:
112,320,90419,1,0,0:0:0:0:
104,312,90475,1,0,0:0:0:0:
80,296,90532,1,0,0:0:0:0:
72,272,90588,1,0,0:0:0:0:
56,248,90645,1,0,0:0:0:0:
56,216,90701,1,0,0:0:0:0:
56,192,90758,1,0,0:0:0:0:
56,176,90814,1,0,0:0:0:0:
96,216,90870,1,0,0:0:0:0:
112,192,90927,1,0,0:0:0:0:
128,176,90983,1,0,0:0:0:0:
152,152,91040,1,0,0:0:0:0:
160,144,91096,1,0,0:0:0:0:
192,128,91153,1,0,0:0:0:0:
208,112,91209,1,0,0:0:0:0:
224,112,91266,1,0,0:0:0:0:
240,104,91322,1,0,0:0:0:0:
264,104,91379,1,0,0:0:0:0:
288,104,91435,1,0,0:0:0:0:
304,112,91492,1,0,0:0:0:0:
336,112,91549,1,0,0:0:0:0:
360,120,91605,1,0,0:0:0:0:
376,136,91662,1,0,0:0:0:0:
376,168,91718,1,0,0:0:0:0:
384,184,91775,1,0,0:0:0:0:
376,216,91831,1,0,0:0:0:0:
384,240,91888,1,0,0:0:0:0:
384,272,91944,1,0,0:0:0:0:
368,288,92001,1,0,0:0:0:0:
344,296,92057,1,0,0:0:0:0:
312,296,92114,1,0,0:0:0:0:
280,304,92170,1,0,0:0:0:0:
256,312,92227,1,0,0:0:0:0:
224,312,92283,1,0,0:0:0:0:
208,320,92340,1,0,0:0:0:0:
192,320,92396,1,0,0:0:0:0:
168,328,92453,1,0,0:0:0:0:
136,328,92509,1,0,0:0:0:0:
112,320,92566,1,0,0:0:0:0:
104,312,92622,1,0,0:0:0:0:
80,296,92679,1,0,0:0:0:0:
72,272,92735,1,0,0:0:0:0:
56,248,92792,1,0,0:0:0:0:
56,216,92848,1,0,0:0:0:0:
56,192,92905,1,0,0:0:0:0:
56,176,92961,1,0,0:0:0:0:
96,216,93018,1,0,0:0:0:0:
112,192,93075,1,0,0:0:0:0:
128,176,93131,1,0,0:0:0:0:
152,152,93188,1,0,0:0:0:0:
160,144,93244,1,0,0:0:0:0:
192,128,93301,1,0,0:0:0:0:
208,112,93357,1,0,0:0:0:0:
224,112,93414,1,0,0:0:0:0:
240,104,93470,1,0,0:0:0:0:
264,104,93527,1,0,0:0:0:0:
288,104,93583,1,0,0:0:0:0:
304,112,93640,1,0,0:0:0:0:
336,112,93697,1,0,0:0:0:0:
360,120,93753,1,0,0:0:0:0:
376,136,93810,1,0,0:0:0:0:
376,168,93866,1,0,0:0:0:0:
384,184,93923,1,0,0:0:0:0:
376,216,93979,1,0,0:0:0:0:
384,240,94036,1,0,0:0:0:0:
384,272,94092,1,0,0:0:0:0:
368,288,94149,1,0,0:0:0:0:
344,296,94205,1,0,0:0:0:0:
312,296,94262,1,0,0:0:0:0:
280,304,94318,1,0,0:0:0:0:
256,312,94375,1,0,0:0:0:0:
224,312,94431,1,0,0:0:0:0:
208,320,94488,1,0,0:0:0:0:
192,320,94544,1,0,0:0:0:0:
168,328,94601,1,0,0:0:0:0:
136,328,94657,1,0,0:0:0:0:
112,320,94714,1,0,0:0:0:0:
104,312,94770,1,0,0:0:0:0:
80,296,94827,1,0,0:0:0:0:
72,272,94883,1,0,0:0:0:0:
56,248,94940,1,0,0:0:0:0:
56,216,94996,1,0,0:0:0:0:
56,192,95053,1,0,0:0:0:0:
56,176,95109,1,0,0:0:0:0:
96,216,95166,1,0,0:0:0:0:
112,192,95223,1,0,0:0:0:0:
128,176,95279,1,0,0:0:0:0:
152,152,95336,1,0,0:0:0:0:
160,144,95392,1,0,0:0:0:0:
192,128,95449,1,0,0:0:0:0:
208,112,95505,1,0,0:0:0:0:
224,112,95562,1,0,0:0:0:0:
240,104,95618,1,0,0:0:0:0:
264,104,95675,1,0,0:0:0:0:
288,104,95731,1,0,0:0:0:0:
304,112,95788,1,0,0:0:0:0:
336,112,95845,1,0,0:0:0:0:
360,120,95901,1,0,0:0:0:0:
376,136,95958,1,0,0:0:0:0:
376,168,96014,1,0,0:0:0:0:
384,184,96071,1,0,0:0:0:0:
376,216,96127,1,0,0:0:0:0:
384,240,96184,1,0,0:0:0:0:
384,272,96240,1,0,0:0:0:0:
368,288,96297,1,0,0:0:0:0:
344,296,96353,1,0,0:0:0:0:
312,296,96410,1,0,0:0:0:0:
280,304,96466,1,0,0:0:0:0:
256,312,96523,1,0,0:0:0:0:
224,312,96579,1,0,0:0:0:0:
208,320,96636,1,0,0:0:0:0:
192,320,96692,1,0,0:0:0:0:
168,328,96749,1,0,0:0:0:0:
136,328,96805,1,0,0:0:0:0:
112,320,96862,1,0,0:0:0:0:
104,312,96918,1,0,0:0:0:0:
80,296,96975,1,0,0:0:0:0:
72,272,97031,1,0,0:0:0:0:
56,248,97088,1,0,0:0:0:0:
56,216,97144,1,0,0:0:0:0:
56,192,97201,1,0,0:0:0:0:
56,176,97257,1,0,0:0:0:0:
96,216,97314,1,0,0:0:0:0:
112,192,97371,1,0,0:0:0:0:
128,176,97427,1,0,0:0:0:0:
152,152,97484,1,0,0:0:0:0:
160,144,97540,1,0,0:0:0:0:
192,128,97597,1,0,0:0:0:0:
208,112,97653,1,0,0:0:0:0:
224,112,97710,1,0,0:0:0:0:
240,104,97766,1,0,0:0:0:0:
264,104,97823,1,0,0:0:0:0:
288,104,97879,1,0,0:0:0:0:
304,112,97936,1,0,0:0:0:0:
336,112,97993,1,0,0:0:0:0:
360,120,98049,1,0,0:0:0:0:
376,136,98106,1,0,0:0:0:0:
376,168,98162,1,0,0:0:0:0:
384,184,98219,1,0,0:0:0:0:
376,216,98275,1,0,0:0:0:0:
384,240,98332,1,0,0:0:0:0:
384,272,98388,1,0,0:0:0:0:
368,288,98445,1,0,0:0:0:0:
344,296,98501,1,0,0:0:0:0:
312,296,98558,1,0,0:0:0:0:
280,304,98614,1,0,0:0:0:0:
256,312,98671,1,0,0:0:0:0:
224,312,98727,1,0,0:0:0:0:
208,320,98784,1,0,0:0:0:0:
192,320,98840,1,0,0:0:0:0:
168,328,98897,1,0,0:0:0:0:
136,328,98953,1,0,0:0:0:0:
112,320,99010,1,0,0:0:0:0:
104,312,99066,1,0,0:0:0:0:
80,296,99123,1,0,0:0:0:0:
72,272,99179,1,0,0:0:0:0:
56,248,99236,1,0,0:0:0:0:
56,216,99292,1,0,0:0:0:0:
56,192,99349,1,0,0:0:0:0:
56,176,99405,1,0,0:0:0:0:
96,216,99461,1,0,0:0:0:0:
112,192,99518,1,0,0:0:0:0:
128,176,99574,1,0,0:0:0:0:
152,152,99631,1,0,0:0:0:0:
160,144,99687,1,0,0:0:0:0:
192,128,99744,1,0,0:0:0:0:
208,112,99800,1,0,0:0:0:0:
224,112,99857,1,0,0:0:0:0:
240,104,99913,1,0,0:0:0:0:
264,104,99970,1,0,0:0:0:0:
288,104,100026,1,0,0:0:0:0:
304,112,100083,1,0,0:0:0:0:
336,112,100140,1,0,0:0:0:0:
360,120,100196,1,0,0:0:0:0:
376,136,100253,1,0,0:0:0:0:
376,168,100309,1,0,0:0:0:0:
384,184,100366,1,0,0:0:0:0:
376,216,100422,1,0,0:0:0:0:
384,240,100479,1,0,0:0:0:0:
384,272,100535,1,0,0:0:0:0:
368,288,100592,1,0,0:0:0:0:
344,296,100648,1,0,0:0:0:0:
312,296,100705,1,0,0:0:0:0:
280,304,100761,1,0,0:0:0:0:
256,312,100818,1,0,0:0:0:0:
224,312,100874,1,0,0:0:0:0:
208,320,100931,1,0,0:0:0:0:
192,320,100987,1,0,0:0:0:0:
168,328,101044,1,0,0:0:0:0:
136,328,101100,1,0,0:0:0:0:
112,320,101157,1,0,0:0:0:0:
104,312,101213,1,0,0:0:0:0:
80,296,101270,1,0,0:0:0:0:
72,272,101326,1,0,0:0:0:0:
56,248,101383,1,0,0:0:0:0:
56,216,101439,1,0,0:0:0:0:
56,192,101496,1,0,0:0:0:0:
56,176,101552,1,0,0:0:0:0:
96,216,101609,1,0,0:0:0:0:
112,192,101666,1,0,0:0:0:0:
128,176,101722,1,0,0:0:0:0:
152,152,101779,1,0,0:0:0:0:
160,144,101835,1,0,0:0:0:0:
192,128,101892,1,0,0:0:0:0:
208,112,101948,1,0,0:0:0:0:
224,112,102005,1,0,0:0:0:0:
240,104,102061,1,0,0:0:0:0:
264,104,102118,1,0,0:0:0:0:
288,104,102174,1,0,0:0:0:0:
304,112,102231,1,0,0:0:0:0:
336,112,102288,1,0,0:0:0:0:
360,120,102344,1,0,0:0:0:0:
376,136,102401,1,0,0:0:0:0:
376,168,102457,1,0,0:0:0:0:
384,184,102514,1,0,0:0:0:0:
376,216,102570,1,0,0:0:0:0:
384,240,102627,1,0,0:0:0:0:
384,272,102683,1,0,0:0:0:0:
368,288,102740,1,0,0:0:0:0:
344,296,102796,1,0,0:0:0:0:
312,296,102853,1,0,0:0:0:0:
280,304,102909,1,0,0:0:0:0:
256,312,102966,1,0,0:0:0:0:
224,312,103022,1,0,0:0:0:0:
208,320,103079,1,0,0:0:0:0:
192,320,103135,1,0,0:0:0:0:
168,328,103192,1,0,0:0:0:0:
136,328,103248,1,0,0:0:0:0:
112,320,103305,1,0,0:0:0:0:
104,312,103361,1,0,0:0:0:0:
80,296,103418,1,0,0:0:0:0:
72,272,103474,1,0,0:0:0:0:
56,248,103531,1,0,0:0:0:0:
56,216,103587,1,0,0:0:0:0:
56,192,103644,1,0,0:0:0:0:
56,176,103700,1,0,0:0:0:0:
96,216,103757,1,0,0:0:0:0:
112,192,103814,1,0,0:0:0:0:
128,176,103870,1,0,0:0:0:0:
152,152,103927,1,0,0:0:0:0:
160,144,103983,1,0,0:0:0:0:
192,128,104040,1,0,0:0:0:0:
208,112,104096,1,0,0:0:0:0:
224,112,104153,1,0,0:0:0:0:
240,104,104209,1,0,0:0:0:0:
264,104,104266,1,0,0:0:0:0:
288,104,104322,1,0,0:0:0:0:
304,112,104379,1,0,0:0:0:0:
336,112,104436,1,0,0:0:0:0:
360,120,104492,1,0,0:0:0:0:
376,136,104549,1,0,0:0:0:0:
376,168,104605,1,0,0:0:0:0:
384,184,104662,1,0,0:0:0:0:
376,216,104718,1,0,0:0:0:0:
384,240,104775,1,0,0:0:0:0:
384,272,104831,1,0,0:0:0:0:
368,288,104888,1,0,0:0:0:0:
344,296,104944,1,0,0:0:0:0:
312,296,105001,1,0,0:0:0:0:
280,304,105057,1,0,0:0:0:0:
256,312,105114,1,0,0:0:0:0:
224,312,105170,1,0,0:0:0:0:
208,320,105227,1,0,0:0:0:0:
192,320,105283,1,0,0:0:0:0:
168,328,105340,1,0,0:0:0:0:
136,328,105396,1,0,0:0:0:0:
112,320,105453,1,0,0:0:0:0:
104,312,105509,1,0,0:0:0:0:
80,296,105566,1,0,0:0:0:0:
72,272,105622,1,0,0:0:0:0:
56,248,105679,1,0,0:0:0:0:
56,216,105735,1,0,0:0:0:0:
56,192,105792,1,0,0:0:0:0:
56,176,105848,1,0,0:0:0:0:
96,216,105905,1,0,0:0:0:0:
112,192,105962,1,0,0:0:0:0:
128,176,106018,1,0,0:0:0:0:
152,152,106075,1,0,0:0:0:0:
160,144,106131,1,0,0:0:0:0:
192,128,106188,1,0,0:0:0:0:
208,112,106244,1,0,0:0:0:0:
224,112,106301,1,0,0:0:0:0:
240,104,106357,1,0,0:0:0:0:
264,104,106414,1,0,0:0:0:0:
288,104,106470,1,0,0:0:0:0:
304,112,106527,1,0,0:0:0:0:
336,112,106584,1,0,0:0:0:0:
360,120,106640,1,0,0:0:0:0:
376,136,106697,1,0,0:0:0:0:
376,168,106753,1,0,0:0:0:0:
384,184,106810,1,0,0:0:0:0:
376,216,106866,1,0,0:0:0:0:
384,240,106923,1,0,0:0:0:0:
384,272,106979,1,0,0:0:0:0:
368,288,107036,1,0,0:0:0:0:
344,296,107092,1,0,0:0:0:0:
312,296,107149,1,0,0:0:0:0:
280,304,107205,1,0,0:0:0:0:
256,312,107262,1,0,0:0:0:0:
224,312,107318,1,0,0:0:0:0:
208,320,107375,1,0,0:0:0:0:
192,320,107431,1,0,0:0:0:0:
168,328,107488,1,0,0:0:0:0:
136,328,107544,1,0,0:0:0:0:
112,320,107601,1,0,0:0:0:0:
104,312,107657,1,0,0:0:0:0:
80,296,107714,1,0,0:0:0:0:
72,272,107770,1,0,0:0:0:0:
56,248,107827,1,0,0:0:0:0:
56,216,107883,1,0,0:0:0:0:
56,192,107940,1,0,0:0:0:0:
56,176,107996,1,0,0:0:0:0:
96,216,108053,1,0,0:0:0:0:
112,192,108110,1,0,0:0:0:0:
128,176,108166,1,0,0:0:0:0:
152,152,108223,1,0,0:0:0:0:
160,144,108279,1,0,0:0:0:0:
192,128,108336,1,0,0:0:0:0:
208,112,108392,1,0,0:0:0:0:
224,112,108449,1,0,0:0:0:0:
240,104,108505,1,0,0:0:0:0:
264,104,108562,1,0,0:0:0:0:
288,104,108618,1,0,0:0:0:0:
304,112,108675,1,0,0:0:0:0:
336,112,108732,1,0,0:0:0:0:
360,120,108788,1,0,0:0:0:0:
376,136,108845,1,0,0:0:0:0:
376,168,108901,1,0,0:0:0:0:
384,184,108958,1,0,0:0:0:0:
376,216,109014,1,0,0:0:0:0:
384,240,109071,1,0,0:0:0:0:
384,272,109127,1,0,0:0:0:0:
368,288,109184,1,0,0:0:0:0:
344,296,109240,1,0,0:0:0:0:
312,296,109297,1,0,0:0:0:0:
280,304,109353,1,0,0:0:0:0:
256,312,109410,1,0,0:0:0:0:
224,312,109466,1,0,0:0:0:0:
208,320,109523,1,0,0:0:0:0:
192,320,109579,1,0,0:0:0:0:
168,328,109636,1,0,0:0:0:0:
136,328,109692,1,0,0:0:0:0:
112,320,109749,1,0,0:0:0:0:
104,312,109805,1,0,0:0:0:0:
80,296,109862,1,0,0:0:0:0:
72,272,109918,1,0,0:0:0:0:
56,248,109975,1,0,0:0:0:0:
56,216,110031,1,0,0:0:0:0:
56,192,110088,1,0,0:0:0:0:
56,176,110144,1,0,0:0:0:0:
96,216,110201,1,0,0:0:0:0:
112,192,110258,1,0,0:0:0:0:
128,176,110314,1,0,0:0:0:0:
152,152,110371,1,0,0:0:0:0:
160,144,110427,1,0,0:0:0:0:
192,128,110484,1,0,0:0:0:0:
208,112,110540,1,0,0:0:0:0:
224,112,110597,1,0,0:0:0:0:
240,104,110653,1,0,0:0:0:0:
264,104,110710,1,0,0:0:0:0:
288,104,110766,1,0,0:0:0:0:
304,112,110823,1,0,0:0:0:0:
336,112,110880,1,0,0:0:0:0:
360,120,110936,1,0,0:0:0:0:
376,136,110993,1,0,0:0:0:0:
376,168,111049,1,0,0:0:0:0:
384,184,111106,1,0,0:0:0:0:
376,216,111162,1,0,0:0:0:0:
384,240,111219,1,0,0:0:0:0:
384,272,111275,1,0,0:0:0:0:
368,288,111332,1,0,0:0:0:0:
344,296,111388,1,0,0:0:0:0:
312,296,111445,1,0,0:0:0:0:
280,304,111501,1,0,0:0:0:0:
256,312,111558,1,0,0:0:0:0:
224,312,111614,1,0,0:0:0:0:
208,320,111671,1,0,0:0:0:0:
192,320,111727,1,0,0:0:0:0:
168,328,111784,1,0,0:0:0:0:
136,328,111840,1,0,0:0:0:0:
112,320,111897,1,0,0:0:0:0:
104,312,111953,1,0,0:0:0:0:
80,296,112010,1,0,0:0:0:0:
72,272,112066,1,0,0:0:0:0:
56,248,112123,1,0,0:0:0:0:
56,216,112179,1,0,0:0:0:0:
56,192,112236,1,0,0:0:0:0:
56,176,112292,1,0,0:0:0:0:
96,216,112348,1,0,0:0:0:0:
112,192,112405,1,0,0:0:0:0:
128,176,112461,1,0,0:0:0:0:
152,152,112518,1,0,0:0:0:0:
160,144,112574,1,0,0:0:0:0:
192,128,112631,1,0,0:0:0:0:
208,112,112687,1,0,0:0:0:0:
224,112,112744,1,0,0:0:0:0:
240,104,112800,1,0,0:0:0:0:
264,104,112857,1,0,0:0:0:0:
288,104,112913,1,0,0:0:0:0:
304,112,112970,1,0,0:0:0:0:
336,112,113027,1,0,0:0:0:0:
360,120,113083,1,0,0:0:0:0:
376,136,113140,1,0,0:0:0:0:
376,168,113196,1,0,0:0:0:0:
384,184,113253,1,0,0:0:0:0:
376,216,113309,1,0,0:0:0:0:
384,240,113366,1,0,0:0:0:0:
384,272,113422,1,0,0:0:0:0:
368,288,113479,1,0,0:0:0:0:
344,296,113535,1,0,0:0:0:0:
312,296,113592,1,0,0:0:0:0:
280,304,113648,1,0,0:0:0:0:
256,312,113705,1,0,0:0:0:0:
224,312,113761,1,0,0:0:0:0:
208,320,113818,1,0,0:0:0:0:
192,320,113874,1,0,0:0:0:0:
168,328,113931,1,0,0:0:0:0:
136,328,113987,1,0,0:0:0:0:
112,320,114044,1,0,0:0:0:0:
104,312,114100,1,0,0:0:0:0:
80,296,114157,1,0,0:0:0:0:
72,272,114213,1,0,0:0:0:0:
56,248,114270,1,0,0:0:0:0:
56,216,114326,1,0,0:0:0:0:
56,192,114383,1,0,0:0:0:0:
56,176,114439,1,0,0:0:0:0:
96,216,114496,1,0,0:0:0:0:
112,192,114553,1,0,0:0:0:0:
128,176,114609,1,0,0:0:0:0:
152,152,114666,1,0,0:0:0:0:
160,144,114722,1,0,0:0:0:0:
192,128,114779,1,0,0:0:0:0:
208,112,114835,1,0,0:0:0:0:
224,112,114892,1,0,0:0:0:0:
240,104,114948,1,0,0:0:0:0:
264,104,115005,1,0,0:0:0:0:
288,104,115061,1,0,0:0:0:0:
304,112,115118,1,0,0:0:0:0:
336,112,115175,1,0,0:0:0:0:
360,120,115231,1,0,0:0:0:0:
376,136,115288,1,0,0:0:0:0:
376,168,115344,1,0,0:0:0:0:
384,184,115401,1,0,0:0:0:0:
376,216,115457,1,0,0:0:0:0:
384,240,115514,1,0,0:0:0:0:
384,272,115570,1,0,0:0:0:0:
368,288,115627,1,0,0:0:0:0:
344,296,115683,1,0,0:0:0:0:
312,296,115740,1,0,0:0:0:0:
280,304,115796,1,0,0:0:0:0:
256,312,115853,1,0,0:0:0:0:
224,312,115909,1,0,0:0:0:0:
208,320,115966,1,0,0:0:0:0:
192,320,116022,1,0,0:0:0:0:
168,328,116079,1,0,0:0:0:0:
136,328,116135,1,0,0:0:0:0:
112,320,116192,1,0,0:0:0:0:
104,312,116248,1,0,0:0:0:0:
80,296,116305,1,0,0:0:0:0:
72,272,116361,1,0,0:0:0:0:
56,248,116418,1,0,0:0:0:0:
56,216,116474,1,0,0:0:0:0:
56,192,116531,1,0,0:0:0:0:
56,176,116587,1,0,0:0:0:0:
96,216,116643,1,0,0:0:0:0:
112,192,116700,1,0,0:0:0:0:
128,176,116756,1,0,0:0:0:0:
152,152,116813,1,0,0:0:0:0:
160,144,116869,1,0,0:0:0:0:
192,128,116926,1,0,0:0:0:0:
208,112,116982,1,0,0:0:0:0:
224,112,117039,1,0,0:0:0:0:
240,104,117095,1,0,0:0:0:0:
264,104,117152,1,0,0:0:0:0:
288,104,117208,1,0,0:0:0:0:
304,112,117265,1,0,0:0:0:0:
336,112,117322,1,0,0:0:0:0:
360,120,117378,1,0,0:0:0:0:
376,136,117435,1,0,0:0:0:0:
376,168,117491,1,0,0:0:0:0:
384,184,117548,1,0,0:0:0:0:
376,216,117604,1,0,0:0:0:0:
384,240,117661,1,0,0:0:0:0:
384,272,117717,1,0,0:0:0:0:
368,288,117774,1,0,0:0:0:0:
344,296,117830,1,0,0:0:0:0:
312,296,117887,1,0,0:0:0:0:
280,304,117943,1,0,0:0:0:0:
256,312,118000,1,0,0:0:0:0:
224,312,118056,1,0,0:0:0:0:
208,320,118113,1,0,0:0:0:0:
192,320,118169,1,0,0:0:0:0:
168,328,118226,1,0,0:0:0:0:
136,328,118282,1,0,0:0:0:0:
112,320,118339,1,0,0:0:0:0:
104,312,118395,1,0,0:0:0:0:
80,296,118452,1,0,0:0:0:0:
72,272,118508,1,0,0:0:0:0:
56,248,118565,1,0,0:0:0:0:
56,216,118621,1,0,0:0:0:0:
56,192,118678,1,0,0:0:0:0:
56,176,118734,1,0,0:0:0:0:
96,216,118791,1,0,0:0:0:0:
112,192,118848,1,0,0:0:0:0:
128,176,118904,1,0,0:0:0:0:
152,152,118961,1,0,0:0:0:0:
160,144,119017,1,0,0:0:0:0:
192,128,119074,1,0,0:0:0:0:
208,112,119130,1,0,0:0:0:0:
224,112,119187,1,0,0:0:0:0:
240,104,119243,1,0,0:0:0:0:
264,104,119300,1,0,0:0:0:0:
288,104,119356,1,0,0:0:0:0:
304,112,119413,1,0,0:0:0:0:
336,112,119470,1,0,0:0:0:0:
360,120,119526,1,0,0:0:0:0:
376,136,119583,1,0,0:0:0:0:
376,168,119639,1,0,0:0:0:0:
384,184,119696,1,0,0:0:0:0:
376,216,119752,1,0,0:0:0:0:
384,240,119809,1,0,0:0:0:0:
384,272,119865,1,0,0:0:0:0:
368,288,119922,1,0,0:0:0:0:
344,296,119978,1,0,0:0:0:0:
312,296,120035,1,0,0:0:0:0:
280,304,120091,1,0,0:0:0:0:
256,312,120148,1,0,0:0:0:0:
224,312,120204,1,0,0:0:0:0:
208,320,120261,1,0,0:0:0:0:
192,320,120317,1,0,0:0:0:0:
168,328,120374,1,0,0:0:0:0:
136,328,120430,1,0,0:0:0:0:
112,320,120487,1,0,0:0:0:0:
104,312,120543,1,0,0:0:0:0:
80,296,120600,1,0,0:0:0:0:
72,272,120656,1,0,0:0:0:0:
56,248,120713,1,0,0:0:0:0:
56,216,120769,1,0,0:0:0:0:
56,192,120826,1,0,0:0:0:0:
56,176,120882,1,0,0:0:0:0:
96,216,120939,1,0,0:0:0:0:
112,192,120996,1,0,0:0:0:0:
128,176,121052,1,0,0:0:0:0:
152,152,121109,1,0,0:0:0:0:
160,144,121165,1,0,0:0:0:0:
192,128,121222,1,0,0:0:0:0:
208,112,121278,1,0,0:0:0:0:
224,112,121335,1,0,0:0:0:0:
240,104,121391,1,0,0:0:0:0:
264,104,121448,1,0,0:0:0:0:
288,104,121504,1,0,0:0:0:0:
304,112,121561,1,0,0:0:0:0:
336,112,121618,1,0,0:0:0:0:
360,120,121674,1,0,0:0:0:0:
376,136,121731,1,0,0:0:0:0:
376,168,121787,1,0,0:0:0:0:
384,184,121844,1,0,0:0:0:0:
376,216,121900,1,0,0:0:0:0:
384,240,121957,1,0,0:0:0:0:
384,272,122013,1,0,0:0:0:0:
368,288,122070,1,0,0:0:0:0:
344,296,122126,1,0,0:0:0:0:
312,296,122183,1,0,0:0:0:0:
280,304,122239,1,0,0:0:0:0:
256,312,122296,1,0,0:0:0:0:
224,312,122352,1,0,0:0:0:0:
208,320,122409,1,0,0:0:0:0:
192,320,122465,1,0,0:0:0:0:
168,328,122522,1,0,0:0:0:0:
136,328,122578,1,0,0:0:0:0:
112,320,122635,1,0,0:0:0:0:
104,312,122691,1,0,0:0:0:0:
80,296,122748,1,0,0:0:0:0:
72,272,122804,1,0,0:0:0:0:
56,248,122861,1,0,0:0:0:0:
56,216,122917,1,0,0:0:0:0:
56,192,122974,1,0,0:0:0:0:
56,176,123030,1,0,0:0:0:0:
96,216,123087,1,0,0:0:0:0:
112,192,123144,1,0,0:0:0:0:
128,176,123200,1,0,0:0:0:0:
152,152,123257,1,0,0:0:0:0:
160,144,123313,1,0,0:0:0:0:
192,128,123370,1,0,0:0:0:0:
208,112,123426,1,0,0:0:0:0:
224,112,123483,1,0,0:0:0:0:
240,104,123539,1,0,0:0:0:0:
264,104,123596,1,0,0:0:0:0:
288,104,123652,1,0,0:0:0:0:
304,112,123709,1,0,0:0:0:0:
336,112,123766,1,0,0:0:0:0:
360,120,123822,1,0,0:0:0:0:
376,136,123879,1,0,0:0:0:0:
376,168,123935,1,0,0:0:0:0:
384,184,123992,1,0,0:0:0:0:
376,216,124048,1,0,0:0:0:0:
384,240,124105,1,0,0:0:0:0:
384,272,124161,1,0,0:0:0:0:
368,288,124218,1,0,0:0:0:0:
344,296,124274,1,0,0:0:0:0:
312,296,124331,1,0,0:0:0:0:
280,304,124387,1,0,0:0:0:0:
256,312,124444,1,0,0:0:0:0:
224,312,124500,1,0,0:0:0:0:
208,320,124557,1,0,0:0:0:0:
192,320,124613,1,0,0:0:0:0:
168,328,124670,1,0,0:0:0:0:
136,328,124726,1,0,0:0:0:0:
112,320,124783,1,0,0:0:0:0:
104,312,124839,1,0,0:0:0:0:
80,296,124896,1,0,0:0:0:0:
72,272,124952,1,0,0:0:0:0:
56,248,125009,1,0,0:0:0:0:
56,216,125065,1,0,0:0:0:0:
56,192,125122,1,0,0:0:0:0:
56,176,125178,1,0,0:0:0:0:
96,216,125234,1,0,0:0:0:0:
112,192,125291,1,0,0:0:0:0:
128,176,125347,1,0,0:0:0:0:
152,152,125404,1,0,0:0:0:0:
160,144,125460,1,0,0:0:0:0:
192,128,125517,1,0,0:0:0:0:
208,112,125573,1,0,0:0:0:0:
224,112,125630,1,0,0:0:0:0:
240,104,125686,1,0,0:0:0:0:
264,104,125743,1,0,0:0:0:0:
288,104,125799,1,0,0:0:0:0:
304,112,125856,1,0,0:0:0:0:
336,112,125913,1,0,0:0:0:0:
360,120,125969,1,0,0:0:0:0:
376,136,126026,1,0,0:0:0:0:
376,168,126082,1,0,0:0:0:0:
384,184,126139,1,0,0:0:0:0:
376,216,126195,1,0,0:0:0:0:
384,240,126252,1,0,0:0:0:0:
384,272,126308,1,0,0:0:0:0:
368,288,126365,1,0,0:0:0:0:
344,296,126421,1,0,0:0:0:0:
312,296,126478,1,0,0:0:0:0:
280,304,126534,1,0,0:0:0:0:
256,312,126591,1,0,0:0:0:0:
224,312,126647,1,0,0:0:0:0:
208,320,126704,1,0,0:0:0:0:
192,320,126760,1,0,0:0:0:0:
168,328,126817,1,0,0:0:0:0:
136,328,126873,1,0,0:0:0:0:
112,320,126930,1,0,0:0:0:0:
104,312,126986,1,0,0:0:0:0:
80,296,127043,1,0,0:0:0:0:
72,272,127099,1,0,0:0:0:0:
56,248,127156,1,0,0:0:0:0:
56,216,127212,1,0,0:0:0:0:
56,192,127269,1,0,0:0:0:0:
56,176,127325,1,0,0:0:0:0:
96,216,127382,1,0,0:0:0:0:
112,192,127439,1,0,0:0:0:0:
128,176,127495,1,0,0:0:0:0:
152,152,127552,1,0,0:0:0:0:
160,144,127608,1,0,0:0:0:0:
192,128,127665,1,0,0:0:0:0:
208,112,127721,1,0,0:0:0:0:
224,112,127778,1,0,0:0:0:0:
240,104,127834,1,0,0:0:0:0:
264,104,127891,1,0,0:0:0:0:
288,104,127947,1,0,0:0:0:0:
304,112,128004,1,0,0:0:0:0:
336,112,128061,1,0,0:0:0:0:
360,120,128117,1,0,0:0:0:0:
376,136,128174,1,0,0:0:0:0:
376,168,128230,1,0,0:0:0:0:
384,184,128287,1,0,0:0:0:0:
376,216,128343,1,0,0:0:0:0:
384,240,128400,1,0,0:0:0:0:
384,272,128456,1,0,0:0:0:0:
368,288,128513,1,0,0:0:0:0:
344,296,128569,1,0,0:0:0:0:
312,296,128626,1,0,0:0:0:0:
280,304,128682,1,0,0:0:0:0:
256,312,128739,1,0,0:0:0:0:
224,312,128795,1,0,0:0:0:0:
208,320,128852,1,0,0:0:0:0:
192,320,128908,1,0,0:0:0:0:
168,328,128965,1,0,0:0:0:0:
136,328,129021,1,0,0:0:0:0:
112,320,129078,1,0,0:0:0:0:
104,312,129134,1,0,0:0:0:0:
80,296,129191,1,0,0:0:0:0:
72,272,129247,1,0,0:0:0:0:
56,248,129304,1,0,0:0:0:0:
56,216,129360,1,0,0:0:0:0:
56,192,129417,1,0,0:0:0:0:
56,176,129473,1,0,0:0:0:0:
96,216,129529,5,0,0:0:0:0:
112,192,129586,1,0,0:0:0:0:
128,176,129642,1,0,0:0:0:0:
152,152,129699,1,0,0:0:0:0:
160,144,129755,1,0,0:0:0:0:
192,128,129812,1,0,0:0:0:0:
208,112,129868,1,0,0:0:0:0:
224,112,129925,1,0,0:0:0:0:
240,104,129981,1,0,0:0:0:0:
264,104,130038,1,0,0:0:0:0:
288,104,130094,1,0,0:0:0:0:
304,112,130151,1,0,0:0:0:0:
336,112,130208,1,0,0:0:0:0:
360,120,130264,1,0,0:0:0:0:
376,136,130321,1,0,0:0:0:0:
376,168,130377,1,0,0:0:0:0:
384,184,130434,1,0,0:0:0:0:
376,216,130490,1,0,0:0:0:0:
384,240,130547,1,0,0:0:0:0:
384,272,130603,1,0,0:0:0:0:
368,288,130660,1,0,0:0:0:0:
344,296,130716,1,0,0:0:0:0:
312,296,130773,1,0,0:0:0:0:
280,304,130829,1,0,0:0:0:0:
256,312,130886,1,0,0:0:0:0:
224,312,130942,1,0,0:0:0:0:
208,320,130999,1,0,0:0:0:0:
192,320,131055,1,0,0:0:0:0:
168,328,131112,1,0,0:0:0:0:
136,328,131168,1,0,0:0:0:0:
112,320,131225,1,0,0:0:0:0:
104,312,131281,1,0,0:0:0:0:
80,296,131338,1,0,0:0:0:0:
72,272,131394,1,0,0:0:0:0:
56,248,131451,1,0,0:0:0:0:
56,216,131507,1,0,0:0:0:0:
56,192,131564,1,0,0:0:0:0:
56,176,131620,1,0,0:0:0:0:
96,216,131677,1,0,0:0:0:0:
112,192,131734,1,0,0:0:0:0:
128,176,131790,1,0,0:0:0:0:
152,152,131847,1,0,0:0:0:0:
160,144,131903,1,0,0:0:0:0:
192,128,131960,1,0,0:0:0:0:
208,112,132016,1,0,0:0:0:0:
224,112,132073,1,0,0:0:0:0:
240,104,132129,1,0,0:0:0:0:
264,104,132186,1,0,0:0:0:0:
288,104,132242,1,0,0:0:0:0:
304,112,132299,1,0,0:0:0:0:
336,112,132356,1,0,0:0:0:0:
360,120,132412,1,0,0:0:0:0:
376,136,132469,1,0,0:0:0:0:
376,168,132525,1,0,0:0:0:0:
384,184,132582,1,0,0:0:0:0:
376,216,132638,1,0,0:0:0:0:
384,240,132695,1,0,0:0:0:0:
384,272,132751,1,0,0:0:0:0:
368,288,132808,1,0,0:0:0:0:
344,296,132864,1,0,0:0:0:0:
312,296,132921,1,0,0:0:0:0:
280,304,132977,1,0,0:0:0:0:
256,312,133034,1,0,0:0:0:0:
224,312,133090,1,0,0:0:0:0:
208,320,133147,1,0,0:0:0:0:
192,320,133203,1,0,0:0:0:0:
168,328,133260,1,0,0:0:0:0:
136,328,133316,1,0,0:0:0:0:
112,320,133373,1,0,0:0:0:0:
104,312,133429,1,0,0:0:0:0:
80,296,133486,1,0,0:0:0:0:
72,272,133542,1,0,0:0:0:0:
56,248,133599,1,0,0:0:0:0:
56,216,133655,1,0,0:0:0:0:
56,192,133712,1,0,0:0:0:0:
56,176,133768,1,0,0:0:0:0:
96,216,133825,1,0,0:0:0:0:
112,192,133882,1,0,0:0:0:0:
128,176,133938,1,0,0:0:0:0:
152,152,133995,1,0,0:0:0:0:
160,144,134051,1,0,0:0:0:0:
192,128,134108,1,0,0:0:0:0:
208,112,134164,1,0,0:0:0:0:
224,112,134221,1,0,0:0:0:0:
240,104,134277,1,0,0:0:0:0:
264,104,134334,1,0,0:0:0:0:
288,104,134390,1,0,0:0:0:0:
304,112,134447,1,0,0:0:0:0:
336,112,134504,1,0,0:0:0:0:
360,120,134560,1,0,0:0:0:0:
376,136,134617,1,0,0:0:0:0:
376,168,134673,1,0,0:0:0:0:
384,184,134730,1,0,0:0:0:0:
376,216,134786,1,0,0:0:0:0:
384,240,134843,1,0,0:0:0:0:
384,272,134899,1,0,0:0:0:0:
368,288,134956,1,0,0:0:0:0:
344,296,135012,1,0,0:0:0:0:
312,296,135069,1,0,0:0:0:0:
280,304,135125,1,0,0:0:0:0:
256,312,135182,1,0,0:0:0:0:
224,312,135238,1,0,0:0:0:0:
208,320,135295,1,0,0:0:0:0:
192,320,135351,1,0,0:0:0:0:
168,328,135408,1,0,0:0:0:0:
136,328,135464,1,0,0:0:0:0:
112,320,135521,1,0,0:0:0:0:
104,312,135577,1,0,0:0:0:0:
80,296,135634,1,0,0:0:0:0:
72,272,135690,1,0,0:0:0:0:
56,248,135747,1,0,0:0:0:0:
56,216,135803,1,0,0:0:0:0:
56,192,135860,1,0,0:0:0:0:
56,176,135916,1,0,0:0:0:0:
96,216,135973,1,0,0:0:0:0:
112,192,136030,1,0,0:0:0:0:
128,176,136086,1,0,0:0:0:0:
152,152,136143,1,0,0:0:0:0:
160,144,136199,1,0,0:0:0:0:
192,128,136256,1,0,0:0:0:0:
208,112,136312,1,0,0:0:0:0:
224,112,136369,1,0,0:0:0:0:
240,104,136425,1,0,0:0:0:0:
264,104,136482,1,0,0:0:0:0:
288,104,136538,1,0,0:0:0:0:
304,112,136595,1,0,0:0:0:0:
336,112,136652,1,0,0:0:0:0:
360,120,136708,1,0,0:0:0:0:
376,136,136765,1,0,0:0:0:0:
376,168,136821,1,0,0:0:0:0:
384,184,136878,1,0,0:0:0:0:
376,216,136934,1,0,0:0:0:0:
384,240,136991,1,0,0:0:0:0:
384,272,137047,1,0,0:0:0:0:
368,288,137104,1,0,0:0:0:0:
344,296,137160,1,0,0:0:0:0:
312,296,137217,1,0,0:0:0:0:
280,304,137273,1,0,0:0:0:0:
256,312,137330,1,0,0:0:0:0:
224,312,137386,1,0,0:0:0:0:
208,320,137443,1,0,0:0:0:0:
192,320,137499,1,0,0:0:0:0:
168,328,137556,1,0,0:0:0:0:
136,328,137612,1,0,0:0:0:0:
112,320,137669,1,0,0:0:0:0:
104,312,137725,1,0,0:0:0:0:
80,296,137782,1,0,0:0:0:0:
72,272,137838,1,0,0:0:0:0:
56,248,137895,1,0,0:0:0:0:
56,216,137951,1,0,0:0:0:0:
56,192,138008,1,0,0:0:0:0:
56,176,138064,1,0,0:0:0:0:
96,216,138120,1,0,0:0:0:0:
112,192,138177,1,0,0:0:0:0:
128,176,138233,1,0,0:0:0:0:
152,152,138290,1,0,0:0:0:0:
160,144,138346,1,0,0:0:0:0:
192,128,138403,1,0,0:0:0:0:
208,112,138459,1,0,0:0:0:0:
224,112,138516,1,0,0:0:0:0:
240,104,138572,1,0,0:0:0:0:
264,104,138629,1,0,0:0:0:0:
288,104,138685,1,0,0:0:0:0:
304,112,138742,1,0,0:0:0:0:
336,112,138799,1,0,0:0:0:0:
360,120,138855,1,0,0:0:0:0:
376,136,138912,1,0,0:0:0:0:
376,168,138968,1,0,0:0:0:0:
384,184,139025,1,0,0:0:0:0:
376,216,139081,1,0,0:0:0:0:
384,240,139138,1,0,0:0:0:0:
384,272,139194,1,0,0:0:0:0:
368,288,139251,1,0,0:0:0:0:
344,296,139307,1,0,0:0:0:0:
312,296,139364,1,0,0:0:0:0:
280,304,139420,1,0,0:0:0:0:
256,312,139477,1,0,0:0:0:0:
224,312,139533,1,0,0:0:0:0:
208,320,139590,1,0,0:0:0:0:
192,320,139646,1,0,0:0:0:0:
168,328,139703,1,0,0:0:0:0:
136,328,139759,1,0,0:0:0:0:
112,320,139816,1,0,0:0:0:0:
104,312,139872,1,0,0:0:0:0:
80,296,139929,1,0,0:0:0:0:
72,272,139985,1,0,0:0:0:0:
56,248,140042,1,0,0:0:0:0:
56,216,140098,1,0,0:0:0:0:
56,192,140155,1,0,0:0:0:0:
56,176,140211,1,0,0:0:0:0:
96,216,140268,1,0,0:0:0:0:
112,192,140325,1,0,0:0:0:0:
128,176,140381,1,0,0:0:0:0:
152,152,140438,1,0,0:0:0:0:
160,144,140494,1,0,0:0:0:0:
192,128,140551,1,0,0:0:0:0:
208,112,140607,1,0,0:0:0:0:
224,112,140664,1,0,0:0:0:0:
240,104,140720,1,0,0:0:0:0:
264,104,140777,1,0,0:0:0:0:
288,104,140833,1,0,0:0:0:0:
304,112,140890,1,0,0:0:0:0:
336,112,140947,1,0,0:0:0:0:
360,120,141003,1,0,0:0:0:0:
376,136,141060,1,0,0:0:0:0:
376,168,141116,1,0,0:0:0:0:
384,184,141173,1,0,0:0:0:0:
376,216,141229,1,0,0:0:0:0:
384,240,141286,1,0,0:0:0:0:
384,272,141342,1,0,0:0:0:0:
368,288,141399,1,0,0:0:0:0:
344,296,141455,1,0,0:0:0:0:
312,296,141512,1,0,0:0:0:0:
280,304,141568,1,0,0:0:0:0:
256,312,141625,1,0,0:0:0:0:
224,312,141681,1,0,0:0:0:0:
208,320,141738,1,0,0:0:0:0:
192,320,141794,1,0,0:0:0:0:
168,328,141851,1,0,0:0:0:0:
136,328,141907,1,0,0:0:0:0:
112,320,141964,1,0,0:0:0:0:
104,312,142020,1,0,0:0:0:0:
80,296,142077,1,0,0:0:0:0:
72,272,142133,1,0,0:0:0:0:
56,248,142190,1,0,0:0:0:0:
56,216,142246,1,0,0:0:0:0:
56,192,142303,1,0,0:0:0:0:
56,176,142359,1,0,0:0:0:0:
96,216,142416,1,0,0:0:0:0:
112,192,142473,1,0,0:0:0:0:
128,176,142529,1,0,0:0:0:0:
152,152,142586,1,0,0:0:0:0:
160,144,142642,1,0,0:0:0:0:
192,128,142699,1,0,0:0:0:0:
208,112,142755,1,0,0:0:0:0:
224,112,142812,1,0,0:0:0:0:
240,104,142868,1,0,0:0:0:0:
264,104,142925,1,0,0:0:0:0:
288,104,142981,1,0,0:0:0:0:
304,112,143038,1,0,0:0:0:0:
336,112,143095,1,0,0:0:0:0:
360,120,143151,1,0,0:0:0:0:
376,136,143208,1,0,0:0:0:0:
376,168,143264,1,0,0:0:0:0:
384,184,143321,1,0,0:0:0:0:
376,216,143377,1,0,0:0:0:0:
384,240,143434,1,0,0:0:0:0:
384,272,143490,1,0,0:0:0:0:
368,288,143547,1,0,0:0:0:0:
344,296,143603,1,0,0:0:0:0:
312,296,143660,1,0,0:0:0:0:
280,304,143716,1,0,0:0:0:0:
256,312,143773,1,0,0:0:0:0:
224,312,143829,1,0,0:0:0:0:
208,320,143886,1,0,0:0:0:0:
192,320,143942,1,0,0:0:0:0:
168,328,143999,1,0,0:0:0:0:
136,328,144055,1,0,0:0:0:0:
112,320,144112,1,0,0:0:0:0:
104,312,144168,1,0,0:0:0:0:
80,296,144225,1,0,0:0:0:0:
72,272,144281,1,0,0:0:0:0:
56,248,144338,1,0,0:0:0:0:
56,216,144394,1,0,0:0:0:0:
56,192,144451,1,0,0:0:0:0:
56,176,144507,1,0,0:0:0:0:
96,216,144564,1,0,0:0:0:0:
112,192,144621,1,0,0:0:0:0:
128,176,144677,1,0,0:0:0:0:
152,152,144734,1,0,0:0:0:0:
160,144,144790,1,0,0:0:0:0:
192,128,144847,1,0,0:0:0:0:
208,112,144903,1,0,0:0:0:0:
224,112,144960,1,0,0:0:0:0:
240,104,145016,1,0,0:0:0:0:
264,104,145073,1,0,0:0:0:0:
288,104,145129,1,0,0:0:0:0:
304,112,145186,1,0,0:0:0:0:
336,112,145243,1,0,0:0:0:0:
360,120,145299,1,0,0:0:0:0:
376,136,145356,1,0,0:0:0:0:
376,168,145412,1,0,0:0:0:0:
384,184,145469,1,0,0:0:0:0:
376,216,145525,1,0,0:0:0:0:
384,240,145582,1,0,0:0:0:0:
384,272,145638,1,0,0:0:0:0:
368,288,145695,1,0,0:0:0:0:
344,296,145751,1,0,0:0:0:0:
312,296,145808,1,0,0:0:0:0:
280,304,145864,1,0,0:0:0:0:
256,312,145921,1,0,0:0:0:0:
224,312,145977,1,0,0:0:0:0:
208,320,146034,1,0,0:0:0:0:
192,320,146090,1,0,0:0:0:0:
168,328,146147,1,0,0:0:0:0:
136,328,146203,1,0,0:0:0:0:
112,320,146260,1,0,0:0:0:0:
104,312,146316,1,0,0:0:0:0:
80,296,146373,1,0,0:0:0:0:
72,272,146429,1,0,0:0:0:0:
56,248,146486,1,0,0:0:0:0:
56,216,146542,1,0,0:0:0:0:
56,192,146599,1,0,0:0:0:0:
56,176,146655,1,0,0:0:0:0:
96,216,146712,1,0,0:0:0:0:
112,192,146769,1,0,0:0:0:0:
128,176,146825,1,0,0:0:0:0:
152,152,146882,1,0,0:0:0:0:
160,144,146938,1,0,0:0:0:0:
192,128,146995,1,0,0:0:0:0:
208,112,147051,1,0,0:0:0:0:
224,112,147108,1,0,0:0:0:0:
240,104,147164,1,0,0:0:0:0:
264,104,147221,1,0,0:0:0:0:
288,104,147277,1,0,0:0:0:0:
304,112,147334,1,0,0:0:0:0:
336,112,147391,1,0,0:0:0:0:
360,120,147447,1,0,0:0:0:0:
376,136,147504,1,0,0:0:0:0:
376,168,147560,1,0,0:0:0:0:
384,184,147617,1,0,0:0:0:0:
376,216,147673,1,0,0:0:0:0:
384,240,147730,1,0,0:0:0:0:
384,272,147786,1,0,0:0:0:0:
368,288,147843,1,0,0:0:0:0:
344,296,147899,1,0,0:0:0:0:
312,296,147956,1,0,0:0:0:0:
280,304,148012,1,0,0:0:0:0:
256,312,148069,1,0,0:0:0:0:
224,312,148125,1,0,0:0:0:0:
208,320,148182,1,0,0:0:0:0:
192,320,148238,1,0,0:0:0:0:
168,328,148295,1,0,0:0:0:0:
136,328,148351,1,0,0:0:0:0:
112,320,148408,1,0,0:0:0:0:
104,312,148464,1,0,0:0:0:0:
80,296,148521,1,0,0:0:0:0:
72,272,148577,1,0,0:0:0:0:
56,248,148634,1,0,0:0:0:0:
56,216,148690,1,0,0:0:0:0:
56,192,148747,1,0,0:0:0:0:
56,176,148803,1,0,0:0:0:0:
96,216,148860,1,0,0:0:0:0:
112,192,148917,1,0,0:0:0:0:
128,176,148973,1,0,0:0:0:0:
152,152,149030,1,0,0:0:0:0:
160,144,149086,1,0,0:0:0:0:
192,128,149143,1,0,0:0:0:0:
208,112,149199,1,0,0:0:0:0:
224,112,149256,1,0,0:0:0:0:
240,104,149312,1,0,0:0:0:0:
264,104,149369,1,0,0:0:0:0:
288,104,149425,1,0,0:0:0:0:
304,112,149482,1,0,0:0:0:0:
336,112,149539,1,0,0:0:0:0:
360,120,149595,1,0,0:0:0:0:
376,136,149652,1,0,0:0:0:0:
376,168,149708,1,0,0:0:0:0:
384,184,149765,1,0,0:0:0:0:
376,216,149821,1,0,0:0:0:0:
384,240,149878,1,0,0:0:0:0:
384,272,149934,1,0,0:0:0:0:
368,288,149991,1,0,0:0:0:0:
344,296,150047,1,0,0:0:0:0:
312,296,150104,1,0,0:0:0:0:
280,304,150160,1,0,0:0:0:0:
256,312,150217,1,0,0:0:0:0:
224,312,150273,1,0,0:0:0:0:
208,320,150330,1,0,0:0:0:0:
192,320,150386,1,0,0:0:0:0:
168,328,150443,1,0,0:0:0:0:
136,328,150499,1,0,0:0:0:0:
112,320,150556,1,0,0:0:0:0:
104,312,150612,1,0,0:0:0:0:
80,296,150669,1,0,0:0:0:0:
72,272,150725,1,0,0:0:0:0:
56,248,150782,1,0,0:0:0:0:
56,216,150838,1,0,0:0:0:0:
56,192,150895,1,0,0:0:0:0:
56,176,150951,1,0,0:0:0:0:
96,216,151007,1,0,0:0:0:0:
112,192,151064,1,0,0:0:0:0:
128,176,151120,1,0,0:0:0:0:
152,152,151177,1,0,0:0:0:0:
160,144,151233,1,0,0:0:0:0:
192,128,151290,1,0,0:0:0:0:
208,112,151346,1,0,0:0:0:0:
224,112,151403,1,0,0:0:0:0:
240,104,151459,1,0,0:0:0:0:
264,104,151516,1,0,0:0:0:0:
288,104,151572,1,0,0:0:0:0:
304,112,151629,1,0,0:0:0:0:
336,112,151686,1,0,0:0:0:0:
360,120,151742,1,0,0:0:0:0:
376,136,151799,1,0,0:0:0:0:
376,168,151855,1,0,0:0:0:0:
384,184,151912,1,0,0:0:0:0:
376,216,151968,1,0,0:0:0:0:
384,240,152025,1,0,0:0:0:0:
384,272,152081,1,0,0:0:0:0:
368,288,152138,1,0,0:0:0:0:
344,296,152194,1,0,0:0:0:0:
312,296,152251,1,0,0:0:0:0:
280,304,152307,1,0,0:0:0:0:
256,312,152364,1,0,0:0:0:0:
224,312,152420,1,0,0:0:0:0:
208,320,152477,1,0,0:0:0:0:
192,320,152533,1,0,0:0:0:0:
168,328,152590,1,0,0:0:0:0:
136,328,152646,1,0,0:0:0:0:
112,320,152703,1,0,0:0:0:0:
104,312,152759,1,0,0:0:0:0:
80,296,152816,1,0,0:0:0:0:
72,272,152872,1,0,0:0:0:0:
56,248,152929,1,0,0:0:0:0:
56,216,152985,1,0,0:0:0:0:
56,192,153042,1,0,0:0:0:0:
56,176,153098,1,0,0:0:0:0:
96,216,153155,1,0,0:0:0:0:
112,192,153212,1,0,0:0:0:0:
128,176,153268,1,0,0:0:0:0:
152,152,153325,1,0,0:0:0:0:
160,144,153381,1,0,0:0:0:0:
192,128,153438,1,0,0:0:0:0:
208,112,153494,1,0,0:0:0:0:
224,112,153551,1,0,0:0:0:0:
240,104,153607,1,0,0:0:0:0:
264,104,153664,1,0,0:0:0:0:
288,104,153720,1,0,0:0:0:0:
304,112,153777,1,0,0:0:0:0:
336,112,153834,1,0,0:0:0:0:
360,120,153890,1,0,0:0:0:0:
376,136,153947,1,0,0:0:0:0:
376,168,154003,1,0,0:0:0:0:
384,184,154060,1,0,0:0:0:0:
376,216,154116,1,0,0:0:0:0:
384,240,154173,1,0,0:0:0:0:
384,272,154229,1,0,0:0:0:0:
368,288,154286,1,0,0:0:0:0:
344,296,154342,1,0,0:0:0:0:
312,296,154399,1,0,0:0:0:0:
280,304,154455,1,0,0:0:0:0:
256,312,154512,1,0,0:0:0:0:
224,312,154568,1,0,0:0:0:0:
208,320,154625,1,0,0:0:0:0:
192,320,154681,1,0,0:0:0:0:
168,328,154738,1,0,0:0:0:0:
136,328,154794,1,0,0:0:0:0:
112,320,154851,1,0,0:0:0:0:
104,312,154907,1,0,0:0:0:0:
80,296,154964,1,0,0:0:0:0:
72,272,155020,1,0,0:0:0:0:
56,248,155077,1,0,0:0:0:0:
56,216,155133,1,0,0:0:0:0:
56,192,155190,1,0,0:0:0:0:
56,176,155246,1,0,0:0:0:0:
96,216,155302,1,0,0:0:0:0:
112,192,155359,1,0,0:0:0:0:
128,176,155415,1,0,0:0:0:0:
152,152,155472,1,0,0:0:0:0:
160,144,155528,1,0,0:0:0:0:
192,128,155585,1,0,0:0:0:0:
208,112,155641,1,0,0:0:0:0:
224,112,155698,1,0,0:0:0:0:
240,104,155754,1,0,0:0:0:0:
264,104,155811,1,0,0:0:0:0:
288,104,155867,1,0,0:0:0:0:
304,112,155924,1,0,0:0:0:0:
336,112,155981,1,0,0:0:0:0:
360,120,156037,1,0,0:0:0:0:
376,136,156094,1,0,0:0:0:0:
376,168,156150,1,0,0:0:0:0:
384,184,156207,1,0,0:0:0:0:
376,216,156263,1,0,0:0:0:0:
384,240,156320,1,0,0:0:0:0:
384,272,156376,1,0,0:0:0:0:
368,288,156433,1,0,0:0:0:0:
344,296,156489,1,0,0:0:0:0:
312,296,156546,1,0,0:0:0:0:
280,304,156602,1,0,0:0:0:0:
256,312,156659,1,0,0:0:0:0:
224,312,156715,1,0,0:0:0:0:
208,320,156772,1,0,0:0:0:0:
192,320,156828,1,0,0:0:0:0:
168,328,156885,1,0,0:0:0:0:
136,328,156941,1,0,0:0:0:0:
112,320,156998,1,0,0:0:0:0:
104,312,157054,1,0,0:0:0:0:
80,296,157111,1,0,0:0:0:0:
72,272,157167,1,0,0:0:0:0:
56,248,157224,1,0,0:0:0:0:
56,216,157280,1,0,0:0:0:0:
56,192,157337,1,0,0:0:0:0:
56,176,157393,1,0,0:0:0:0:
96,216,157450,1,0,0:0:0:0:
112,192,157507,1,0,0:0:0:0:
128,176,157563,1,0,0:0:0:0:
152,152,157620,1,0,0:0:0:0:
160,144,157676,1,0,0:0:0:0:
192,128,157733,1,0,0:0:0:0:
208,112,157789,1,0,0:0:0:0:
224,112,157846,1,0,0:0:0:0:
240,104,157902,1,0,0:0:0:0:
264,104,157959,1,0,0:0:0:0:
288,104,158015,1,0,0:0:0:0:
304,112,158072,1,0,0:0:0:0:
336,112,158129,1,0,0:0:0:0:
360,120,158185,1,0,0:0:0:0:
376,136,158242,1,0,0:0:0:0:
376,168,158298,1,0,0:0:0:0:
384,184,158355,1,0,0:0:0:0:
376,216,158411,1,0,0:0:0:0:
384,240,158468,1,0,0:0:0:0:
384,272,158524,1,0,0:0:0:0:
368,288,158581,1,0,0:0:0:0:
344,296,158637,1,0,0:0:0:0:
312,296,158694,1,0,0:0:0:0:
280,304,158750,1,0,0:0:0:0:
256,312,158807,1,0,0:0:0:0:
224,312,158863,1,0,0:0:0:0:
208,320,158920,1,0,0:0:0:0:
192,320,158976,1,0,0:0:0:0:
168,328,159033,1,0,0:0:0:0:
136,328,159089,1,0,0:0:0:0:
112,320,159146,1,0,0:0:0:0:
104,312,159202,1,0,0:0:0:0:
80,296,159259,1,0,0:0:0:0:
72,272,159315,1,0,0:0:0:0:
56,248,159372,1,0,0:0:0:0:
56,216,159428,1,0,0:0:0:0:
56,192,159485,1,0,0:0:0:0:
56,176,159541,1,0,0:0:0:0:
96,216,159598,1,0,0:0:0:0:
112,192,159655,1,0,0:0:0:0:
128,176,159711,1,0,0:0:0:0:
152,152,159768,1,0,0:0:0:0:
160,144,159824,1,0,0:0:0:0:
192,128,159881,1,0,0:0:0:0:
208,112,159937,1,0,0:0:0:0:
224,112,159994,1,0,0:0:0:0:
240,104,160050,1,0,0:0:0:0:
264,104,160107,1,0,0:0:0:0:
288,104,160163,1,0,0:0:0:0:
304,112,160220,1,0,0:0:0:0:
336,112,160277,1,0,0:0:0:0:
360,120,160333,1,0,0:0:0:0:
376,136,160390,1,0,0:0:0:0:
376,168,160446,1,0,0:0:0:0:
384,184,160503,1,0,0:0:0:0:
376,216,160559,1,0,0:0:0:0:
384,240,160616,1,0,0:0:0:0:
384,272,160672,1,0,0:0:0:0:
368,288,160729,1,0,0:0:0:0:
344,296,160785,1,0,0:0:0:0:
312,296,160842,1,0,0:0:0:0:
280,304,160898,1,0,0:0:0:0:
256,312,160955,1,0,0:0:0:0:
224,312,161011,1,0,0:0:0:0:
208,320,161068,1,0,0:0:0:0:
192,320,161124,1,0,0:0:0:0:
168,328,161181,1,0,0:0:0:0:
136,328,161237,1,0,0:0:0:0:
112,320,161294,1,0,0:0:0:0:
104,312,161350,1,0,0:0:0:0:
80,296,161407,1,0,0:0:0:0:
72,272,161463,1,0,0:0:0:0:
56,248,161520,1,0,0:0:0:0:
56,216,161576,1,0,0:0:0:0:
56,192,161633,1,0,0:0:0:0:
56,176,161689,1,0,0:0:0:0:
96,216,161746,1,0,0:0:0:0:
112,192,161803,1,0,0:0:0:0:
128,176,161859,1,0,0:0:0:0:
152,152,161916,1,0,0:0:0:0:
160,144,161972,1,0,0:0:0:0:
192,128,162029,1,0,0:0:0:0:
208,112,162085,1,0,0:0:0:0:
224,112,162142,1,0,0:0:0:0:
240,104,162198,1,0,0:0:0:0:
264,104,162255,1,0,0:0:0:0:
288,104,162311,1,0,0:0:0:0:
304,112,162368,1,0,0:0:0:0:
336,112,162425,1,0,0:0:0:0:
360,120,162481,1,0,0:0:0:0:
376,136,162538,1,0,0:0:0:0:
376,168,162594,1,0,0:0:0:0:
384,184,162651,1,0,0:0:0:0:
376,216,162707,1,0,0:0:0:0:
384,240,162764,1,0,0:0:0:0:
384,272,162820,1,0,0:0:0:0:
368,288,162877,1,0,0:0:0:0:
344,296,162933,1,0,0:0:0:0:
312,296,162990,1,0,0:0:0:0:
280,304,163046,1,0,0:0:0:0:
256,312,163103,1,0,0:0:0:0:
224,312,163159,1,0,0:0:0:0:
208,320,163216,1,0,0:0:0:0:
192,320,163272,1,0,0:0:0:0:
168,328,163329,1,0,0:0:0:0:
136,328,163385,1,0,0:0:0:0:
112,320,163442,1,0,0:0:0:0:
104,312,163498,1,0,0:0:0:0:
80,296,163555,1,0,0:0:0:0:
72,272,163611,1,0,0:0:0:0:
56,248,163668,1,0,0:0:0:0:
56,216,163724,1,0,0:0:0:0:
56,192,163781,1,0,0:0:0:0:
56,176,163837,1,0,0:0:0:0:
96,216,163893,1,0,0:0:0:0:
112,192,163950,1,0,0:0:0:0:
128,176,164006,1,0,0:0:0:0:
152,152,164063,1,0,0:0:0:0:
160,144,164119,1,0,0:0:0:0:
192,128,164176,1,0,0:0:0:0:
208,112,164232,1,0,0:0:0:0:
224,112,164289,1,0,0:0:0:0:
240,104,164345,1,0,0:0:0:0:
264,104,164402,1,0,0:0:0:0:
288,104,164458,1,0,0:0:0:0:
304,112,164515,1,0,0:0:0:0:
336,112,164572,1,0,0:0:0:0:
360,120,164628,1,0,0:0:0:0:
376,136,164685,1,0,0:0:0:0:
376,168,164741,1,0,0:0:0:0:
384,184,164798,1,0,0:0:0:0:
376,216,164854,1,0,0:0:0:0:
384,240,164911,1,0,0:0:0:0:
384,272,164967,1,0,0:0:0:0:
368,288,165024,1,0,0:0:0:0:
344,296,165080,1,0,0:0:0:0:
312,296,165137,1,0,0:0:0:0:
280,304,165193,1,0,0:0:0:0:
256,312,165250,1,0,0:0:0:0:
224,312,165306,1,0,0:0:0:0:
208,320,165363,1,0,0:0:0:0:
192,320,165419,1,0,0:0:0:0:
168,328,165476,1,0,0:0:0:0:
136,328,165532,1,0,0:0:0:0:
112,320,165589,1,0,0:0:0:0:
104,312,165645,1,0,0:0:0:0:
80,296,165702,1,0,0:0:0:0:
72,272,165758,1,0,0:0:0:0:
56,248,165815,1,0,0:0:0:0:
56,216,165871,1,0,0:0:0:0:
56,192,165928,1,0,0:0:0:0:
56,176,165984,1,0,0:0:0:0:
96,216,166041,1,0,0:0:0:0:
112,192,166098,1,0,0:0:0:0:
128,176,166154,1,0,0:0:0:0:
152,152,166211,1,0,0:0:0:0:
160,144,166267,1,0,0:0:0:0:
192,128,166324,1,0,0:0:0:0:
208,112,166380,1,0,0:0:0:0:
224,112,166437,1,0,0:0:0:0:
240,104,166493,1,0,0:0:0:0:
264,104,166550,1,0,0:0:0:0:
288,104,166606,1,0,0:0:0:0:
304,112,166663,1,0,0:0:0:0:
336,112,166720,1,0,0:0:0:0:
360,120,166776,1,0,0:0:0:0:
376,136,166833,1,0,0:0:0:0:
376,168,166889,1,0,0:0:0:0:
384,184,166946,1,0,0:0:0:0:
376,216,167002,1,0,0:0:0:0:
384,240,167059,1,0,0:0:0:0:
384,272,167115,1,0,0:0:0:0:
368,288,167172,1,0,0:0:0:0:
344,296,167228,1,0,0:0:0:0:
312,296,167285,1,0,0:0:0:0:
280,304,167341,1,0,0:0:0:0:
256,312,167398,1,0,0:0:0:0:
224,312,167454,1,0,0:0:0:0:
208,320,167511,1,0,0:0:0:0:
192,320,167567,1,0,0:0:0:0:
168,328,167624,1,0,0:0:0:0:
136,328,167680,1,0,0:0:0:0:
112,320,167737,1,0,0:0:0:0:
104,312,167793,1,0,0:0:0:0:
80,296,167850,1,0,0:0:0:0:
72,272,167906,1,0,0:0:0:0:
56,248,167963,1,0,0:0:0:0:
56,216,168019,1,0,0:0:0:0:
56,192,168076,1,0,0:0:0:0:
56,176,168132,1,0,0:0:0:0:
96,216,168189,1,0,0:0:0:0:
112,192,168246,1,0,0:0:0:0:
128,176,168302,1,0,0:0:0:0:
152,152,168359,1,0,0:0:0:0:
160,144,168415,1,0,0:0:0:0:
192,128,168472,1,0,0:0:0:0:
208,112,168528,1,0,0:0:0:0:
224,112,168585,1,0,0:0:0:0:
240,104,168641,1,0,0:0:0:0:
264,104,168698,1,0,0:0:0:0:
288,104,168754,1,0,0:0:0:0:
304,112,168811,1,0,0:0:0:0:
336,112,168868,1,0,0:0:0:0:
360,120,168924,1,0,0:0:0:0:
376,136,168981,1,0,0:0:0:0:
376,168,169037,1,0,0:0:0:0:
384,184,169094,1,0,0:0:0:0:
376,216,169150,1,0,0:0:0:0:
384,240,169207,1,0,0:0:0:0:
384,272,169263,1,0,0:0:0:0:
368,288,169320,1,0,0:0:0:0:
344,296,169376,1,0,0:0:0:0:
312,296,169433,1,0,0:0:0:0:
280,304,169489,1,0,0:0:0:0:
256,312,169546,1,0,0:0:0:0:
224,312,169602,1,0,0:0:0:0:
208,320,169659,1,0,0:0:0:0:
192,320,169715,1,0,0:0:0:0:
168,328,169772,1,0,0:0:0:0:
136,328,169828,1,0,0:0:0:0:
112,320,169885,1,0,0:0:0:0:
104,312,169941,1,0,0:0:0:0:
80,296,169998,1,0,0:0:0:0:
72,272,170054,1,0,0:0:0:0:
56,248,170111,1,0,0:0:0:0:
56,216,170167,1,0,0:0:0:0:
56,192,170224,1,0,0:0:0:0:
56,176,170280,1,0,0:0:0:0:
96,216,170337,1,0,0:0:0:0:
112,192,170394,1,0,0:0:0:0:
128,176,170450,1,0,0:0:0:0:
152,152,170507,1,0,0:0:0:0:
160,144,170563,1,0,0:0:0:0:
192,128,170620,1,0,0:0:0:0:
208,112,170676,1,0,0:0:0:0:
224,112,170733,1,0,0:0:0:0:
240,104,170789,1,0,0:0:0:0:
264,104,170846,1,0,0:0:0:0:
288,104,170902,1,0,0:0:0:0:
304,112,170959,1,0,0:0:0:0:
336,112,171016,1,0,0:0:0:0:
136,328,171183,5,0,0:0:0:0:
112,320,171240,1,0,0:0:0:0:
104,312,171296,1,0,0:0:0:0:
80,296,171353,1,0,0:0:0:0:
72,272,171409,1,0,0:0:0:0:
56,248,171466,1,0,0:0:0:0:
56,216,171522,1,0,0:0:0:0:
56,192,171579,1,0,0:0:0:0:
56,176,171635,1,0,0:0:0:0:
96,216,171692,1,0,0:0:0:0:
112,192,171749,1,0,0:0:0:0:
128,176,171805,1,0,0:0:0:0:
152,152,171862,1,0,0:0:0:0:
160,144,171918,1,0,0:0:0:0:
192,128,171975,1,0,0:0:0:0:
208,112,172031,1,0,0:0:0:0:
224,112,172088,1,0,0:0:0:0:
240,104,172144,1,0,0:0:0:0:
264,104,172201,1,0,0:0:0:0:
288,104,172257,1,0,0:0:0:0:
304,112,172314,1,0,0:0:0:0:
336,112,172371,5,0,0:0:0:0:
360,120,172427,1,0,0:0:0:0:
376,136,172484,1,0,0:0:0:0:
376,168,172540,1,0,0:0:0:0:
384,184,172597,1,0,0:0:0:0:
376,216,172653,1,0,0:0:0:0:
384,240,172710,1,0,0:0:0:0:
384,272,172766,1,0,0:0:0:0:
368,288,172823,1,0,0:0:0:0:
344,296,172879,1,0,0:0:0:0:
312,296,172936,1,0,0:0:0:0:
280,304,172992,1,0,0:0:0:0:
256,312,173049,1,0,0:0:0:0:
224,312,173105,1,0,0:0:0:0:
208,320,173162,1,0,0:0:0:0:
192,320,173218,1,0,0:0:0:0:
168,328,173275,1,0,0:0:0:0:
136,328,173331,1,0,0:0:0:0:
112,320,173388,1,0,0:0:0:0:
104,312,173444,1,0,0:0:0:0:
80,296,173501,1,0,0:0:0:0:
72,272,173557,1,0,0:0:0:0:
56,248,173614,1,0,0:0:0:0:
56,216,173670,1,0,0:0:0:0:
56,192,173727,1,0,0:0:0:0:
56,176,173783,1,0,0:0:0:0:
96,216,173840,1,0,0:0:0:0:
112,192,173897,1,0,0:0:0:0:
128,176,173953,1,0,0:0:0:0:
152,152,174010,1,0,0:0:0:0:
160,144,174066,1,0,0:0:0:0:
192,128,174123,1,0,0:0:0:0:
208,112,174179,1,0,0:0:0:0:
224,112,174236,1,0,0:0:0:0:
240,104,174292,1,0,0:0:0:0:
264,104,174349,1,0,0:0:0:0:
288,104,174405,1,0,0:0:0:0:
304,112,174462,1,0,0:0:0:0:
336,112,174519,1,0,0:0:0:0:
376,216,174575,1,0,0:0:0:0:
384,240,174632,1,0,0:0:0:0:
384,272,174688,1,0,0:0:0:0:
368,288,174745,1,0,0:0:0:0:
344,296,174801,1,0,0:0:0:0:
312,296,174858,1,0,0:0:0:0:
280,304,174914,1,0,0:0:0:0:
256,312,174971,1,0,0:0:0:0:
224,312,175027,1,0,0:0:0:0:
208,320,175084,1,0,0:0:0:0:
192,320,175140,1,0,0:0:0:0:
168,328,175197,1,0,0:0:0:0:
136,328,175253,1,0,0:0:0:0:
112,320,175310,1,0,0:0:0:0:
104,312,175366,1,0,0:0:0:0:
80,296,175423,1,0,0:0:0:0:
72,272,175479,1,0,0:0:0:0:
56,248,175536,1,0,0:0:0:0:
56,216,175592,1,0,0:0:0:0:
56,192,175649,1,0,0:0:0:0:
56,176,175705,1,0,0:0:0:0:
96,216,175762,1,0,0:0:0:0:
112,192,175819,1,0,0:0:0:0:
128,176,175875,1,0,0:0:0:0:
152,152,175932,1,0,0:0:0:0:
160,144,175988,1,0,0:0:0:0:
192,128,176045,1,0,0:0:0:0:
208,112,176101,1,0,0:0:0:0:
224,112,176158,1,0,0:0:0:0:
240,104,176214,1,0,0:0:0:0:
264,104,176271,1,0,0:0:0:0:
288,104,176327,1,0,0:0:0:0:
304,112,176384,1,0,0:0:0:0:
336,112,176441,1,0,0:0:0:0:
224,312,176497,1,0,0:0:0:0:
192,320,176610,1,0,0:0:0:0:
136,328,176723,1,0,0:0:0:0:
104,312,176836,1,0,0:0:0:0:
72,272,176949,1,0,0:0:0:0:
56,216,177062,1,0,0:0:0:0:
56,176,177175,1,0,0:0:0:0:
128,176,177345,1,0,0:0:0:0:
160,144,177458,1,0,0:0:0:0:
208,112,177571,1,0,0:0:0:0:
240,104,177684,1,0,0:0:0:0:
288,104,177797,1,0,0:0:0:0:
224,312,177910,1,0,0:0:0:0:
208,320,177967,1,0,0:0:0:0:
192,320,178023,1,0,0:0:0:0:
168,328,178080,1,0,0:0:0:0:
136,328,178136,1,0,0:0:0:0:
112,320,178193,1,0,0:0:0:0:
104,312,178249,1,0,0:0:0:0:
80,296,178306,1,0,0:0:0:0:
72,272,178362,1,0,0:0:0:0:
56,248,178419,1,0,0:0:0:0:
56,216,178475,1,0,0:0:0:0:
56,192,178532,1,0,0:0:0:0:
56,176,178588,1,0,0:0:0:0:
96,216,178645,1,0,0:0:0:0:
112,192,178702,1,0,0:0:0:0:
128,176,178758,1,0,0:0:0:0:
152,152,178815,1,0,0:0:0:0:
160,144,178871,1,0,0:0:0:0:
192,128,178928,1,0,0:0:0:0:
208,112,178984,1,0,0:0:0:0:
224,112,179041,1,0,0:0:0:0:
240,104,179097,1,0,0:0:0:0:
264,104,179154,1,0,0:0:0:0:
288,104,179210,1,0,0:0:0:0:
304,112,179267,1,0,0:0:0:0:
336,112,179324,1,0,0:0:0:0:
320,56,179493,6,0,B|320:216|320:360|336:360,1,297.5
64,80,179493,6,0,B|168:232|232:344|240:352,1,315
320,56,179493,2,0,B|456:64|520:128|544:232|528:296|496:352|440:360|392:360|320:360,1,542.5
224,72,179493,2,0,B|152:208|64:344|56:344,1,315
