osu file format v14

[General]
AudioFilename: audio.mp3
AudioLeadIn: 0
PreviewTime: -1
Countdown: 1
SampleSet: Soft
StackLeniency: 0.7
Mode: 0
LetterboxInBreaks: 0
WidescreenStoryboard: 0

[Editor]
DistanceSpacing: 1.2
BeatDivisor: 8
GridSize: 8
TimelineZoom: 3.000001

[Metadata]
Title:Oh Yeah
TitleUnicode:Oh Yeah
Artist:Yello
ArtistUnicode:Yello
Creator:theapplemaniac
Version:Normal
Source:
Tags:
BeatmapID:1486928
BeatmapSetID:702746

[Difficulty]
HPDrainRate:5
CircleSize:5
OverallDifficulty:6
ApproachRate:6
SliderMultiplier:1.4
SliderTickRate:1

[Events]
//Background and Video events
0,0,"maxresdefault (2).jpg",0,0
//Break Periods
2,55575,57490
2,63036,64725
2,106217,108132
2,110060,111749
2,113678,115367
2,129503,133453
//Storyboard Layer 0 (Background)
//Storyboard Layer 1 (Fail)
//Storyboard Layer 2 (Pass)
//Storyboard Layer 3 (Foreground)
//Storyboard Sound Samples

[TimingPoints]
664.768006995839,452.157791225416,4,2,0,32,1,0

[Colours]
Combo1 : 26,116,242
Combo2 : 65,179,207
Combo3 : 0,255,0
Combo4 : 255,128,0
Combo5 : 226,45,124

[HitObjects]
163,76,5186,6,0,P|160:256|176:264,1,227.5
253,270,6090,2,0,P|289:79|276:76,1,280
146,113,7447,1,0,0:0:0:0:
185,303,7899,1,0,0:0:0:0:
339,286,8351,1,0,0:0:0:0:
163,76,8803,6,0,P|176:264|194:269,1,245
253,270,9707,2,0,P|289:79|276:76,1,280
309,84,11064,1,0,0:0:0:0:
309,84,11516,1,0,0:0:0:0:
309,84,11968,1,0,0:0:0:0:
284,84,12420,6,0,B|524:172|296:248|296:248,1,245
191,257,13325,2,0,B|140:122|246:78|246:78,1,280
374,71,14681,1,0,0:0:0:0:
390,258,15133,1,0,0:0:0:0:
126,246,15585,1,0,0:0:0:0:
122,122,16038,1,0,0:0:0:0:
232,53,16490,1,0,0:0:0:0:
245,51,16942,1,0,0:0:0:0:
273,57,17394,1,0,0:0:0:0:
301,82,17846,1,0,0:0:0:0:
336,122,18298,1,0,0:0:0:0:
344,160,18525,1,0,0:0:0:0:
336,200,18751,1,0,0:0:0:0:
197,280,19655,6,0,B|146:156|151:168,2,116.666666666667
197,280,20559,1,0,0:0:0:0:
314,259,21011,1,0,0:0:0:0:
313,150,21464,1,0,0:0:0:0:
151,127,21916,1,0,0:0:0:0:
295,122,22368,1,0,0:0:0:0:
292,242,22820,1,0,0:0:0:0:
140,165,23272,6,0,B|393:47|465:88|350:281|350:280,1,420
169,188,25081,1,0,0:0:0:0:
338,104,25533,1,0,0:0:0:0:
399,249,25985,1,0,0:0:0:0:
193,248,26437,1,0,0:0:0:0:
115,212,26889,6,0,P|176:120|192:112,1,105
313,109,27285,2,0,B|340:179|340:185|340:185,2,70
157,259,28246,1,0,0:0:0:0:
208,135,28698,1,0,0:0:0:0:
366,115,29150,1,0,0:0:0:0:
339,195,29602,6,0,P|353:233|368:272,1,70
272,300,30055,2,0,B|240:232|240:224|240:224,1,70
256,104,30507,1,0,0:0:0:0:
336,104,30733,1,0,0:0:0:0:
336,176,30959,1,0,0:0:0:0:
256,176,31185,1,0,0:0:0:0:
256,96,31411,1,0,0:0:0:0:
320,96,31637,1,0,0:0:0:0:
320,168,31863,1,0,0:0:0:0:
256,168,32089,1,0,0:0:0:0:
256,120,32315,1,0,0:0:0:0:
312,120,32541,1,0,0:0:0:0:
312,184,32767,1,0,0:0:0:0:
248,184,32993,1,0,0:0:0:0:
312,288,33220,6,0,P|232:280|232:280,1,70
168,272,33672,2,0,P|96:232|96:232,1,70
96,176,34124,2,0,P|136:112|136:112,1,70
152,88,34576,2,0,P|224:64|224:64,1,70
296,64,35028,2,0,B|368:88|368:88|392:96,1,87.5
392,160,35480,1,0,0:0:0:0:
376,232,35706,1,0,0:0:0:0:
264,256,35933,1,0,0:0:0:0:
160,248,36159,2,0,L|136:288,2,35
112,176,36611,1,0,0:0:0:0:
96,80,36837,6,0,B|160:56|168:56|168:56,1,70
240,72,37289,2,0,B|304:72|320:80|320:80,1,70
328,88,38872,2,0,B|320:128|320:128|328:128,1,35
392,96,39098,2,0,P|376:136|376:136,1,35
200,256,40002,5,0,0:0:0:0:
128,208,40454,2,0,B|160:160|176:152|176:152|176:152,1,70
192,136,40906,2,0,B|256:120|264:120|264:120|264:120,1,70
360,112,41358,1,0,0:0:0:0:
408,160,41585,1,0,0:0:0:0:
384,224,41811,1,8,0:0:0:0:
336,280,42037,1,0,0:0:0:0:
240,304,42263,2,0,B|240:264|240:280|240:288,2,35
152,296,42715,1,8,0:0:0:0:
120,224,42941,1,0,0:0:0:0:
136,128,43167,1,0,0:0:0:0:
224,72,43393,1,0,0:0:0:0:
272,64,43506,1,0,0:0:0:0:
344,48,43732,1,8,0:0:0:0:
384,104,44071,6,0,B|392:152|376:168|376:168,1,70
320,216,44524,2,0,B|320:256|352:256|352:256,1,70
432,256,44976,1,0,0:0:0:0:
408,320,45202,2,0,B|328:328|328:328|328:328,1,70
240,320,45654,1,0,0:0:0:0:
240,320,45767,1,0,0:0:0:0:
144,288,46106,1,0,0:0:0:0:
112,256,46332,1,0,0:0:0:0:
112,216,46558,1,0,0:0:0:0:
112,168,46784,1,0,0:0:0:0:
136,112,47010,1,0,0:0:0:0:
216,80,47237,2,0,B|288:72|296:72|296:72,1,70
320,96,47689,6,0,B|320:176|360:208|376:168|312:144|216:168|216:168,1,210
160,192,48593,2,0,B|128:216|128:216|128:216,2,35
216,232,49045,2,0,B|184:256|184:256|184:256,2,35
280,256,49497,2,0,B|264:272|264:272|264:296,2,35
352,232,49949,2,0,P|376:272|376:272,2,35
360,160,50402,2,0,P|432:160|432:160,3,70
248,160,51306,5,8,0:0:0:0:
248,160,51419,1,8,0:0:0:0:
248,160,51532,1,8,0:0:0:0:
144,152,51758,1,8,0:0:0:0:
144,152,51871,1,8,0:0:0:0:
144,152,51984,1,8,0:0:0:0:
128,80,52210,1,0,0:0:0:0:
216,64,52436,1,0,0:0:0:0:
280,56,52662,1,0,0:0:0:0:
336,72,52888,2,0,P|312:104|312:104,2,35
376,104,53341,1,0,0:0:0:0:
400,152,53567,1,0,0:0:0:0:
416,208,53793,1,0,0:0:0:0:
352,256,54019,1,0,0:0:0:0:
288,264,54245,1,0,0:0:0:0:
232,264,54471,1,0,0:0:0:0:
136,240,54697,2,0,P|160:200|160:200,6,35
208,104,58540,5,0,0:0:0:0:
264,96,58993,1,0,0:0:0:0:
328,112,59445,1,0,0:0:0:0:
352,192,59897,1,0,0:0:0:0:
280,256,60349,2,0,B|344:288|344:288|336:280,2,70
280,336,61027,2,0,B|216:296|216:296|216:296,1,70
152,296,61479,2,0,P|80:312|80:312,2,70
160,144,62158,2,0,P|80:168|80:168,1,70
160,144,62610,2,0,B|232:112|232:112|232:112,1,70
256,192,65775,12,0,69166,0:0:0:0:
128,176,69392,5,0,0:0:0:0:
168,72,69618,1,0,0:0:0:0:
224,184,69844,1,0,0:0:0:0:
104,112,70070,1,0,0:0:0:0:
232,112,70297,1,0,0:0:0:0:
136,184,70523,2,0,B|80:232|80:232|80:232,2,70
192,208,71201,2,0,B|320:272|320:272|320:280|320:280|320:280|320:280,1,140
400,256,71879,2,0,B|376:168|376:168|360:120,2,140
392,264,73010,6,0,L|400:304,2,35
336,280,73462,2,0,L|344:320,2,35
272,288,73914,2,0,L|280:328,2,35
208,296,74366,2,0,L|216:336,2,35
144,248,74818,1,0,0:0:0:0:
112,160,75044,2,0,B|64:176|64:176|64:176,1,35
56,120,75270,2,0,B|96:104|96:104|104:104,1,35
192,80,75722,1,0,0:0:0:0:
288,80,75949,2,0,B|280:120|280:120|280:120,1,35
384,96,76175,1,0,0:0:0:0:
432,168,76401,1,0,0:0:0:0:
424,248,76627,6,0,P|352:240|352:240,1,70
320,240,77079,2,0,B|248:280|248:280|248:280,1,70
184,280,77531,2,0,B|64:192|80:144|80:144,1,210
160,72,78435,1,0,0:0:0:0:
248,56,78661,2,0,P|256:96|256:96,3,35
336,48,79340,1,0,0:0:0:0:
400,80,79566,1,0,0:0:0:0:
424,128,79792,1,0,0:0:0:0:
424,184,80018,1,0,0:0:0:0:
328,240,80244,5,0,0:0:0:0:
328,240,80357,1,0,0:0:0:0:
328,240,80470,1,0,0:0:0:0:
216,248,80696,1,0,0:0:0:0:
216,248,80809,1,0,0:0:0:0:
216,248,80922,1,0,0:0:0:0:
112,256,81148,1,0,0:0:0:0:
112,256,81261,1,0,0:0:0:0:
112,256,81374,1,0,0:0:0:0:
104,168,81601,1,0,0:0:0:0:
104,168,81714,1,0,0:0:0:0:
104,168,81827,1,0,0:0:0:0:
248,168,82053,1,0,0:0:0:0:
288,56,82279,1,0,0:0:0:0:
336,160,82505,1,0,0:0:0:0:
240,104,82731,1,0,0:0:0:0:
344,104,82957,1,0,0:0:0:0:
288,176,83183,1,0,0:0:0:0:
240,208,83409,2,0,B|240:288|240:288|240:288,1,70
248,304,83861,6,0,P|168:304|168:304,1,70
248,304,84313,1,0,0:0:0:0:
248,304,84426,2,0,B|416:264|416:72|416:72|408:64,1,315
344,64,85670,2,0,B|376:200|272:256|56:328|32:152,1,490
48,80,87479,6,0,B|80:104|80:104|120:104,1,70
110,104,87818,1,0,0:0:0:0:
110,104,87931,2,0,B|136:136|184:127|184:127,1,70
200,128,88383,1,0,0:0:0:0:
240,120,88609,1,0,0:0:0:0:
272,96,88835,2,0,P|328:80|352:80,1,70
339,79,89174,1,0,0:0:0:0:
360,88,89287,2,0,P|392:120|384:152,1,70
368,184,89739,1,0,0:0:0:0:
352,216,89965,1,0,0:0:0:0:
328,256,90192,1,0,0:0:0:0:
272,272,90418,1,0,0:0:0:0:
272,272,90644,2,0,P|232:288|192:280,1,70
160,264,91096,5,0,0:0:0:0:
88,160,91322,1,0,0:0:0:0:
232,160,91548,1,0,0:0:0:0:
96,224,91774,1,0,0:0:0:0:
224,224,92000,1,0,0:0:0:0:
160,144,92226,2,0,P|192:104|224:96,1,70
208,97,92565,1,0,0:0:0:0:
240,88,92678,2,0,P|280:72|304:88,1,70
328,96,93357,1,0,0:0:0:0:
400,136,93583,1,0,0:0:0:0:
432,168,93809,2,0,P|472:192|464:208,1,70
464,224,94148,1,0,0:0:0:0:
432,256,94261,2,0,P|400:280|368:264,1,70
288,264,94713,6,0,P|144:296|120:184,1,280
40,128,96070,1,0,0:0:0:0:
144,136,96522,1,0,0:0:0:0:
248,152,96974,1,0,0:0:0:0:
304,192,97426,2,0,P|328:176|344:168,6,35
288,256,98330,5,0,0:0:0:0:
208,264,98783,1,0,0:0:0:0:
144,248,99235,2,0,P|104:216|112:192,1,70
160,152,99687,2,0,P|200:152|208:176,1,70
304,152,100139,2,0,P|384:152|384:184,1,122.5
256,192,100591,12,0,101948,0:0:0:0:
320,176,102400,6,0,P|328:224|304:240,1,70
168,232,102852,2,0,P|128:208|136:184,1,70
184,128,103304,2,0,P|248:96|248:96,1,70
336,80,103756,2,0,P|368:80|384:80,1,35
400,96,103982,1,0,0:0:0:0:
448,144,104095,1,0,0:0:0:0:
440,192,104208,1,0,0:0:0:0:
416,232,104321,1,0,0:0:0:0:
400,272,104434,1,0,0:0:0:0:
384,296,104548,1,0,0:0:0:0:
336,304,104661,1,0,0:0:0:0:
264,320,105113,2,0,B|192:312|144:280|128:272,2,140
216,256,109182,6,0,B|168:192|176:184|176:184,1,70
280,128,109634,2,0,P|336:176|344:184,1,70
184,192,112799,6,0,B|184:168|184:184|184:152,2,35
344,192,113252,2,0,B|344:168|344:184|344:152,2,35
192,128,116417,5,0,0:0:0:0:
368,256,116643,1,0,0:0:0:0:
344,128,116869,1,0,0:0:0:0:
192,264,117095,1,0,0:0:0:0:
296,232,118451,2,0,B|288:208|296:192|304:192,3,35
256,192,120034,12,0,123199,0:0:0:0:
256,192,123651,12,0,126364,0:0:0:0:
224,88,126816,6,0,P|304:80|328:136,1,140
328,224,127381,2,0,P|200:360|32:280,1,385
144,152,128851,5,0,0:0:0:0:
240,80,129077,1,0,0:0:0:0:
240,232,129303,1,0,0:0:0:0:
200,104,134503,6,0,B|168:144|168:168|176:176,1,70
160,232,134955,2,0,B|176:272|200:280|216:280,1,70
232,272,136538,2,0,P|264:256|264:256,3,35
192,120,137668,2,0,B|160:160|176:176|176:192,1,70
208,240,138120,2,0,B|248:256|280:240|288:248,1,70
336,224,138572,2,0,P|360:192|352:160,1,70
304,112,139025,1,0,0:0:0:0:
232,80,139251,1,0,0:0:0:0:
128,80,139477,1,0,0:0:0:0:
72,160,139703,1,0,0:0:0:0:
104,272,139929,2,0,B|136:248|136:248|136:248|136:240,2,35
176,312,140381,2,0,B|208:288|208:288|208:288|208:280,2,35
272,312,140833,2,0,B|304:288|304:288|304:288|304:280,2,35
416,232,141285,2,0,B|416:192|392:176|384:176,1,70
344,160,141737,5,0,0:0:0:0:
296,160,141964,1,0,0:0:0:0:
240,160,142190,1,0,0:0:0:0:
192,160,142416,1,0,0:0:0:0:
96,168,142642,2,0,L|96:128,2,35
168,168,143094,2,0,L|168:128,2,35
232,168,143546,2,0,L|232:128,2,35
296,168,143998,2,0,L|296:128,2,35
384,168,144450,1,0,0:0:0:0:
384,168,144677,1,0,0:0:0:0:
384,168,144903,1,0,0:0:0:0:
384,168,145129,1,0,0:0:0:0:
384,168,145355,6,0,P|416:192|416:224,1,70
392,248,145807,2,0,P|360:272|320:264,1,70
288,272,146259,2,0,P|248:280|216:280,3,70
144,264,147163,2,0,P|104:192|120:136,1,140
152,128,147842,1,0,0:0:0:0:
184,96,148068,1,0,0:0:0:0:
224,72,148294,1,0,0:0:0:0:
264,80,148520,1,0,0:0:0:0:
304,104,148746,1,0,0:0:0:0:
312,120,148859,1,0,0:0:0:0:
320,152,148972,6,0,B|416:208|440:296|392:336|304:352|208:360|104:360|40:336|-16:264|-24:184|8:112|104:56|192:40|344:24,1,980
416,56,152589,2,0,B|304:64|168:80|88:104|24:160|8:248|8:312|16:352|72:368|152:376|280:352|400:312|480:272|496:256,1,980
432,280,156207,5,0,0:0:0:0:
400,232,156320,1,0,0:0:0:0:
376,288,156433,1,0,0:0:0:0:
264,288,156659,1,0,0:0:0:0:
232,232,156772,1,0,0:0:0:0:
208,280,156885,1,0,0:0:0:0:
96,288,157111,1,0,0:0:0:0:
72,256,157224,1,0,0:0:0:0:
48,296,157337,1,0,0:0:0:0:
56,152,157563,1,0,0:0:0:0:
160,136,157789,1,0,0:0:0:0:
296,144,158015,1,0,0:0:0:0:
320,112,158128,1,0,0:0:0:0:
336,152,158241,1,0,0:0:0:0:
432,136,158467,1,0,0:0:0:0:
440,160,158580,1,0,0:0:0:0:
448,200,158693,1,0,0:0:0:0:
416,296,158919,1,0,0:0:0:0:
392,320,159033,1,0,0:0:0:0:
352,344,159146,1,0,0:0:0:0:
224,320,159372,1,0,0:0:0:0:
112,304,159598,1,0,0:0:0:0:
104,192,159824,6,0,P|120:144|144:136,1,70
224,128,160276,2,0,B|256:144|264:176|264:184,1,70
256,240,160728,1,0,0:0:0:0:
232,288,160954,1,0,0:0:0:0:
144,296,161180,1,0,0:0:0:0:
56,280,161406,1,0,0:0:0:0:
56,184,161632,2,0,L|56:144,2,35
120,176,162085,2,0,L|120:136,2,35
216,144,162537,2,0,P|272:80|328:96,1,140
32,160,163441,5,0,0:0:0:0:
64,104,163667,1,0,0:0:0:0:
96,160,163893,1,0,0:0:0:0:
128,112,164119,1,0,0:0:0:0:
168,168,164345,1,0,0:0:0:0:
200,96,164571,1,0,0:0:0:0:
240,168,164798,1,0,0:0:0:0:
256,96,165024,1,0,0:0:0:0:
288,320,165250,5,0,0:0:0:0:
336,240,165476,1,0,0:0:0:0:
368,328,165702,1,0,0:0:0:0:
400,232,165928,1,0,0:0:0:0:
440,320,166154,1,0,0:0:0:0:
472,240,166380,1,0,0:0:0:0:
504,328,166606,1,0,0:0:0:0:
472,240,166832,1,0,0:0:0:0:
224,160,167058,5,0,0:0:0:0:
256,88,167284,1,0,0:0:0:0:
280,168,167510,1,0,0:0:0:0:
320,96,167737,1,0,0:0:0:0:
352,160,167963,1,0,0:0:0:0:
400,72,168189,1,0,0:0:0:0:
424,160,168415,1,0,0:0:0:0:
456,96,168641,1,0,0:0:0:0:
64,336,168867,5,0,0:0:0:0:
120,200,169093,1,0,0:0:0:0:
192,336,169319,1,0,0:0:0:0:
32,240,169545,1,0,0:0:0:0:
224,240,169771,1,0,0:0:0:0:
104,352,169997,1,0,0:0:0:0:
104,224,170223,1,0,0:0:0:0:
200,224,170450,1,0,0:0:0:0:
104,168,170676,6,0,P|112:120|136:112,1,70
224,80,171128,2,0,P|264:96|256:128,1,70
152,304,171580,2,0,L|152:256,2,35
224,304,172032,2,0,L|224:256,2,35
288,304,172484,2,0,L|288:256,2,35
344,312,172936,2,0,L|344:264,2,35
408,312,173389,2,0,L|408:264,2,35
480,312,173841,2,0,L|480:264,2,35
120,184,174293,6,0,P|104:144|128:136,1,70
256,120,174745,2,0,P|288:136|296:176,1,70
168,232,176101,1,0,0:0:0:0:
136,184,176215,1,0,0:0:0:0:
152,128,176328,1,0,0:0:0:0:
184,112,176441,1,0,0:0:0:0:
280,80,177232,1,0,0:0:0:0:
304,104,177345,1,0,0:0:0:0:
320,136,177458,1,0,0:0:0:0:
296,264,177910,6,0,L|256:264,2,35
176,264,178362,2,0,L|176:224,2,35
152,120,179041,1,0,0:0:0:0:
424,64,179945,6,0,L|376:64,1,35
80,320,180171,2,0,L|32:320,1,35
