osu file format v14

[General]
AudioFilename: audio.mp3
AudioLeadIn: 0
PreviewTime: 13599
Countdown: 0
SampleSet: Normal
StackLeniency: 0.7
Mode: 1
LetterboxInBreaks: 0
WidescreenStoryboard: 1

[Editor]
Bookmarks: 13599,26840,40082,53323,79806
DistanceSpacing: 0.1
BeatDivisor: 4
GridSize: 32
TimelineZoom: 2.2

[Metadata]
Title:Freaky (RGB)
TitleUnicode:Freaky (RGB)
Artist:Yeek
ArtistUnicode:Yeek
Creator:Parachor
Version:muzukashii
Source:
Tags:valencia house r&b rhythm and blues lounge deep hip hop pop single florida english sv
BeatmapID:3504722
BeatmapSetID:1705774

[Difficulty]
HPDrainRate:7
CircleSize:2
OverallDifficulty:5
ApproachRate:0
SliderMultiplier:1.4
SliderTickRate:1

[Events]
//Background and Video events
0,0,"gcbj552b6fi61.jpg",0,0
//Break Periods
//Storyboard Layer 0 (Background)
//Storyboard Layer 1 (Fail)
//Storyboard Layer 2 (Pass)
//Storyboard Layer 3 (Foreground)
//Storyboard Layer 4 (Overlay)
//Storyboard Sound Samples

[TimingPoints]
358,413.793103448276,4,1,0,50,1,0
358,-125,4,1,0,50,0,0
13599,-100,4,1,0,80,0,0
25185,-102.040816326531,4,1,0,80,0,0
25392,-104.166666666667,4,1,0,80,0,0
25599,-106.382978723404,4,1,0,80,0,0
25806,-108.695652173913,4,1,0,80,0,0
26013,-111.111111111111,4,1,0,80,0,0
26220,-113.636363636364,4,1,0,80,0,0
26426,-116.279069767442,4,1,0,80,0,0
26633,-119.047619047619,4,1,0,80,0,0
26840,-121.951219512195,4,1,0,70,0,0
39875,-100,4,1,0,80,0,0
53323,-86.9565217391304,4,1,0,90,0,1
78151,-100,4,1,0,60,0,0

[HitObjects]
257,191,358,5,2,0:0:0:0:
257,191,1185,1,2,0:0:0:0:
257,191,1392,1,2,0:0:0:0:
257,191,1599,1,0,0:0:0:0:
257,191,2013,1,0,0:0:0:0:
257,191,2840,1,0,0:0:0:0:
257,191,3254,1,2,0:0:0:0:
256,192,3668,12,0,6151,0:0:0:0:
257,191,6978,5,2,0:0:0:0:
257,191,7805,1,2,0:0:0:0:
257,191,8012,1,2,0:0:0:0:
257,191,8219,1,0,0:0:0:0:
257,191,8633,1,0,0:0:0:0:
257,191,9460,1,0,0:0:0:0:
257,191,9874,1,2,0:0:0:0:
256,192,10288,12,0,12771,0:0:0:0:
256,192,13599,5,0,0:0:0:0:
256,192,13806,1,0,0:0:0:0:
256,192,14013,1,2,0:0:0:0:
256,192,14220,1,2,0:0:0:0:
256,192,14427,1,0,0:0:0:0:
256,192,14634,1,0,0:0:0:0:
256,192,14840,1,2,0:0:0:0:
256,192,15047,1,0,0:0:0:0:
256,192,15254,1,0,0:0:0:0:
256,192,15461,1,0,0:0:0:0:
256,192,15668,1,2,0:0:0:0:
256,192,15875,1,2,0:0:0:0:
256,192,16082,1,0,0:0:0:0:
256,192,16185,1,0,0:0:0:0:
256,192,16289,1,0,0:0:0:0:
256,192,16495,1,2,0:0:0:0:
256,192,16909,1,0,0:0:0:0:
256,192,17116,1,2,0:0:0:0:
256,192,17323,1,2,0:0:0:0:
256,192,17530,1,0,0:0:0:0:
256,192,17633,1,0,0:0:0:0:
256,192,17737,1,0,0:0:0:0:
256,192,17944,1,0,0:0:0:0:
256,192,18150,1,2,0:0:0:0:
256,192,18565,1,2,0:0:0:0:
256,192,18668,1,2,0:0:0:0:
256,192,18771,1,2,0:0:0:0:
256,192,18979,1,0,0:0:0:0:
256,192,19185,1,2,0:0:0:0:
256,192,19392,1,0,0:0:0:0:
256,192,19495,1,0,0:0:0:0:
256,192,19599,1,0,0:0:0:0:
256,192,20220,1,0,0:0:0:0:
256,192,20427,1,0,0:0:0:0:
256,192,20634,1,2,0:0:0:0:
256,192,20840,1,0,0:0:0:0:
256,192,21047,1,2,0:0:0:0:
256,192,21254,1,2,0:0:0:0:
256,192,21461,1,2,0:0:0:0:
254,199,21668,1,0,0:0:0:0:
256,192,21875,1,0,0:0:0:0:
256,192,22082,1,0,0:0:0:0:
256,192,22289,1,2,0:0:0:0:
256,192,22495,1,2,0:0:0:0:
256,192,22702,1,0,0:0:0:0:
256,192,22806,1,0,0:0:0:0:
256,192,22909,1,0,0:0:0:0:
256,192,23116,1,2,0:0:0:0:
256,192,23530,1,0,0:0:0:0:
256,192,23633,1,0,0:0:0:0:
256,192,23737,1,0,0:0:0:0:
256,192,23944,1,2,0:0:0:0:
256,192,24151,1,0,0:0:0:0:
256,192,24358,1,0,0:0:0:0:
256,192,24461,1,0,0:0:0:0:
256,192,24564,1,0,0:0:0:0:
256,192,24771,1,2,0:0:0:0:
256,192,25185,1,2,0:0:0:0:
256,192,25392,1,0,0:0:0:0:
256,192,25599,1,2,0:0:0:0:
256,192,25806,1,2,0:0:0:0:
256,192,26013,1,0,0:0:0:0:
256,192,26220,1,2,0:0:0:0:
256,192,26427,1,0,0:0:0:0:
256,192,26634,1,2,0:0:0:0:
256,192,26840,1,0,0:0:0:0:
256,192,27254,1,2,0:0:0:0:
256,192,27668,1,2,0:0:0:0:
256,192,28082,1,2,0:0:0:0:
256,192,28289,1,2,0:0:0:0:
256,192,28496,1,0,0:0:0:0:
256,192,28909,1,2,0:0:0:0:
256,192,29323,1,0,0:0:0:0:
256,192,29530,1,0,0:0:0:0:
256,192,29737,1,2,0:0:0:0:
256,192,29944,1,0,0:0:0:0:
256,192,30151,1,0,0:0:0:0:
256,192,30565,1,0,0:0:0:0:
256,192,30978,1,2,0:0:0:0:
256,192,31392,1,0,0:0:0:0:
256,192,31599,1,2,0:0:0:0:
256,192,31806,1,0,0:0:0:0:
256,192,32220,1,2,0:0:0:0:
256,192,32427,1,2,0:0:0:0:
256,192,32634,1,0,0:0:0:0:
256,192,32840,1,0,0:0:0:0:
256,192,33047,1,2,0:0:0:0:
256,192,33254,1,0,0:0:0:0:
256,192,33461,1,0,0:0:0:0:
256,192,33875,1,2,0:0:0:0:
256,192,34289,1,2,0:0:0:0:
256,192,34703,1,2,0:0:0:0:
256,192,34910,1,2,0:0:0:0:
256,192,35117,1,0,0:0:0:0:
256,192,35530,1,2,0:0:0:0:
256,192,35944,1,0,0:0:0:0:
256,192,36151,1,0,0:0:0:0:
256,192,36358,1,2,0:0:0:0:
256,192,36565,1,2,0:0:0:0:
256,192,36772,1,0,0:0:0:0:
256,192,37186,1,0,0:0:0:0:
256,192,37599,1,2,0:0:0:0:
256,192,38013,1,2,0:0:0:0:
256,192,38220,5,2,0:0:0:0:
256,192,38427,1,0,0:0:0:0:
256,192,39875,5,0,0:0:0:0:
256,192,40082,1,2,0:0:0:0:
256,192,40289,1,2,0:0:0:0:
256,192,40496,1,2,0:0:0:0:
256,192,40702,1,0,0:0:0:0:
256,192,40909,1,2,0:0:0:0:
256,192,41013,1,2,0:0:0:0:
256,192,41116,1,2,0:0:0:0:
256,192,41323,1,2,0:0:0:0:
256,192,41530,1,0,0:0:0:0:
256,192,41737,1,2,0:0:0:0:
256,192,41944,1,2,0:0:0:0:
256,192,42151,1,2,0:0:0:0:
256,192,42358,1,0,0:0:0:0:
256,192,42565,1,2,0:0:0:0:
256,192,42668,1,2,0:0:0:0:
256,192,42771,1,2,0:0:0:0:
256,192,42978,1,2,0:0:0:0:
256,192,43392,1,2,0:0:0:0:
256,192,43599,1,2,0:0:0:0:
256,192,43806,1,0,0:0:0:0:
256,192,43909,1,0,0:0:0:0:
256,192,44013,1,0,0:0:0:0:
256,192,44220,1,2,0:0:0:0:
256,192,44427,1,2,0:0:0:0:
256,192,44634,1,0,0:0:0:0:
256,192,45047,1,0,0:0:0:0:
256,192,45461,1,2,0:0:0:0:
256,192,46082,1,0,0:0:0:0:
256,192,46289,1,2,0:0:0:0:
256,192,46495,5,0,0:0:0:0:
256,192,46702,1,2,0:0:0:0:
256,192,46909,1,2,0:0:0:0:
256,192,47116,1,2,0:0:0:0:
256,192,47322,1,0,0:0:0:0:
256,192,47529,1,2,0:0:0:0:
256,192,47633,1,2,0:0:0:0:
256,192,47736,1,2,0:0:0:0:
256,192,47943,1,2,0:0:0:0:
256,192,48150,1,0,0:0:0:0:
256,192,48357,1,2,0:0:0:0:
256,192,48564,1,2,0:0:0:0:
256,192,48771,1,2,0:0:0:0:
256,192,48978,1,0,0:0:0:0:
256,192,49185,1,2,0:0:0:0:
256,192,49288,1,2,0:0:0:0:
256,192,49391,1,2,0:0:0:0:
256,192,49598,1,2,0:0:0:0:
256,192,50012,5,2,0:0:0:0:
256,192,50219,1,2,0:0:0:0:
256,192,50426,1,0,0:0:0:0:
256,192,50529,1,0,0:0:0:0:
256,192,50633,1,0,0:0:0:0:
256,192,50840,1,2,0:0:0:0:
256,192,51047,1,2,0:0:0:0:
256,192,51254,1,0,0:0:0:0:
256,192,51668,1,2,0:0:0:0:
256,192,52082,1,0,0:0:0:0:
256,192,52495,1,2,0:0:0:0:
256,192,52702,1,0,0:0:0:0:
256,192,52909,1,2,0:0:0:0:
256,192,53323,5,0,0:0:0:0:
256,192,53530,1,0,0:0:0:0:
256,192,53737,1,2,0:0:0:0:
256,192,53944,1,0,0:0:0:0:
256,192,54047,1,0,0:0:0:0:
256,192,54151,1,0,0:0:0:0:
64,64,54357,1,0,0:0:0:0:
256,192,54564,1,2,0:0:0:0:
256,192,54771,1,2,0:0:0:0:
256,192,54978,1,0,0:0:0:0:
256,192,55185,1,0,0:0:0:0:
256,192,55392,1,2,0:0:0:0:
256,192,55599,1,0,0:0:0:0:
256,192,55702,1,0,0:0:0:0:
256,192,55806,1,0,0:0:0:0:
64,64,56013,1,0,0:0:0:0:
256,192,56219,1,2,0:0:0:0:
256,192,56426,1,0,0:0:0:0:
256,192,56633,1,0,0:0:0:0:
256,192,57047,1,2,0:0:0:0:
256,192,57254,1,0,0:0:0:0:
256,192,57358,1,0,0:0:0:0:
256,192,57461,1,0,0:0:0:0:
256,192,57668,1,0,0:0:0:0:
256,192,57874,1,2,0:0:0:0:
448,64,58289,1,8,0:0:0:0:
256,192,58703,1,2,0:0:0:0:
256,192,59116,1,0,0:0:0:0:
256,192,59324,1,0,0:0:0:0:
256,192,59530,1,2,0:0:0:0:
256,192,59737,1,2,0:0:0:0:
256,192,59944,5,0,0:0:0:0:
256,192,60358,1,2,0:0:0:0:
256,192,60565,1,0,0:0:0:0:
256,192,60668,1,0,0:0:0:0:
256,192,60772,1,0,0:0:0:0:
256,192,60979,1,0,0:0:0:0:
256,192,61185,1,2,0:0:0:0:
256,192,61392,1,2,0:0:0:0:
256,192,61599,1,0,0:0:0:0:
256,192,61806,1,0,0:0:0:0:
256,192,62013,1,2,0:0:0:0:
256,192,62220,1,0,0:0:0:0:
256,192,62323,1,0,0:0:0:0:
256,192,62427,1,0,0:0:0:0:
256,192,62634,1,0,0:0:0:0:
256,192,62840,1,2,0:0:0:0:
256,192,63047,1,2,0:0:0:0:
256,192,63254,1,0,0:0:0:0:
256,192,63668,1,2,0:0:0:0:
256,192,63875,1,0,0:0:0:0:
256,192,63978,1,0,0:0:0:0:
256,192,64082,1,0,0:0:0:0:
256,192,64289,1,0,0:0:0:0:
256,192,64495,1,2,0:0:0:0:
256,192,64910,1,2,0:0:0:0:
256,192,65324,1,2,0:0:0:0:
256,192,65737,1,0,0:0:0:0:
256,192,65944,1,2,0:0:0:0:
256,192,66151,1,0,0:0:0:0:
256,192,66358,1,2,0:0:0:0:
256,192,66564,5,0,0:0:0:0:
256,192,66978,1,2,0:0:0:0:
256,192,67185,1,0,0:0:0:0:
256,192,67288,1,0,0:0:0:0:
256,192,67392,1,0,0:0:0:0:
256,192,67599,1,0,0:0:0:0:
256,192,67805,1,2,0:0:0:0:
256,192,68012,1,2,0:0:0:0:
256,192,68219,1,0,0:0:0:0:
256,192,68426,1,0,0:0:0:0:
256,192,68633,1,2,0:0:0:0:
256,192,68840,1,0,0:0:0:0:
256,192,68943,1,0,0:0:0:0:
256,192,69047,1,0,0:0:0:0:
256,192,69254,1,0,0:0:0:0:
256,192,69460,1,2,0:0:0:0:
256,192,69668,1,0,0:0:0:0:
256,192,69874,1,0,0:0:0:0:
256,192,70288,1,2,0:0:0:0:
256,192,70495,1,0,0:0:0:0:
256,192,70599,1,0,0:0:0:0:
256,192,70702,1,0,0:0:0:0:
256,192,70909,1,0,0:0:0:0:
256,192,71115,1,2,0:0:0:0:
256,192,71530,1,8,0:0:0:0:
256,192,71944,1,2,0:0:0:0:
256,192,72357,1,0,0:0:0:0:
256,192,72565,1,0,0:0:0:0:
256,192,72771,1,2,0:0:0:0:
256,192,72978,1,2,0:0:0:0:
256,192,73185,5,0,0:0:0:0:
256,192,73599,1,2,0:0:0:0:
256,192,73806,1,0,0:0:0:0:
256,192,73909,1,0,0:0:0:0:
256,192,74013,1,0,0:0:0:0:
256,192,74220,1,0,0:0:0:0:
256,192,74426,1,2,0:0:0:0:
256,192,74633,1,2,0:0:0:0:
256,192,74840,1,0,0:0:0:0:
256,192,75047,1,0,0:0:0:0:
256,192,75254,1,2,0:0:0:0:
256,192,75461,1,0,0:0:0:0:
256,192,75564,1,0,0:0:0:0:
256,192,75668,1,0,0:0:0:0:
256,192,75875,1,0,0:0:0:0:
256,192,76081,1,2,0:0:0:0:
256,192,76288,1,2,0:0:0:0:
256,192,76495,1,0,0:0:0:0:
256,192,76909,1,2,0:0:0:0:
256,192,77116,1,0,0:0:0:0:
256,192,77220,1,0,0:0:0:0:
256,192,77323,1,0,0:0:0:0:
256,192,77530,1,0,0:0:0:0:
256,192,77736,1,2,0:0:0:0:
256,192,78151,1,2,0:0:0:0:
256,192,78565,1,0,0:0:0:0:
256,192,78771,1,2,0:0:0:0:
256,192,78978,1,0,0:0:0:0:
256,192,79392,1,0,0:0:0:0:
256,192,79599,1,2,0:0:0:0:
