osu file format v14

[General]
AudioFilename: audio.mp3
AudioLeadIn: 0
PreviewTime: 13248
Countdown: 0
SampleSet: Soft
StackLeniency: 0.7
Mode: 0
LetterboxInBreaks: 0
WidescreenStoryboard: 1

[Editor]
Bookmarks: 13662,18213,26489,39731,52972,66213,79455
DistanceSpacing: 1.1
BeatDivisor: 4
GridSize: 8
TimelineZoom: 2

[Metadata]
Title:Freaky (RGB)
TitleUnicode:Freaky (RGB)
Artist:Yeek
ArtistUnicode:Yeek
Creator:Lurumic
Version:we vibing's Hard
Source:
Tags:we vibing -doodle valencia r&b deep hip hop pop uk garage electronic single florida english
BeatmapID:3674700
BeatmapSetID:1719062

[Difficulty]
HPDrainRate:4
CircleSize:3.6
OverallDifficulty:6
ApproachRate:7.8
SliderMultiplier:2
SliderTickRate:1

[Events]
//Background and Video events
0,0,"bg.jpg",0,0
//Break Periods
//Storyboard Layer 0 (Background)
//Storyboard Layer 1 (Fail)
//Storyboard Layer 2 (Pass)
//Storyboard Layer 3 (Foreground)
//Storyboard Layer 4 (Overlay)
//Storyboard Sound Samples

[TimingPoints]
7,413.793103448276,4,2,1,40,1,0
7,-250,4,2,1,40,0,0
13248,-166.666666666667,4,2,1,60,0,0
26420,-166.666666666667,4,2,1,50,0,0
26489,-200,4,2,1,50,0,0
29386,-125,4,2,1,50,0,0
29800,-200,4,2,1,50,0,0
36007,-125,4,2,1,50,0,0
36420,-200,4,2,1,50,0,0
38075,-200,4,2,1,40,0,0
38179,-200,4,2,1,35,0,0
38282,-200,4,2,1,30,0,0
38386,-200,4,2,1,25,0,0
38489,-200,4,2,1,20,0,0
39524,-200,4,2,1,50,0,0
39731,-133.333333333333,4,2,1,50,0,0
46351,-133.333333333333,4,2,1,60,0,0
52972,-111.111111111111,4,2,1,60,0,0
54213,-90.9090909090909,4,2,1,60,0,0
54627,-111.111111111111,4,2,1,60,0,0
55869,-90.9090909090909,4,2,1,60,0,0
56282,-111.111111111111,4,2,1,60,0,0
60834,-90.9090909090909,4,2,1,60,0,0
61248,-111.111111111111,4,2,1,60,0,0
62489,-90.9090909090909,4,2,1,60,0,0
62903,-111.111111111111,4,2,1,60,0,0
67455,-90.9090909090909,4,2,1,60,0,0
67869,-111.111111111111,4,2,1,60,0,0
69110,-90.9090909090909,4,2,1,60,0,0
69524,-111.111111111111,4,2,1,60,0,0
74075,-90.9090909090909,4,2,1,60,0,0
74489,-111.111111111111,4,2,1,60,0,0
75731,-90.9090909090909,4,2,1,60,0,0
76144,-111.111111111111,4,2,1,60,0,0

[Colours]
Combo1 : 163,152,168
Combo2 : 206,233,238
Combo3 : 118,149,162
Combo4 : 155,202,215

[HitObjects]
304,363,7,5,2,0:0:0:0:
158,263,834,2,0,L|114:277,2,40
242,237,1662,5,2,0:0:0:0:
385,134,2489,2,0,L|358:216,1,80
330,293,3317,5,2,0:1:0:0:
208,21,6627,5,2,0:0:0:0:
354,121,7454,2,0,L|398:107,2,40
270,147,8282,5,2,0:0:0:0:
127,250,9109,2,0,L|153:167,1,80
182,91,9937,5,2,0:1:0:0:
67,104,13248,6,0,P|79:137|83:169,1,59.9999981689454,2|0,1:0|0:0,0:0:0:0:
31,244,13662,1,8,0:0:0:0:
31,244,13869,1,0,0:0:0:0:
93,304,14075,2,0,L|154:321,1,59.9999981689454,2|2,0:0|1:2,0:0:0:0:
224,258,14489,2,0,L|285:240,1,59.9999981689454,10|0,0:0|0:0,0:0:0:0:
376,258,14903,6,0,P|357:207|351:158,1,89.9999972534181,2|0,1:0|0:0,0:0:0:0:
355,150,15317,1,8,0:0:0:0:
421,80,15524,1,0,0:0:0:0:
398,73,15627,1,0,0:0:0:0:
374,67,15730,1,0,0:0:0:0:
293,23,15938,1,0,1:0:0:0:
293,23,16144,2,0,P|258:1|236:36,1,89.9999972534181,10|0,0:0|0:0,0:0:0:0:
247,58,16558,6,0,L|229:119,1,59.9999981689454,2|0,1:0|0:0,0:0:0:0:
154,175,16972,2,0,L|171:236,1,59.9999981689454,8|0,0:0|0:0,0:0:0:0:
228,309,17386,1,0,0:0:0:0:
284,232,17593,1,0,1:0:0:0:
284,232,17800,2,0,P|335:227|371:270,1,89.9999972534181,8|0,0:0|0:0,0:0:0:0:
367,273,18213,6,0,L|349:334,1,59.9999981689454,0|0,1:0|0:0,0:0:0:0:
444,352,18627,2,0,L|460:294,1,59.9999981689454,8|0,0:0|0:0,0:0:0:0:
493,203,19041,1,0,0:0:0:0:
426,133,19248,1,0,1:0:0:0:
502,74,19455,1,8,0:0:0:0:
426,133,19662,1,0,0:0:0:0:
348,76,19869,6,0,P|303:64|271:77,1,59.9999981689454,2|0,1:0|0:0,0:0:0:0:
222,134,20282,2,0,P|177:146|145:133,1,59.9999981689454,8|0,0:0|0:0,0:0:0:0:
99,72,20696,1,2,0:0:0:0:
33,142,20903,1,0,1:0:0:0:
33,142,21110,2,0,L|50:203,1,59.9999981689454,8|0,0:0|0:0,0:0:0:0:
45,296,21524,6,0,L|106:278,1,59.9999981689454,2|0,1:0|0:0,0:0:0:0:
190,318,21938,1,8,0:0:0:0:
276,277,22144,1,0,0:0:0:0:
276,277,22351,2,0,L|337:294,1,59.9999981689454,0|0,0:0|1:0,0:0:0:0:
406,229,22765,2,0,L|315:202,1,89.9999972534181,10|0,0:0|0:0,0:0:0:0:
297,194,23179,6,0,P|288:151|294:133,1,59.9999981689454,2|0,1:0|0:0,0:0:0:0:
365,73,23593,1,8,0:0:0:0:
281,25,23800,1,0,0:0:0:0:
281,25,24007,2,0,L|219:42,1,59.9999981689454,0|0,0:0|1:0,0:0:0:0:
127,36,24420,2,0,P|146:87|152:136,1,89.9999972534181,8|0,0:0|0:0,0:0:0:0:
151,146,24834,6,0,L|133:207,1,59.9999981689454,0|0,1:0|0:0,0:0:0:0:
65,271,25248,1,8,0:0:0:0:
123,345,25455,1,0,0:0:0:0:
218,339,25662,2,0,L|249:330,1,29.9999990844727
270,326,25869,1,8,0:0:0:0:
350,274,26075,2,0,L|381:282,1,29.9999990844727
402,287,26282,1,8,0:0:0:0:
473,341,26489,6,2,B|460:307|460:307|471:267,3,66.6666666666667,2|2|2|10,1:0|0:0|0:0|0:0,0:0:0:0:
337,160,27731,1,2,0:1:0:0:
337,160,27938,1,0,0:0:0:0:
295,80,28144,6,0,B|329:67|329:67|369:78,3,66.6666666666667,2|2|2|2,0:0|0:0|0:0|0:0,0:0:0:0:
211,199,29386,2,0,P|148:176|95:179,1,120,2|0,0:1|0:0,0:0:0:0:
77,186,29800,6,0,B|64:152|64:152|75:112,2,66.6666666666667,2|2|2,1:0|0:0|0:0,0:0:0:0:
130,293,30627,2,0,B|143:327|143:327|132:367,2,66.6666666666667,10|2|2,0:0|0:0|0:0,0:0:0:0:
211,199,31455,6,0,P|243:188|301:215,1,100,2|8,0:0|0:0,0:0:0:0:
361,279,32075,1,0,0:0:0:0:
423,215,32282,2,0,L|439:157,1,50
464,80,32696,1,0,0:0:0:0:
464,80,32903,1,0,0:0:0:0:
375,95,33110,6,0,B|345:103|345:103|311:90,3,66.6666666666667,2|2|2|10,1:0|0:0|0:0|0:0,0:0:0:0:
172,202,34351,1,2,0:1:0:0:
172,202,34558,1,0,0:0:0:0:
252,244,34764,6,0,B|265:210|265:210|254:170,3,66.6666666666667,2|2|2|2,0:0|0:0|0:0|0:0,0:0:0:0:
128,37,36007,2,0,P|191:60|244:57,1,120,2|0,0:1|0:0,0:0:0:0:
260,48,36420,6,0,B|294:35|294:35|323:43,2,66.6666666666667,2|2|2,1:0|0:0|0:0,0:0:0:0:
192,148,37248,2,0,B|163:156|163:156|129:143,2,66.6666666666667,2|2|2,0:0|0:0|0:0,0:0:0:0:
297,204,38075,5,2,1:0:0:0:
40,346,39524,5,0,0:0:0:0:
40,346,39731,6,0,L|18:274,1,75.0000028610231,2|0,1:0|0:0,0:0:0:0:
88,216,40144,2,0,L|109:144,1,75.0000028610231,8|0,0:0|0:0,0:0:0:0:
66,64,40558,1,2,0:0:0:0:
66,64,40765,1,2,1:2:0:0:
144,20,40972,2,0,P|198:13|241:47,1,112.500004291535,10|0,0:0|0:0,0:0:0:0:
247,69,41386,6,0,L|225:140,1,75.0000028610231,2|0,1:0|0:0,0:0:0:0:
175,215,41800,2,0,L|246:236,1,75.0000028610231,8|0,0:0|0:0,0:0:0:0:
317,180,42213,1,2,0:0:0:0:
317,180,42420,1,0,1:0:0:0:
368,253,42627,2,0,P|414:275|480:237,1,112.500004291535,10|0,0:0|0:0,0:0:0:0:
485,238,43041,6,0,L|463:166,1,75.0000028610231,2|0,1:0|0:0,0:0:0:0:
508,87,43455,2,0,B|455:111|455:111|390:84,1,112.500004291535,8|0,0:0|0:0,0:0:0:0:
384,81,43869,1,0,0:0:0:0:
307,34,44075,1,0,0:0:0:0:
231,82,44282,2,0,B|163:69|163:69|156:72|156:72|62:56,1,150.000005722046,8|0,0:0|1:0,0:0:0:0:
484,42,46144,5,2,0:0:0:0:
484,42,46351,6,0,P|434:27|397:41,1,75.0000028610231,2|0,1:0|0:0,0:0:0:0:
351,98,46765,2,0,L|373:170,1,75.0000028610231,8|0,0:0|0:0,0:0:0:0:
325,246,47179,1,2,0:0:0:0:
325,246,47386,1,2,1:2:0:0:
256,187,47593,2,0,B|205:169|205:169|150:190,1,112.500004291535,10|0,0:0|0:0,0:0:0:0:
133,204,48007,6,0,P|96:208|62:193,1,75.0000028610231,2|0,1:0|0:0,0:0:0:0:
19,114,48420,2,0,L|41:42,1,75.0000028610231,8|0,0:0|0:0,0:0:0:0:
113,95,48834,1,2,0:0:0:0:
113,95,49041,1,0,1:0:0:0:
188,45,49248,2,0,B|239:27|239:27|294:48,1,112.500004291535,10|0,0:0|0:0,0:0:0:0:
314,57,49662,6,0,P|318:93|303:127,1,75.0000028610231,2|0,1:0|0:0,0:0:0:0:
246,197,50075,2,0,L|285:325,1,112.500004291535,8|0,0:0|0:0,0:0:0:0:
286,325,50489,1,0,0:0:0:0:
207,369,50696,1,0,1:0:0:0:
126,327,50903,2,0,P|80:308|111:363,1,150.000005722046,8|0,0:0|0:0,0:0:0:0:
256,192,51420,12,0,52765,0:0:0:0:
402,261,52972,6,0,P|339:263|324:241,1,89.9999972534181,2|0,1:0|0:0,0:0:0:0:
242,189,53386,2,0,L|372:150,1,134.999995880127,8|0,0:0|0:0,0:0:0:0:
398,143,53800,1,0,0:0:0:0:
467,72,54007,1,0,1:0:0:0:
353,30,54213,2,0,L|288:11,1,55.0000016784668,10|0,0:0|0:0,0:0:0:0:
263,63,54420,2,0,L|206:79,1,55.0000016784668,2|0,0:0|0:0,0:0:0:0:
153,62,54627,6,0,P|179:124|177:210,1,134.999995880127,2|0,1:0|0:0,0:0:0:0:
169,215,55041,2,0,P|124:246|87:183,1,134.999995880127,8|0,0:0|0:0,0:0:0:0:
96,169,55455,1,0,0:0:0:0:
27,97,55662,1,0,1:0:0:0:
132,37,55869,2,0,B|177:17|213:54|195:65|236:102|284:75,1,165.000005035401,10|0,0:0|0:0,0:1:0:0:
327,54,56282,6,0,L|288:184,1,134.999995880127,2|0,1:0|0:0,0:0:0:0:
281,209,56696,2,0,P|332:232|372:205,1,89.9999972534181,8|0,0:0|0:0,0:0:0:0:
385,209,57007,1,0,0:0:0:0:
409,198,57110,1,0,0:0:0:0:
483,262,57317,1,0,1:0:0:0:
432,348,57524,1,8,0:0:0:0:
432,348,57731,1,0,0:0:0:0:
337,317,57938,6,0,P|269:289|199:278,1,134.999995880127,0|0,1:0|0:0,0:0:0:0:
181,277,58351,1,8,0:0:0:0:
82,291,58558,1,0,0:0:0:0:
90,266,58661,1,0,0:0:0:0:
98,240,58765,2,0,L|127:142,1,89.9999972534181,2|2,0:0|1:2,0:0:0:0:
58,78,59179,1,10,0:0:0:0:
58,78,59386,1,2,0:0:0:0:
135,16,59593,6,0,P|187:22|220:61,1,89.9999972534181,2|0,1:0|0:0,0:0:0:0:
220,146,60007,2,0,L|350:107,1,134.999995880127,8|0,0:0|0:0,0:0:0:0:
374,99,60420,1,0,0:0:0:0:
454,40,60627,1,0,1:0:0:0:
444,160,60834,2,0,L|463:225,1,55.0000016784668,10|0,0:0|0:0,0:0:0:0:
411,250,61041,2,0,L|395:307,1,55.0000016784668,2|0,0:0|0:0,0:0:0:0:
407,355,61248,6,0,P|345:329|259:331,1,134.999995880127,2|0,1:0|0:0,0:0:0:0:
256,343,61662,2,0,P|207:355|165:335,1,89.9999972534181,8|0,0:0|0:0,0:0:0:0:
149,325,61972,1,0,0:0:0:0:
128,307,62075,1,0,0:0:0:0:
53,241,62282,1,0,1:0:0:0:
122,141,62489,2,0,P|110:84|75:146,1,165.000005035401,10|0,0:0|0:0,0:0:0:0:
97,174,62903,6,0,B|167:147|167:147|233:180,1,134.999995880127,2|0,1:0|0:0,0:0:0:0:
247,175,63317,2,0,L|333:149,1,89.9999972534181,8|0,0:0|0:0,0:0:0:0:
359,142,63627,1,0,0:0:0:0:
385,134,63731,1,0,0:0:0:0:
460,69,63938,1,0,1:0:0:0:
373,25,64144,1,10,0:0:0:0:
373,25,64351,1,0,0:0:0:0:
282,64,64558,6,0,L|195:38,1,89.9999972534181,0|0,1:0|0:0,0:0:0:0:
128,111,64972,1,8,0:0:0:0:
41,88,65179,1,0,0:0:0:0:
41,88,65282,1,0,0:0:0:0:
41,88,65386,2,0,L|28:131,1,44.999998626709
21,157,65593,1,8,0:0:0:0:
84,233,65800,2,0,L|97:276,1,44.999998626709
104,302,66007,1,8,0:0:0:0:
176,371,66213,6,0,P|226:363|242:305,1,89.9999972534181,2|0,1:0|0:0,0:0:0:0:
211,237,66627,2,0,L|341:276,1,134.999995880127,8|0,0:0|0:0,0:0:0:0:
365,285,67041,1,0,0:0:0:0:
448,231,67248,1,0,0:0:0:0:
334,188,67455,2,0,L|349:135,1,55.0000016784668,10|0,0:0|0:0,0:0:0:0:
397,98,67662,2,0,L|381:45,1,55.0000016784668,2|0,0:0|0:0,0:0:0:0:
337,14,67869,6,0,P|273:10|247:93,1,134.999995880127,2|0,1:0|0:0,0:0:0:0:
244,91,68282,2,0,B|201:80|201:80|138:106,1,89.9999972534181,8|0,0:0|0:0,0:0:0:0:
134,110,68593,1,0,0:0:0:0:
110,123,68696,1,0,0:0:0:0:
22,169,68903,1,0,1:0:0:0:
93,266,69110,2,0,B|138:286|174:249|156:238|197:201|245:228,1,165.000005035401,10|0,0:0|0:0,0:0:0:0:
278,256,69524,6,0,P|356:269|395:220,1,134.999995880127,2|0,1:0|0:0,0:0:0:0:
408,212,69938,2,0,L|369:81,1,134.999995880127,8|0,0:0|0:0,0:0:0:0:
359,57,70351,1,0,0:0:0:0:
270,101,70558,1,0,1:0:0:0:
179,60,70765,1,8,0:0:0:0:
179,60,70972,1,0,0:0:0:0:
92,108,71179,6,0,P|120:176|131:246,1,134.999995880127,0|0,1:0|0:0,0:0:0:0:
134,263,71593,1,8,0:0:0:0:
62,331,71800,1,0,0:0:0:0:
87,339,71903,1,0,0:0:0:0:
113,347,72007,2,0,L|211:376,1,89.9999972534181,2|2,0:0|1:2,0:0:0:0:
278,313,72420,1,10,0:0:0:0:
278,313,72627,1,2,0:0:0:0:
354,375,72834,6,0,L|452:346,1,89.9999972534181,2|0,1:0|0:0,0:0:0:0:
496,267,73248,2,0,P|448:313|394:284,1,134.999995880127,8|0,0:0|0:0,0:0:0:0:
377,264,73662,1,0,0:0:0:0:
439,187,73869,1,0,1:0:0:0:
322,156,74075,2,0,L|269:171,1,55.0000016784668,10|0,0:0|0:0,0:0:0:0:
232,219,74282,2,0,L|179:203,1,55.0000016784668,2|0,0:0|0:0,0:0:0:0:
144,167,74489,6,0,B|118:103|118:103|151:39,1,134.999995880127,2|0,1:0|0:0,0:0:0:0:
163,22,74903,2,0,P|209:5|256:30,1,89.9999972534181,8|0,0:0|0:0,0:0:0:0:
265,37,75213,1,0,0:0:0:0:
283,56,75317,1,0,0:0:0:0:
356,122,75524,1,0,1:0:0:0:
447,42,75731,2,0,B|497:122|407:120|457:200,1,165.000005035401,10|0,0:0|0:0,0:0:0:0:
477,240,76144,6,0,P|413:279|364:218,1,134.999995880127,2|0,1:0|0:0,0:0:0:0:
358,224,76558,2,0,L|267:249,1,89.9999972534181,8|0,0:0|0:0,0:0:0:0:
245,257,76869,1,0,0:0:0:0:
219,264,76972,1,0,0:0:0:0:
141,202,77179,1,0,1:0:0:0:
62,260,77386,1,10,0:0:0:0:
62,260,77593,1,2,0:0:0:0:
86,355,77800,5,0,0:0:0:0:
