osu file format v14

[General]
AudioFilename: audio.mp3
AudioLeadIn: 0
PreviewTime: 13248
Countdown: 0
SampleSet: Soft
StackLeniency: 0.7
Mode: 0
LetterboxInBreaks: 0
WidescreenStoryboard: 1

[Editor]
Bookmarks: 13662,18213,26489,39731,52972,66213,79455
DistanceSpacing: 1.1
BeatDivisor: 2
GridSize: 16
TimelineZoom: 2

[Metadata]
Title:Freaky (RGB)
TitleUnicode:Freaky (RGB)
Artist:Yeek
ArtistUnicode:Yeek
Creator:Lurumic
Version:Normal
Source:
Tags:we vibing -doodle valencia r&b deep hip hop pop uk garage electronic single florida english
BeatmapID:3522991
BeatmapSetID:1719062

[Difficulty]
HPDrainRate:3
CircleSize:3.2
OverallDifficulty:4
ApproachRate:5
SliderMultiplier:1.1
SliderTickRate:1

[Events]
//Background and Video events
0,0,"bg.jpg",0,0
//Break Periods
//Storyboard Layer 0 (Background)
//Storyboard Layer 1 (Fail)
//Storyboard Layer 2 (Pass)
//Storyboard Layer 3 (Foreground)
//Storyboard Layer 4 (Overlay)
//Storyboard Sound Samples

[TimingPoints]
7,413.793103448276,4,2,1,40,1,0
7,-111.111111111111,4,2,1,40,0,0
13248,-100,4,2,1,60,0,0
26420,-100,4,2,1,50,0,0
26489,-111.111111111111,4,2,1,50,0,0
38075,-111.111111111111,4,2,1,40,0,0
38179,-111.111111111111,4,2,1,35,0,0
38282,-111.111111111111,4,2,1,30,0,0
38386,-111.111111111111,4,2,1,25,0,0
38489,-111.111111111111,4,2,1,20,0,0
39524,-111.111111111111,4,2,1,50,0,0
39731,-100,4,2,1,50,0,0
46351,-100,4,2,1,60,0,0

[Colours]
Combo1 : 163,152,168
Combo2 : 206,233,238
Combo3 : 118,149,162
Combo4 : 155,202,215

[HitObjects]
512,263,7,6,0,B|445:193|308:219|371:293|311:336|226:311,1,296.99999093628,2|0,0:0|0:0,0:0:0:0:
149,292,1662,1,2,0:0:0:0:
27,111,2489,2,0,P|15:67|45:10,1,98.9999969787599
126,78,3317,1,2,0:1:0:0:
512,263,6627,6,0,B|445:333|308:307|371:233|311:190|226:215,1,296.99999093628,2|0,0:0|0:0,0:0:0:0:
147,219,8282,1,2,0:0:0:0:
313,78,9110,2,0,P|357:66|414:96,1,98.9999969787599
475,168,9938,1,2,0:1:0:0:
205,26,13248,6,0,P|198:63|211:100,1,55,2|0,1:0|0:0,0:0:0:0:
155,120,13662,2,0,P|128:113|101:116,1,55,8|0,0:0|0:0,0:0:0:0:
53,79,14075,2,0,P|55:51|49:25,2,55,2|2|10,0:0|1:2|0:0,0:0:0:0:
8,191,14903,6,0,L|160:214,1,110,2|8,1:0|0:0,0:0:0:0:
209,285,15731,2,0,P|247:280|287:275,1,55,0|0,0:0|1:0,0:0:0:0:
323,267,16144,1,10,0:0:0:0:
424,326,16558,6,0,P|437:356|432:401,2,55,2|0|8,1:0|0:0|0:0,0:0:0:0:
459,209,17386,2,0,P|489:212|513:204,2,55,0|0|8,0:0|1:0|0:0,0:0:0:0:
348,160,18213,1,0,1:0:0:0:
454,102,18627,2,0,P|460:75|449:51,1,55,8|0,0:0|0:0,0:0:0:0:
395,22,19041,2,0,P|375:3|348:1,1,55,0|0,0:0|1:0,0:0:0:0:
288,8,19455,1,8,0:0:0:0:
219,109,19869,6,0,P|190:118|156:105,1,55,2|0,1:0|0:0,0:0:0:0:
112,84,20282,2,0,P|85:78|59:87,1,55,8|0,0:0|0:0,0:0:0:0:
11,124,20696,2,0,P|3:150|6:177,2,55,2|0|8,0:0|1:0|0:0,0:0:0:0:
118,179,21524,6,0,L|117:290,1,110,2|8,1:0|0:0,0:0:0:0:
17,357,22351,2,0,L|5:289,1,55,0|0,0:0|1:0,0:0:0:0:
0,242,22765,1,10,0:0:0:0:
117,288,23179,6,0,P|156:291|189:269,2,55,2|0|8,1:0|0:0|0:0,0:0:0:0:
29,197,24007,2,0,P|9:215|-1:241,2,55,0|0|8,0:0|1:0|0:0,0:0:0:0:
149,182,24834,1,0,1:0:0:0:
237,264,25248,2,0,P|268:271|307:260,1,55,8|0,0:0|0:0,0:0:0:0:
346,243,25662,1,0,0:0:0:0:
462,305,26075,1,0,0:0:0:0:
462,305,26282,1,8,0:0:0:0:
462,305,26489,6,0,P|492:260|484:203,1,98.9999969787599,0|2,1:0|0:0,0:0:0:0:
469,109,27317,1,8,0:0:0:0:
361,90,27731,2,0,P|355:63|363:19,2,49.4999984893799,2|0|0,0:1|0:0|0:0,0:0:0:0:
382,198,28558,2,0,P|332:222|278:208,1,98.9999969787599,10|0,0:0|0:0,0:0:0:0:
242,201,29179,1,0,0:0:0:0:
242,201,29386,1,2,0:1:0:0:
274,97,29800,6,0,P|292:46|269:-3,1,98.9999969787599,0|0,1:0|0:0,0:0:0:0:
183,61,30627,2,0,B|139:63|139:63|126:69|126:69|67:79,1,98.9999969787599,8|0,0:0|0:0,0:0:0:0:
2,5,31455,1,0,0:0:0:0:
2,113,31869,2,0,B|4:157|4:157|10:170|10:170|20:229,1,98.9999969787599,8|0,0:0|0:0,0:0:0:0:
49,260,32489,1,0,0:0:0:0:
49,260,32696,2,0,B|77:251|77:251|114:257,1,49.4999984893799
141,286,33110,6,0,P|192:304|241:281,1,98.9999969787599,0|2,1:0|0:0,0:0:0:0:
318,221,33938,1,8,0:0:0:0:
334,328,34351,2,0,P|334:352|335:381,2,49.4999984893799,2|0|0,0:1|0:0|0:0,0:0:0:0:
232,288,35179,2,0,P|214:237|237:187,1,98.9999969787599,10|0,0:0|0:0,0:0:0:0:
278,170,35800,1,0,0:0:0:0:
278,170,36007,1,2,0:1:0:0:
358,96,36420,6,0,P|427:93|458:122,2,98.9999969787599,0|0|0,1:0|1:0|0:0,0:0:0:0:
261,45,37662,1,8,0:0:0:0:
149,61,38075,1,0,1:0:0:0:
0,356,39731,6,0,P|11:326|0:290,1,55,2|0,1:0|0:0,0:0:0:0:
49,260,40144,2,0,P|82:264|114:253,1,55,8|0,0:0|0:0,0:0:0:0:
149,297,40558,2,0,P|146:324|156:349,2,55,2|2|10,0:0|1:2|0:0,0:0:0:0:
250,230,41386,6,0,P|261:200|250:164,1,55,2|0,1:0|0:0,0:0:0:0:
216,132,41800,1,8,0:0:0:0:
104,85,42213,2,0,P|77:78|51:85,2,55,2|0|10,0:0|1:0|0:0,0:0:0:0:
207,22,43041,6,0,P|237:33|273:22,1,55,2|0,1:0|0:0,0:0:0:0:
317,13,43455,2,0,P|344:10|369:20,1,55,8|0,0:0|0:0,0:0:0:0:
393,76,43869,2,0,P|400:102|393:128,1,55
363,181,44282,1,8,0:0:0:0:
427,283,44696,1,0,1:0:0:0:
60,180,46144,5,2,0:0:0:0:
60,180,46351,2,0,P|57:207|67:232,1,55,2|0,1:0|0:0,0:0:0:0:
120,262,46765,2,0,P|147:264|172:254,1,55,8|0,0:0|0:0,0:0:0:0:
211,208,47179,2,0,P|213:180|203:155,2,55,2|2|10,0:0|1:2|0:0,0:0:0:0:
253,321,48007,6,0,P|280:323|305:313,1,55,2|0,1:0|0:0,0:0:0:0:
353,276,48420,1,8,0:0:0:0:
469,308,48834,2,0,P|479:333|476:360,2,55,2|0|10,0:0|1:0|0:0,0:0:0:0:
419,197,49662,6,0,P|416:169|426:144,1,55,2|0,1:0|0:0,0:0:0:0:
469,102,50075,2,0,P|471:74|461:49,1,55,8|0,0:0|0:0,0:0:0:0:
408,19,50489,2,0,P|381:11|355:18,1,55,0|0,0:0|1:0,0:0:0:0:
309,43,50903,1,8,0:0:0:0:
169,357,52972,6,0,P|137:368|111:361,1,55,2|0,1:0|0:0,0:0:0:0:
64,333,53386,2,0,P|53:301|60:275,1,55,8|0,0:0|0:0,0:0:0:0:
108,248,53800,2,0,P|118:222|114:195,2,55,0|0|10,0:0|1:0|0:0,0:0:0:0:
17,167,54627,1,2,1:0:0:0:
25,46,55041,1,8,0:0:0:0:
145,22,55455,2,0,P|183:27|223:32,1,55,0|0,0:0|1:0,0:0:0:0:
257,46,55868,1,10,0:0:0:0:
350,122,56282,6,0,P|371:112|415:123,2,55,2|0|8,1:0|0:0|0:0,0:0:0:0:
257,201,57110,2,0,P|236:191|192:202,2,55,0|0|8,0:0|1:0|0:0,0:0:0:0:
319,305,57938,1,0,1:0:0:0:
406,221,58351,2,0,P|432:214|456:225,1,55,8|0,0:0|0:0,0:0:0:0:
487,277,58765,2,0,P|493:303|482:327,1,55,2|2,0:0|1:2,0:0:0:0:
428,358,59180,1,10,0:0:0:0:
319,305,59593,6,0,P|287:294|261:301,1,55,2|0,1:0|0:0,0:0:0:0:
211,273,60007,2,0,P|214:246|204:220,1,55,8|0,0:0|0:0,0:0:0:0:
241,173,60420,2,0,P|267:176|293:166,2,55,0|0|10,0:0|1:0|0:0,0:0:0:0:
139,106,61248,1,0,1:0:0:0:
17,105,61662,1,8,0:0:0:0:
0,226,62075,2,0,P|5:264|10:304,1,55,0|0,0:0|1:0,0:0:0:0:
15,340,62489,1,10,0:0:0:0:
92,246,62903,6,0,P|95:218|88:192,2,55,2|0|8,1:0|0:0|0:0,0:0:0:0:
202,295,63731,2,0,P|228:288|255:291,2,55,0|0|10,0:0|1:0|0:0,0:0:0:0:
101,362,64558,1,0,1:0:0:0:
5,287,64972,2,0,P|-2:260|1:233,1,55,8|0,0:0|0:0,0:0:0:0:
29,179,65386,2,0,P|55:172|82:175,1,55,0|8,0:0|0:0,0:0:0:0:
138,201,65800,2,0,P|165:204|191:197,1,55,0|8,0:0|0:0,0:0:0:0:
245,169,66213,5,2,1:0:0:0:
364,188,66627,2,0,L|373:242,1,55,8|0,0:0|0:0,0:0:0:0:
321,275,67041,2,0,P|293:269|267:277,2,55,0|0|10,0:0|0:0|0:0,0:0:0:0:
396,370,67869,1,2,1:0:0:0:
511,333,68282,1,8,0:0:0:0:
500,212,68696,2,0,P|500:159|495:149,1,55,0|0,0:0|1:0,0:0:0:0:
472,104,69109,1,10,0:0:0:0:
352,82,69524,6,0,P|325:75|299:82,2,55,2|0|8,1:0|0:0|0:0,0:0:0:0:
455,19,70351,2,0,P|482:22|508:15,2,55,0|0|8,0:0|1:0|0:0,0:0:0:0:
334,2,71179,1,0,1:0:0:0:
237,74,71593,2,0,P|210:67|183:70,1,55,8|0,0:0|0:0,0:0:0:0:
134,105,72007,2,0,P|127:131|130:158,1,55,2|2,0:0|1:2,0:0:0:0:
150,215,72420,1,10,0:0:0:0:
248,285,72834,6,0,P|259:317|252:343,1,55,2|0,1:0|0:0,0:0:0:0:
303,373,73248,2,0,P|329:365|356:371,1,55,8|0,0:0|0:0,0:0:0:0:
391,321,73662,2,0,P|387:294|397:268,2,55,0|0|10,0:0|1:0|0:0,0:0:0:0:
497,263,74489,1,2,1:0:0:0:
482,142,74903,1,8,0:0:0:0:
368,100,75317,2,0,P|330:105|290:110,1,55,0|0,0:0|1:0,0:0:0:0:
253,117,75730,1,10,0:0:0:0:
145,58,76144,6,0,P|142:30|149:4,2,55,2|0|8,1:0|0:0|0:0,0:0:0:0:
53,137,76971,2,0,P|26:134|0:141,2,55,0|0|10,0:0|1:0|0:0,0:0:0:0:
168,176,77800,1,0,0:0:0:0:
