osu file format v14

[General]
AudioFilename: audio.mp3
AudioLeadIn: 2000
PreviewTime: 166930
Countdown: 0
SampleSet: Soft
StackLeniency: 0.7
Mode: 0
LetterboxInBreaks: 0
WidescreenStoryboard: 0

[Editor]
Bookmarks: 36729,53000,85543,117990,134356,150659
DistanceSpacing: 1.28
BeatDivisor: 16
GridSize: 32
TimelineZoom: 4.299998

[Metadata]
Title:Worship
TitleUnicode:Worship
Artist:Years & Years
ArtistUnicode:Years & Years
Creator:vivicat
Version:Yusomi's Expert
Source:
Tags:english pop Communion (Deluxe) Electronica Olly Alexander Mikey Goldsworthy Emre Turkmen Beren Yusomi ruchuers Puvn
BeatmapID:2851406
BeatmapSetID:1352008

[Difficulty]
HPDrainRate:4
CircleSize:3
OverallDifficulty:8
ApproachRate:9.5
SliderMultiplier:2.5
SliderTickRate:1

[Events]
//Background and Video events
0,0,"bg.jpg",0,0
//Break Periods
//Storyboard Layer 0 (Background)
//Storyboard Layer 1 (Fail)
//Storyboard Layer 2 (Pass)
//Storyboard Layer 3 (Foreground)
//Storyboard Layer 4 (Overlay)
//Storyboard Sound Samples

[TimingPoints]
151,508.474576271186,4,2,0,30,1,0
4219,-100,4,2,0,70,0,0
16422,-100,4,2,0,80,0,0
19980,-75.0000187500047,4,2,0,80,0,0
20489,-100,4,2,0,80,0,0
36761,-166.666666666667,4,2,1,70,0,0
38794,-125,4,2,1,70,0,0
40319,-100,4,2,1,70,0,0
42862,-83.3333333333333,4,2,1,70,0,0
44387,-62.5,4,2,1,70,0,0
44896,-133.333333333333,4,1,0,80,0,0
48455,-100,4,1,0,80,0,0
48709,-81.9672131147541,4,1,0,80,0,0
50998,-200,4,3,1,60,0,0
52014,-66.6666666666667,4,3,1,60,0,0
52046,-66.6666666666667,4,3,1,60,0,0
52268,-66.6666666666667,4,3,1,60,0,0
52395,-66.6666666666667,4,3,1,60,0,0
52523,-833.333333333333,4,3,0,60,0,0
53032,-50,4,2,2,100,0,1
60658,-28.5714285714286,4,2,2,100,0,1
60912,-200,4,2,2,100,0,1
61548,-50,4,2,2,100,0,1
69048,-37.037037037037,4,2,2,100,0,1
69303,-100,4,3,0,90,0,0
70828,-55.5555555555556,4,3,0,90,0,0
71336,-100,4,3,0,90,0,0
72862,-55.5555555555556,4,3,0,90,0,0
73370,-100,4,3,0,90,0,0
74895,-55.5555555555556,4,3,0,90,0,0
75150,-33.3333333333333,4,3,0,90,0,0
75404,-50,4,3,0,90,0,0
77184,-37.037037037037,4,3,0,90,0,0
77438,-100,4,3,0,90,0,0
78963,-55.5555555555556,4,3,0,90,0,0
79472,-100,4,3,0,90,0,0
80997,-55.5555555555556,4,3,0,90,0,0
81506,-100,4,3,0,90,0,0
83031,-55.5555555555556,4,3,0,90,0,0
83540,-100,4,3,0,90,0,0
84302,-55.5555555555556,4,3,0,90,0,0
85066,-133.333333333333,4,2,0,80,0,0
85573,-100,4,2,0,80,0,0
91929,-66.6666666666667,4,2,0,80,0,0
92438,-192.307692307692,4,2,0,80,0,0
93137,-192.307692307692,4,2,0,80,0,0
93200,-192.307692307692,4,2,0,80,0,0
93709,-100,4,2,0,80,0,0
108963,-66.6666666666667,4,2,0,80,0,0
109472,-50,4,2,0,80,0,0
109980,-100,4,2,0,80,0,0
116082,-500,4,2,0,80,0,0
116083,-500,4,3,1,60,0,0
117099,-66.6666666666667,4,3,1,60,0,0
117130,-66.6666666666667,4,3,1,60,0,0
117353,-66.6666666666667,4,3,1,60,0,0
117480,-66.6666666666667,4,3,1,60,0,0
117607,-833.333333333333,4,3,1,60,0,0
118117,-50,4,2,2,100,0,1
125743,-28.5714285714286,4,2,2,100,0,1
125997,-200,4,2,2,100,0,1
126760,-50,4,2,2,100,0,1
134133,-37.037037037037,4,2,2,100,0,1
134388,-76.9230769230769,4,2,0,90,0,0
136675,-125,4,2,0,90,0,0
137438,-83.3333333333333,4,2,0,90,0,0
138455,-76.9230769230769,4,2,0,90,0,0
140743,-125,4,2,0,90,0,0
141506,-83.3333333333333,4,2,0,90,0,0
142523,-57.1428571428571,4,2,0,90,0,0
142904,-66.6666666666667,4,2,0,90,0,0
143540,-100,4,2,0,90,0,0
144556,-57.1428571428571,4,2,0,90,0,0
144938,-66.6666666666667,4,2,0,90,0,0
145573,-125,4,2,0,90,0,0
146590,-100,4,2,0,90,0,0
150405,-149.925037481259,4,2,1,80,0,0
151167,-166.666666666667,4,2,1,70,0,0
154727,-149.925037481259,4,2,1,75,0,0
158795,-133.333333333333,4,2,1,80,0,0
162863,-133.333333333333,4,2,1,85,0,0
166421,-120.481927710843,4,2,1,85,0,0
166930,-50,4,2,2,100,0,1
174556,-28.5714285714286,4,2,2,100,0,1
174811,-200,4,2,2,100,0,1
175446,-50,4,2,2,100,0,1
182946,-37.037037037037,4,2,2,100,0,1
183201,-50,4,2,2,100,0,1
190828,-28.5714285714286,4,2,2,100,0,1
191082,-200,4,2,2,100,0,1
191717,-50,4,2,2,100,0,1
198963,-37.037037037037,4,2,2,100,0,1
199473,-66.6666666666667,4,2,0,90,0,0
203031,-40,4,2,0,90,0,0
205065,-66.6666666666667,4,2,0,90,0,0
213201,-40,4,2,0,90,0,0
215234,-133.333333333333,4,2,0,90,0,0

[Colours]
Combo1 : 235,210,220
Combo2 : 120,142,177
Combo3 : 35,79,158
Combo4 : 146,180,198

[HitObjects]
122,362,4218,5,4,3:2:0:0:
122,362,4345,1,0,3:0:0:0:
122,362,4473,1,0,3:0:0:0:
25,328,4600,1,0,3:0:0:0:
192,294,4727,1,8,3:2:0:0:
256,369,4981,5,0,3:0:0:0:
259,373,5489,1,0,3:2:0:0:
359,347,5744,2,0,B|424:359|424:359|463:315,1,125,10|0,0:2|3:3,0:0:0:0:
390,247,6252,5,0,3:0:0:0:
390,247,6379,1,0,3:0:0:0:
390,247,6506,1,0,3:0:0:0:
487,213,6634,1,0,3:0:0:0:
320,179,6761,1,8,3:2:0:0:
256,254,7015,5,0,3:0:0:0:
259,258,7523,1,0,3:2:0:0:
153,232,7778,2,0,B|88:244|88:244|49:200,1,125,10|0,0:2|3:0,0:0:0:0:
122,132,8286,5,0,3:0:0:0:
122,132,8413,1,0,3:0:0:0:
122,132,8540,1,0,3:0:0:0:
25,98,8667,1,0,3:0:0:0:
192,64,8795,1,8,3:2:0:0:
256,139,9049,5,0,3:0:0:0:
259,143,9557,1,0,3:2:0:0:
446,14,9812,1,10,0:2:0:0:
338,48,10066,2,0,L|371:169,1,125,0|0,3:2|3:0,0:0:0:0:
500,287,10574,2,0,B|514:221|514:221|456:196,1,125,0|8,3:0|3:2,0:0:0:0:
503,291,11083,2,0,L|272:384,2,250,2|2|2,3:2|3:2|3:2,0:0:0:0:
343,328,12354,6,0,P|374:329|404:338,1,62.5,0|0,3:0|3:0,0:0:0:0:
255,264,12608,2,0,L|265:197,1,62.5,0|0,3:0|3:0,0:0:0:0:
152,299,12862,2,0,P|90:290|33:313,1,125,8|0,3:2|0:0,0:0:0:0:
33,312,13625,1,0,3:2:0:0:
36,316,14134,6,0,P|86:280|115:224,1,125,0|0,3:2|3:0,0:0:0:0:
117,229,14515,1,0,3:0:0:0:
120,233,14642,1,0,3:0:0:0:
22,190,14769,1,0,3:0:0:0:
167,144,14896,1,8,3:2:0:0:
259,20,15150,6,0,B|243:100|270:119|252:206,1,187.5,2|0,3:2|0:0,0:0:0:0:
256,211,15659,1,2,3:2:0:0:
196,297,15913,2,0,P|255:315|315:298,1,125,10|0,3:2|0:0,0:0:0:0:
472,76,16422,5,6,3:2:0:0:
211,51,16676,1,2,0:3:0:0:
298,27,16803,1,2,3:2:0:0:
408,139,17057,1,2,0:0:0:0:
321,115,17184,1,2,3:3:0:0:
256,178,17439,1,2,3:2:0:0:
324,119,17693,1,2,3:3:0:0:
386,52,17947,1,10,3:2:0:0:
259,182,18201,1,2,0:3:0:0:
40,76,18456,5,2,3:2:0:0:
301,51,18710,1,2,0:3:0:0:
214,27,18837,1,2,3:2:0:0:
104,139,19091,1,2,0:0:0:0:
191,115,19218,1,2,3:3:0:0:
256,178,19473,1,2,1:3:0:0:
126,52,19727,2,0,L|90:-14,1,62.5,0|0,1:3|0:0,0:0:0:0:
120,345,19981,2,0,B|137:341|137:341|191:115,1,249.99994913738,2|0,1:3|0:0,0:0:0:0:
390,22,20489,5,4,3:2:0:0:
394,26,20617,1,0,3:0:0:0:
398,30,20744,1,0,3:0:0:0:
487,56,20871,1,0,3:0:0:0:
320,90,20998,1,8,3:2:0:0:
256,15,21252,5,0,3:0:0:0:
259,19,21761,1,0,3:2:0:0:
153,37,22015,2,0,B|88:25|88:25|49:69,1,125,10|0,0:2|3:0,0:0:0:0:
122,137,22523,5,0,3:0:0:0:
126,141,22650,1,0,3:0:0:0:
130,145,22778,1,0,3:0:0:0:
25,171,22905,1,0,3:0:0:0:
192,205,23032,1,8,3:2:0:0:
256,130,23286,5,0,3:0:0:0:
260,134,23795,1,0,3:2:0:0:
359,152,24049,2,0,B|424:140|424:140|463:184,1,125,10|0,0:2|3:0,0:0:0:0:
390,252,24557,5,0,3:0:0:0:
394,256,24684,1,0,3:0:0:0:
398,260,24812,1,0,3:0:0:0:
487,286,24939,1,0,3:0:0:0:
320,320,25066,1,8,3:2:0:0:
256,245,25320,5,0,3:0:0:0:
260,249,25828,1,0,3:2:0:0:
66,370,26083,1,10,0:0:0:0:
174,336,26337,2,0,L|140:215,1,125,0|0,3:0|3:0,0:0:0:0:
12,97,26845,2,0,B|-2:163|-2:163|56:188,1,125,0|8,3:0|3:2,0:0:0:0:
15,101,27354,2,0,L|246:8,2,250,2|2|0,3:2|3:2|3:2,0:0:0:0:
169,56,28625,6,0,P|138:55|108:46,1,62.5,0|0,3:0|3:0,0:0:0:0:
257,120,28879,2,0,L|247:187,1,62.5,0|0,3:0|3:0,0:0:0:0:
360,85,29134,2,0,P|422:94|479:71,1,125,8|0,3:2|0:0,0:0:0:0:
478,71,29896,1,2,3:2:0:0:
482,75,30405,2,0,L|346:87,1,125,2|0,3:2|3:0,0:0:0:0:
243,217,30913,1,0,3:0:0:0:
202,178,31040,1,0,3:0:0:0:
296,200,31167,2,0,L|358:194,1,62.5,8|0,3:2|0:0,0:0:0:0:
451,188,31422,1,2,3:2:0:0:
454,192,31930,5,2,3:2:0:0:
296,200,32184,2,0,L|290:137,1,62.5,10|0,3:2|0:0,0:0:0:0:
364,268,32439,1,0,3:2:0:0:
40,308,32693,5,6,3:2:0:0:
301,333,32947,1,2,0:3:0:0:
214,357,33074,1,2,3:2:0:0:
104,245,33328,1,2,0:0:0:0:
191,269,33456,1,2,3:3:0:0:
256,206,33710,1,2,3:2:0:0:
195,273,33964,1,2,3:3:0:0:
126,332,34218,1,10,3:2:0:0:
253,202,34473,1,2,0:3:0:0:
472,308,34727,5,2,3:2:0:0:
211,333,34981,1,2,0:3:0:0:
298,357,35108,1,2,3:2:0:0:
408,245,35362,1,2,0:0:0:0:
321,269,35489,1,2,3:3:0:0:
256,206,35744,1,2,1:2:0:0:
386,332,35998,2,0,L|422:398,1,62.5,2|0,1:3|0:0,0:0:0:0:
392,39,36252,6,0,B|375:43|375:43|344:169|344:169|433:144|433:144|435:134,1,250,10|6,1:2|0:0,0:0:0:0:
435,134,37269,6,0,L|285:121,1,149.999995422363,10|2,0:0|0:0,0:0:0:0:
289,125,38032,1,2,0:0:0:0:
200,167,38286,2,0,P|193:203|168:231,1,74.9999977111817,10|2,0:0|0:0,0:0:0:0:
8,352,38795,6,0,L|212:311,2,200,2|10|2,0:0|0:0|0:0,0:0:0:0:
292,328,40066,1,0,0:0:0:0:
346,115,40320,2,0,P|328:140|327:170,1,62.5,10|0,0:0|0:0,0:0:0:0:
296,332,40574,6,0,B|304:268|270:222|217:273|215:119|274:52|274:52|184:108|181:-34|36:119|67:201|241:258|300:172|186:169|274:48|485:114|451:220|394:233|341:213|327:170,1,875,0|10,0:0|0:0,0:0:0:0:
327,170,42862,6,0,P|356:101|422:101,1,149.999995422363,2|0,0:0|0:0,0:0:0:0:
314,328,43371,2,0,P|285:259|210:250,1,149.999995422363,10|0,0:0|0:0,0:0:0:0:
65,379,43879,2,0,P|137:357|212:353,1,149.999995422363,2|0,0:0|0:0,0:0:0:0:
464,240,44388,6,0,B|421:245|379:86|200:156,1,300,10|0,0:0|0:0,0:0:0:0:
173,170,44896,5,0,1:0:0:0:
42,316,45278,1,0,1:0:0:0:
133,336,45405,2,0,L|120:243,1,93.7500035762788,8|0,3:2|0:0,0:0:0:0:
120,243,46167,2,0,L|126:289,1,46.8750017881394,0|0,0:0|0:0,0:0:0:0:
222,366,46422,2,0,P|266:377|310:361,1,93.7500035762788,8|0,2:0|2:3,0:0:0:0:
373,288,46930,6,0,L|393:101,2,187.500007152558,0|8|0,0:0|3:2|2:0,0:0:0:0:
495,55,48201,1,0,0:0:0:0:
492,379,48456,2,0,P|479:348|459:325,1,62.5,8|0,3:2|0:0,0:0:0:0:
270,254,48710,6,0,B|362:156|446:301|521:134|452:29|374:48|196:152|330:129|155:305|27:195|192:143|192:143|177:3|386:10|440:200|267:183|373:288,1,1067.49995602036,0|8,2:3|3:2,0:0:0:0:
372,287,50744,1,0,2:3:0:0:
400,377,50998,6,0,P|369:381|339:372,2,62.5,2|2|0,3:3|3:3|3:0,0:0:0:0:
291,299,52015,6,0,P|281:306|274:315,1,23.4375008940697,2|0,3:3|0:0,0:0:0:0:
183,331,52269,6,0,P|155:295|110:291,1,93.7500035762788,2|0,3:3|2:0,0:0:0:0:
69,213,52523,6,0,L|82:190,1,22.5000005493164,0|0,3:0|2:0,0:0:0:0:
110,291,53032,6,0,P|215:289|165:197,1,250,4|2,1:0|2:3,0:0:0:0:
159,35,53413,1,0,1:0:0:0:
110,291,53540,2,0,P|210:220|230:99,1,250,10|0,0:2|1:3,0:0:0:0:
392,383,54049,2,0,P|314:293|355:181,1,250,2|2,0:2|1:3,0:0:0:0:
301,0,54557,2,0,P|311:59|365:85,1,125,10|0,0:2|0:0,0:0:0:0:
393,384,54812,2,0,P|439:345|434:285,1,125,0|0,1:3|0:0,0:0:0:0:
209,14,55066,5,0,1:0:0:0:
138,65,55447,5,0,1:0:0:0:
181,371,55574,2,0,P|205:315|202:253,1,125,10|0,0:2|0:0,0:0:0:0:
56,22,55828,1,0,1:3:0:0:
47,367,56083,2,0,L|308:316,1,250,2|0,0:2|1:3,0:0:0:0:
218,106,56591,2,0,B|225:99|225:99|491:135,1,250,10|0,1:2|1:3,0:0:0:0:
218,216,57100,5,0,1:0:0:0:
131,183,57481,5,0,1:0:0:0:
412,254,57608,1,10,0:2:0:0:
471,330,57862,5,0,1:3:0:0:
313,35,58117,2,0,P|373:19|433:32,1,125,2|0,0:2|0:0,0:0:0:0:
277,370,58371,2,0,P|216:383|156:367,1,125,2|0,1:2|0:0,0:0:0:0:
186,60,58625,1,8,1:2:0:0:
277,370,58879,2,0,B|313:340|313:340|338:151|186:60,1,375,2|0,1:2|0:0,0:0:0:0:
9,185,59388,1,2,0:2:0:0:
66,366,59515,2,0,L|85:223,1,125,0|8,1:0|0:2,0:0:0:0:
83,242,59896,6,0,P|235:344|417:325,1,250,2|2,1:2|3:2,0:0:0:0:
493,278,60405,1,0,1:0:0:0:
42,153,60659,6,0,L|260:136,1,218.750002086163,10|2,3:2|3:2,0:0:0:0:
492,44,60913,6,0,L|430:33,1,62.5,0|4,1:0|1:0,0:0:0:0:
430,33,61549,5,0,1:0:0:0:
425,324,61676,2,0,P|349:231|374:99,1,250,10|0,0:2|1:3,0:0:0:0:
109,371,62184,2,0,P|218:319|251:202,1,250,2|0,0:2|1:3,0:0:0:0:
92,25,62693,2,0,B|84:42|84:42|130:268,1,250,10|0,1:2|1:3,0:0:0:0:
191,137,63074,1,0,0:0:0:0:
18,354,63201,1,0,1:0:0:0:
38,269,63456,5,2,0:3:0:0:
213,313,63583,1,0,1:0:0:0:
385,257,63710,2,0,P|382:134|312:33,1,250,10|0,0:2|1:3,0:0:0:0:
340,334,64218,2,0,B|305:377|266:383|266:383|246:294|302:225,1,250,2|0,0:2|1:3,0:0:0:0:
429,64,64727,2,0,P|373:36|311:32,1,125,10|0,1:2|0:0,0:0:0:0:
145,307,64981,2,0,P|89:335|27:339,1,125,0|0,1:3|0:0,0:0:0:0:
72,36,65235,5,0,1:0:0:0:
9,102,65489,5,2,0:3:0:0:
323,112,65617,1,0,1:0:0:0:
161,41,65744,1,10,0:2:0:0:
198,384,65998,2,0,P|238:337|236:276,1,125,0|0,1:3|0:0,0:0:0:0:
253,18,66252,1,2,0:2:0:0:
231,105,66379,1,0,0:0:0:0:
272,191,66506,2,0,P|329:215|394:211,1,125,0|0,1:3|0:0,0:0:0:0:
53,349,66761,5,8,0:1:0:0:
56,353,67015,2,0,P|110:323|146:272,1,125,0|0,1:3|0:0,0:0:0:0:
165,22,67269,1,2,1:2:0:0:
134,109,67523,5,2,0:3:0:0:
236,276,67650,1,0,1:0:0:0:
256,22,67778,1,10,0:2:0:0:
326,288,68032,2,0,P|352:344|401:384,1,125,0|0,1:0|0:0,0:0:0:0:
481,74,68286,1,2,0:2:0:0:
412,0,68413,1,0,0:0:0:0:
382,95,68540,2,0,B|372:192|372:192|381:217,1,125,0|0,1:3|0:0,0:0:0:0:
165,22,68795,1,10,1:2:0:0:
66,367,69049,6,0,B|207:353|207:353|224:333,1,168.75000064373,2|0,1:3|0:0,0:0:0:0:
0,297,69303,5,4,1:0:0:0:
70,371,69684,5,0,1:0:0:0:
26,21,69812,2,0,L|42:144,1,125,8|0,0:2|1:0,0:0:0:0:
42,145,70320,2,0,L|77:93,2,62.5,0|0|0,0:0|0:0|1:3,0:0:0:0:
63,233,70828,2,0,B|162:243|162:243|177:232,1,112.499996566773,8|0,1:2|0:0,0:0:0:0:
193,143,71083,2,0,B|157:49|157:49|160:37,1,112.499996566773,0|0,1:0|0:0,0:0:0:0:
247,27,71337,5,0,1:0:0:0:
196,147,71718,5,0,1:0:0:0:
512,103,71845,2,0,L|389:119,1,125,8|0,0:2|1:0,0:0:0:0:
388,119,72354,2,0,L|427:70,2,62.5,0|0|0,0:0|0:0|1:3,0:0:0:0:
298,108,72862,2,0,B|288:122|288:122|313:217,1,112.499996566773,8|0,1:2|0:0,0:0:0:0:
372,300,73117,2,0,B|419:216|419:216|426:230,1,112.499996566773,0|0,1:0|0:0,0:0:0:0:
469,309,73371,5,0,1:0:0:0:
376,304,73752,5,0,1:0:0:0:
169,365,73879,2,0,L|293:353,1,125,8|0,0:2|1:0,0:0:0:0:
294,353,74388,2,0,L|244:317,2,62.5,0|0|0,0:0|0:0|1:3,0:0:0:0:
54,359,74896,2,0,B|79:352|79:352|114:272,1,112.499996566773,8|0,1:2|0:0,0:0:0:0:
198,236,75150,6,0,P|156:153|138:56,1,187.500007152558,0|0,1:0|0:0,0:0:0:0:
136,61,75405,6,0,B|112:88|112:88|132:1,1,125,2|0,1:2|0:0,0:0:0:0:
392,43,75659,1,0,0:2:0:0:
231,84,75786,1,0,1:0:0:0:
486,80,75913,1,10,0:2:0:0:
39,165,76167,2,0,L|162:146,1,125,0|0,1:2|2:0,0:0:0:0:
415,138,76422,1,2,3:2:0:0:
321,101,76549,1,2,3:2:0:0:
264,178,76676,2,0,B|278:275|278:275|300:290,1,125,0|0,1:0|2:0,0:0:0:0:
207,339,76930,2,0,L|84:320,1,125,10|2,3:2|3:2,0:0:0:0:
387,355,77184,6,0,B|418:223|418:223|382:239,1,168.75000064373,0|0,1:0|0:0,0:0:0:0:
292,384,77439,5,4,1:0:0:0:
300,290,77820,5,0,1:0:0:0:
482,74,77947,2,0,L|466:197,1,125,8|0,0:2|1:0,0:0:0:0:
466,198,78456,2,0,L|431:146,2,62.5,0|0|0,0:0|0:0|1:3,0:0:0:0:
445,286,78964,2,0,B|346:296|346:296|335:289,1,112.499996566773,8|0,1:2|0:0,0:0:0:0:
315,196,79218,2,0,B|351:102|351:102|348:90,1,112.499996566773,0|0,1:0|0:0,0:0:0:0:
261,80,79473,5,0,1:0:0:0:
318,200,79854,5,0,1:0:0:0:
0,103,79981,2,0,L|123:119,1,125,8|0,0:2|1:0,0:0:0:0:
124,119,80489,2,0,L|85:70,2,62.5,0|0|0,0:0|0:0|1:3,0:0:0:0:
214,108,80998,2,0,B|224:122|224:122|199:213,1,112.499996566773,8|0,1:2|0:0,0:0:0:0:
140,300,81252,2,0,B|93:216|93:216|86:230,1,112.499996566773,0|0,1:0|0:0,0:0:0:0:
43,309,81506,5,0,1:0:0:0:
143,304,81888,5,0,1:0:0:0:
343,365,82015,2,0,L|219:353,1,125,8|0,0:2|1:0,0:0:0:0:
218,353,82523,2,0,L|268:317,2,62.5,0|0|0,0:0|0:0|1:3,0:0:0:0:
458,359,83032,2,0,B|433:352|433:352|398:272,1,112.499996566773,8|0,1:2|0:0,0:0:0:0:
368,186,83286,2,0,B|461:146|461:146|469:153,1,112.499996566773,0|0,1:0|0:0,0:0:0:0:
491,245,83540,5,0,1:0:0:0:
461,363,83922,5,0,1:0:0:0:
404,75,84049,2,0,L|429:17,1,62.5,8|0,0:2|2:0,0:0:0:0:
368,186,84303,6,0,B|432:168|432:168|266:147,1,224.999993133545,0|2,1:0|0:2,0:0:0:0:
275,148,85066,6,0,B|250:154|376:247|352:255,1,140.625005364418,2|0,0:0|0:0,0:0:0:0:
319,375,85574,5,4,3:2:0:0:
323,379,85701,1,0,3:0:0:0:
327,383,85828,1,0,3:0:0:0:
509,293,85956,1,0,3:0:0:0:
428,360,86083,1,8,3:2:0:0:
256,307,86337,5,0,3:0:0:0:
260,311,86845,1,0,3:2:0:0:
38,283,87100,1,10,3:2:0:0:
138,384,87354,2,0,L|146:322,1,62.5,0|0,3:0|0:0,0:0:0:0:
185,237,87608,5,0,3:0:0:0:
189,241,87735,1,0,3:0:0:0:
193,245,87862,1,0,3:0:0:0:
3,155,87989,1,0,3:0:0:0:
84,222,88117,1,8,3:2:0:0:
256,169,88371,5,0,3:0:0:0:
256,319,88625,1,2,0:0:0:0:
260,173,88879,1,0,3:2:0:0:
474,145,89134,1,10,3:2:0:0:
373,246,89388,2,0,L|365:183,1,62.5,0|0,3:0|0:0,0:0:0:0:
318,98,89642,5,0,3:0:0:0:
322,102,89769,1,0,3:0:0:0:
326,106,89896,1,0,3:0:0:0:
508,16,90023,1,0,3:0:0:0:
427,83,90150,1,8,3:2:0:0:
255,30,90405,5,0,0:0:0:0:
259,34,90913,1,0,3:2:0:0:
37,6,91167,1,10,0:2:0:0:
138,107,91422,2,0,L|145:44,1,62.5,2|0,2:0|0:0,0:0:0:0:
145,45,91930,6,0,B|110:36|121:87|152:128|157:106|193:141|215:196|183:184,1,187.500007152558,2|0,2:0|0:0,0:0:0:0:
182,183,92439,6,0,B|204:309|207:219|229:354,1,162.499999008179,2|0,2:0|0:0,0:0:0:0:
229,354,93201,5,8,0:2:0:0:
136,350,93456,2,0,P|132:335|128:319,1,32.4999998016357,0|0,3:0|0:0,0:0:0:0:
41,345,93710,5,0,3:0:0:0:
132,323,93837,1,0,3:0:0:0:
210,269,93964,1,0,3:0:0:0:
125,229,94091,5,0,3:0:0:0:
295,309,94218,1,8,3:2:0:0:
380,349,94473,5,0,0:0:0:0:
384,353,94981,1,2,3:2:0:0:
376,206,95235,2,0,P|360:233|359:264,1,62.5,8|0,3:2|0:0,0:0:0:0:
388,357,95489,1,2,3:2:0:0:
471,233,95744,5,0,3:0:0:0:
380,211,95871,1,0,3:0:0:0:
302,157,95998,1,0,3:0:0:0:
387,117,96125,5,0,3:0:0:0:
217,197,96252,1,8,3:2:0:0:
131,237,96506,6,0,P|121:300|131:362,1,125,2|0,3:2|0:0,0:0:0:0:
122,352,97015,1,2,3:2:0:0:
126,356,97142,1,0,0:0:0:0:
130,359,97269,2,0,P|162:355|192:359,1,62.5,8|0,3:2|0:0,0:0:0:0:
136,241,97523,2,0,P|105:244|74:240,1,62.5,2|0,3:2|0:0,0:0:0:0:
40,121,97778,5,0,3:0:0:0:
131,99,97905,1,0,3:2:0:0:
209,45,98032,1,0,3:0:0:0:
124,5,98159,5,0,3:0:0:0:
294,85,98286,1,8,0:2:0:0:
379,125,98540,5,2,3:2:0:0:
383,129,99049,1,2,3:2:0:0:
129,129,99303,1,10,0:0:0:0:
256,0,99557,2,0,L|256:62,1,62.5,0|0,3:2|0:0,0:0:0:0:
168,256,99812,5,0,3:0:0:0:
256,288,99939,1,0,3:0:0:0:
344,256,100066,1,0,3:0:0:0:
256,192,100193,5,0,3:0:0:0:
256,68,100320,1,8,3:2:0:0:
260,196,100574,5,0,3:0:0:0:
69,33,100828,5,2,1:2:0:0:
443,33,101083,1,2,1:2:0:0:
447,37,101210,1,0,0:0:0:0:
349,41,101337,2,0,L|425:60,1,62.5,2|0,1:2|3:0,0:0:0:0:
466,344,101591,2,0,L|405:328,1,62.5,0|0,3:0|0:0,0:0:0:0:
394,143,101845,5,4,3:2:0:0:
480,192,101973,1,0,3:0:0:0:
395,242,102100,1,0,3:0:0:0:
484,196,102227,5,0,3:0:0:0:
308,193,102354,2,0,P|305:224|306:255,1,62.5,8|0,3:2|0:0,0:0:0:0:
125,365,102608,2,0,P|122:333|123:302,1,62.5,0|0,3:0|0:0,0:0:0:0:
203,193,102862,2,0,P|206:224|205:255,1,62.5,2|0,3:2|0:0,0:0:0:0:
256,360,103117,1,2,3:2:0:0:
260,364,103244,1,0,0:0:0:0:
387,365,103371,2,0,P|389:333|388:302,1,62.5,10|0,3:2|0:0,0:0:0:0:
388,302,103625,1,0,3:0:0:0:
118,143,103879,5,0,3:0:0:0:
32,192,104006,1,0,3:0:0:0:
117,242,104134,1,0,3:0:0:0:
36,196,104261,5,0,3:0:0:0:
203,193,104388,1,8,3:2:0:0:
119,45,104642,1,0,0:0:0:0:
116,341,104896,1,2,3:2:0:0:
119,344,105150,2,0,P|150:342|177:326,1,62.5,0|0,3:2|0:0,0:0:0:0:
422,134,105405,1,10,0:2:0:0:
407,235,105659,2,0,P|376:232|349:216,1,62.5,0|0,3:0|0:0,0:0:0:0:
190,124,105913,5,0,3:0:0:0:
256,5,106040,1,0,3:0:0:0:
322,124,106167,1,0,3:0:0:0:
260,9,106295,5,0,3:0:0:0:
256,192,106422,2,0,L|256:261,1,62.5,8|0,3:2|0:0,0:0:0:0:
105,235,106676,2,0,P|135:232|162:216,1,62.5,0|0,3:0|0:0,0:0:0:0:
166,220,107184,1,2,3:2:0:0:
104,150,107312,1,0,0:0:0:0:
21,195,107439,2,0,B|12:215|12:215|21:317,1,125,10|0,0:2|0:0,0:0:0:0:
339,334,107947,5,0,3:0:0:0:
256,379,108074,1,0,3:0:0:0:
173,334,108201,1,0,3:0:0:0:
260,383,108328,5,0,3:0:0:0:
256,289,108456,2,0,L|256:164,1,125,8|0,3:2|0:0,0:0:0:0:
428,375,108964,6,0,B|441:204|441:204|431:191,1,187.500007152558,2|0,3:2|3:0,0:0:0:0:
84,203,109473,6,0,B|78:193|78:193|100:-16|100:-16|109:10,1,250,10|0,0:0|3:0,0:0:0:0:
183,192,109981,5,0,3:0:0:0:
155,277,110108,1,0,3:0:0:0:
67,296,110235,1,0,3:0:0:0:
214,344,110362,5,0,3:0:0:0:
158,281,110489,2,0,P|168:251|173:220,1,62.5,8|0,3:2|0:0,0:0:0:0:
315,120,110744,2,0,L|375:104,1,62.5,0|0,0:2|0:0,0:0:0:0:
353,281,110998,2,0,P|343:251|338:220,1,62.5,2|0,3:2|0:0,0:0:0:0:
256,32,111252,1,2,3:2:0:0:
260,36,111379,1,0,0:0:0:0:
197,120,111506,2,0,L|136:104,1,62.5,10|0,3:2|0:0,0:0:0:0:
136,104,111761,1,0,3:0:0:0:
329,192,112015,5,0,3:0:0:0:
357,277,112142,1,0,3:0:0:0:
445,296,112269,1,0,3:0:0:0:
298,344,112396,5,0,3:0:0:0:
361,281,112523,1,8,3:2:0:0:
389,126,112778,1,0,3:0:0:0:
472,380,113032,1,2,0:0:0:0:
475,383,113286,2,0,P|444:380|417:363,1,62.5,0|0,3:0|0:0,0:0:0:0:
64,266,113540,1,10,3:2:0:0:
135,324,113795,2,0,P|166:322|193:305,1,62.5,0|0,2:0|0:0,0:0:0:0:
256,140,114049,5,0,3:0:0:0:
256,50,114176,1,0,3:0:0:0:
334,5,114303,1,0,3:0:0:0:
179,5,114430,5,0,3:0:0:0:
260,54,114557,2,0,L|260:116,1,62.5,8|0,3:2|0:0,0:0:0:0:
78,69,114812,2,0,P|92:96|102:126,1,62.5,0|0,0:2|0:0,0:0:0:0:
389,132,115066,2,0,P|374:159|366:189,1,62.5,2|0,0:2|0:2,0:0:0:0:
172,261,115320,1,2,3:2:0:0:
176,265,115447,1,0,0:0:0:0:
188,178,115574,2,0,L|193:240,1,62.5,10|0,3:2|0:0,0:0:0:0:
373,287,115828,2,0,L|361:348,1,62.5,0|0,3:0|0:0,0:0:0:0:
256,384,116083,6,0,B|256:351|256:351|251:343|251:343|260:343|260:343|256:334|256:334|256:301,1,87.5,2|0,3:3|2:0,0:0:0:0:
255,293,117100,6,0,P|270:287|291:288,1,23.4375008940697,2|0,3:3|0:0,0:0:0:0:
367,337,117354,6,0,P|395:301|440:297,1,93.7500035762788,2|0,3:3|2:0,0:0:0:0:
475,212,117608,6,0,L|462:189,1,22.5000005493164,0|0,0:0|2:0,0:0:0:0:
440,297,118117,6,0,P|335:305|375:209,1,250,4|2,1:0|0:3,0:0:0:0:
377,55,118498,1,0,1:0:0:0:
440,297,118625,2,0,P|335:235|302:95,1,250,10|0,0:2|1:3,0:0:0:0:
49,367,119134,2,0,P|167:339|226:233,1,250,2|2,0:2|1:3,0:0:0:0:
160,42,119642,2,0,P|158:102|205:139,1,125,10|0,1:2|0:0,0:0:0:0:
407,384,119896,2,0,P|359:344|298:331,1,125,0|0,1:3|0:0,0:0:0:0:
8,276,120150,5,0,1:0:0:0:
53,371,120532,5,0,1:1:0:0:
61,7,120659,2,0,P|29:60|23:122,1,125,10|0,0:2|0:0,0:0:0:0:
111,293,120913,1,0,1:3:0:0:
408,16,121167,2,0,L|157:42,1,250,2|2,0:2|1:3,0:0:0:0:
351,345,121676,2,0,B|336:353|336:353|110:292,1,250,10|0,0:2|1:3,0:0:0:0:
435,309,122184,5,0,1:0:0:0:
486,239,122566,5,0,1:0:0:0:
207,284,122693,1,10,0:2:0:0:
114,297,122947,5,0,1:3:0:0:
130,44,123201,2,0,P|191:53|245:83,1,125,2|0,0:2|0:0,0:0:0:0:
372,333,123456,2,0,P|317:363|256:372,1,125,2|0,1:2|0:0,0:0:0:0:
321,32,123710,1,8,1:2:0:0:
464,329,123964,2,0,B|502:367|502:367|534:289|521:195|447:125|380:108,1,375,2|0,1:2|0:0,0:0:0:0:
94,214,124473,1,2,0:3:0:0:
131,376,124600,2,0,L|255:372,1,125,0|8,1:0|0:2,0:0:0:0:
256,372,124981,6,0,P|133:255|148:46,1,375,2|2,1:2|3:2,0:0:0:0:
208,0,125489,1,0,1:0:0:0:
512,305,125744,6,0,L|293:288,1,218.750002086163,10|2,3:2|3:2,0:0:0:0:
19,141,125998,6,0,L|81:130,1,62.5,0|4,1:0|1:1,0:0:0:0:
81,130,126634,5,0,1:0:0:0:
141,364,126761,2,0,P|237:316|290:159,1,250,10|0,0:2|1:3,0:0:0:0:
508,351,127269,2,0,P|403:251|391:131,1,250,2|2,0:2|1:3,0:0:0:0:
61,103,127778,2,0,B|280:81|280:81|307:94,1,250,10|0,1:2|1:3,0:0:0:0:
154,187,128159,1,0,0:0:0:0:
395,60,128286,1,0,1:0:0:0:
474,124,128540,5,2,0:3:0:0:
322,6,128667,1,0,1:0:0:0:
128,5,128795,2,0,P|211:96|327:140,1,250,10|0,0:2|1:3,0:0:0:0:
94,289,129303,2,0,B|52:298|20:273|20:273|57:180|164:187,1,250,2|2,0:2|1:3,0:0:0:0:
367,0,129812,2,0,P|401:51|416:112,1,125,10|0,1:2|0:0,0:0:0:0:
235,384,130066,2,0,P|200:332|185:271,1,125,0|0,1:3|0:0,0:0:0:0:
262,11,130320,5,0,1:0:0:0:
318,84,130574,5,2,3:3:0:0:
73,157,130701,1,0,1:0:0:0:
182,61,130828,1,10,0:2:0:0:
408,334,131083,2,0,P|346:326|294:294,1,125,0|0,1:3|0:0,0:0:0:0:
98,23,131337,1,2,0:2:0:0:
186,65,131464,1,0,0:0:0:0:
171,160,131591,2,0,B|157:183|157:183|149:287,1,125,2|0,1:3|0:0,0:0:0:0:
469,12,131845,5,8,1:1:0:0:
469,11,132100,2,0,P|473:73|461:134,1,125,0|0,1:3|0:0,0:0:0:0:
283,384,132354,1,0,1:0:0:0:
247,298,132608,5,2,0:3:0:0:
372,115,132735,1,0,1:0:0:0:
378,369,132862,1,10,0:2:0:0:
216,119,133117,2,0,P|230:58|253:-6,1,125,0|0,1:3|0:0,0:0:0:0:
247,298,133371,1,2,0:2:0:0:
172,368,133498,1,0,0:0:0:0:
151,264,133625,2,0,P|136:203|114:139,1,125,0|0,1:2|0:0,0:0:0:0:
195,60,133879,6,0,L|72:36,1,125,10|0,1:2|0:0,0:0:0:0:
493,285,134134,6,0,B|363:295|363:295|340:265,1,168.75000064373,2|0,3:3|0:0,0:0:0:0:
249,353,134388,6,0,B|292:346|292:346|-19:275|-19:275|28:301|28:301|75:96|75:96|19:100|19:100|312:161|312:161|216:271|216:271|111:214|111:214|161:190,1,1299.99994049073,4|0,1:1|1:0,0:0:0:0:
185,48,136676,1,0,3:0:0:0:
96,50,136803,1,0,1:0:0:0:
189,52,136930,2,0,L|189:102,1,50,10|0,3:2|2:0,0:0:0:0:
61,308,137184,2,0,L|61:258,1,50,0|0,1:2|0:0,0:0:0:0:
103,145,137439,6,0,P|123:176|157:189,1,74.9999977111817,0|0,3:0|2:0,0:0:0:0:
282,106,137693,2,0,L|282:31,1,74.9999977111817,0|0,1:2|2:0,0:0:0:0:
322,307,137947,2,0,P|259:270|252:198,1,149.999995422363,10|0,0:2|1:2,0:0:0:0:
431,41,138456,6,0,B|356:60|359:8|301:26|301:26|222:46|140:46|140:46|214:67|270:111|230:116|276:161|339:174|339:174|346:234|382:189|420:174|420:174|379:169|334:134|342:194|342:194|284:221|250:276|290:271|246:328|180:366|180:366|259:346|340:347|340:347|401:349|385:300|467:301,1,1299.99994049073,4|0,1:0|1:0,0:0:0:0:
334,204,140744,1,0,0:0:0:0:
424,201,140871,1,0,1:0:0:0:
338,208,140998,2,0,L|338:258,1,50,10|0,0:2|0:0,0:0:0:0:
176,378,141252,2,0,L|176:328,1,50,0|0,1:3|0:0,0:0:0:0:
330,353,141506,6,0,P|294:344|264:319,1,74.9999977111817,0|0,3:0|2:0,0:0:0:0:
235,159,141761,2,0,P|244:194|230:247,1,74.9999977111817,0|0,1:0|2:0,0:0:0:0:
86,349,142015,6,0,L|11:359,1,74.9999977111817,10|0,0:2|0:0,0:0:0:0:
164,87,142269,1,0,0:3:0:0:
265,321,142523,6,0,B|349:332|349:332|368:338|368:338|390:334|390:334|408:339|408:339|488:350,1,218.750002086163,0|0,1:0|0:3,0:0:0:0:
495,248,142905,1,0,1:0:0:0:
503,370,143032,6,0,P|482:282|397:253,1,187.500007152558,10|0,0:0|1:0,0:0:0:0:
455,22,143540,5,0,3:0:0:0:
509,97,143667,1,0,0:0:0:0:
434,157,143795,2,0,L|371:151,1,62.5,0|0,1:0|0:0,0:0:0:0:
303,373,144049,2,0,P|329:356|342:328,1,62.5,10|0,0:2|0:0,0:0:0:0:
305,68,144303,2,0,L|243:58,1,62.5,0|2,0:3|3:2,0:0:0:0:
247,63,144557,6,0,B|162:51|162:51|143:45|143:45|121:49|121:49|103:44|103:44|29:34,1,218.750002086163,0|0,1:0|0:3,0:0:0:0:
180,0,144939,1,0,1:0:0:0:
12,18,145066,6,0,P|104:47|117:138,1,187.500007152558,10|0,0:2|1:0,0:0:0:0:
46,365,145574,1,0,3:0:0:0:
18,283,145701,1,0,2:0:0:0:
100,265,145828,1,0,1:0:0:0:
260,321,146083,2,0,L|254:370,1,50,10|0,0:2|0:0,0:0:0:0:
346,278,146337,1,0,0:3:0:0:
40,187,146591,5,0,1:0:0:0:
389,78,146845,1,0,0:3:0:0:
298,102,146973,1,0,1:0:0:0:
283,197,147100,5,10,0:0:0:0:
192,221,147227,1,0,3:0:0:0:
279,215,147354,6,0,L|151:201,1,125,0|0,1:0|3:0,0:0:0:0:
87,136,147735,1,0,0:0:0:0:
131,167,147862,1,0,1:0:0:0:
75,30,147989,1,0,3:0:0:0:
119,61,148117,2,0,L|93:144,1,62.5,10|0,0:2|3:0,0:0:0:0:
199,13,148371,1,0,3:3:0:0:
161,336,148625,6,0,L|98:336,1,62.5,0|0,1:0|0:0,0:0:0:0:
311,291,148879,1,0,0:3:0:0:
347,332,149006,1,0,1:0:0:0:
256,299,149134,2,0,L|255:236,1,62.5,10|0,0:2|0:0,0:0:0:0:
351,336,149388,2,0,L|414:336,1,62.5,0|0,1:0|0:0,0:0:0:0:
159,231,149642,1,2,0:0:0:0:
64,236,149769,1,0,0:0:0:0:
163,235,149896,2,0,L|163:173,1,62.5,0|0,1:2|0:0,0:0:0:0:
349,235,150150,2,0,L|349:173,1,62.5,10|0,0:2|0:0,0:0:0:0:
256,146,150405,6,0,L|256:62,1,83.3750021754647,2|0,3:2|0:0,0:0:0:0:
148,328,151167,6,0,B|108:329|117:346|73:348,1,74.9999977111817,2|0,0:0|0:0,0:0:0:0:
146,302,151676,2,0,P|124:271|91:255,1,74.9999977111817,0|0,0:0|0:0,0:0:0:0:
162,290,152184,2,0,L|172:205,1,74.9999977111817,2|0,0:0|0:0,0:0:0:0:
364,328,153201,2,0,B|403:329|394:346|435:346,1,74.9999977111817,2|0,0:0|0:0,0:0:0:0:
366,302,153710,2,0,P|387:271|420:255,1,74.9999977111817,0|0,0:0|0:0,0:0:0:0:
350,290,154218,2,0,L|340:205,1,74.9999977111817,2|0,0:0|0:0,0:0:0:0:
256,128,154727,5,0,0:0:0:0:
157,43,154981,1,0,0:0:0:0:
149,41,155108,1,0,0:0:0:0:
148,47,155235,2,0,P|111:76|74:77,1,83.3750021754647,10|0,0:0|0:0,0:0:0:0:
167,154,155744,2,0,B|120:173|146:183|101:203,1,83.3750021754647,0|0,0:0|0:0,0:0:0:0:
148,286,156252,2,0,L|124:365,2,83.3750021754647,10|0|0,0:0|0:0|0:0,0:0:0:0:
380,367,157015,5,0,0:0:0:0:
387,372,157142,1,0,0:0:0:0:
388,365,157269,2,0,L|364:286,1,83.3750021754647,10|0,0:0|0:0,0:0:0:0:
411,203,157778,2,0,B|366:183|392:173|345:154,1,83.3750021754647,0|0,0:0|0:0,0:0:0:0:
435,77,158286,2,0,P|395:73|363:42,1,83.3750021754647,10|0,0:0|0:0,0:0:0:0:
345,154,158795,6,0,L|335:250,1,93.7500035762788,0|0,3:0|0:0,0:0:0:0:
320,333,159176,1,0,0:0:0:0:
304,287,159303,1,10,0:0:0:0:
206,236,159557,1,0,0:0:0:0:
147,384,159812,1,0,0:0:0:0:
131,338,159939,1,0,0:0:0:0:
117,297,160066,2,0,L|56:293,1,46.8750017881394,0|0,0:0|0:0,0:0:0:0:
2,230,160320,1,10,0:0:0:0:
99,204,160447,2,0,L|38:200,1,46.8750017881394,0|0,0:0|0:0,0:0:0:0:
9,122,160701,1,0,0:0:0:0:
105,106,160828,5,0,3:0:0:0:
109,110,161083,5,0,0:0:0:0:
101,50,161210,1,0,0:0:0:0:
162,139,161337,2,0,L|234:146,1,46.8750017881394,10|0,0:0|0:0,0:0:0:0:
247,98,161591,1,0,0:0:0:0:
400,37,161845,2,0,L|379:103,1,46.8750017881394,0|0,0:0|0:0,0:0:0:0:
367,180,162100,1,0,0:0:0:0:
409,137,162227,1,0,0:0:0:0:
384,238,162354,1,10,0:0:0:0:
342,281,162481,2,0,B|260:274|260:274|250:280,1,93.7500035762788,0|0,0:0|0:0,0:0:0:0:
250,280,162862,5,0,3:0:0:0:
82,372,163117,1,0,0:0:0:0:
58,316,163244,1,0,0:0:0:0:
63,204,163371,1,10,0:0:0:0:
83,261,163498,1,0,0:0:0:0:
79,146,163625,2,0,L|189:157,1,93.7500035762788,0|0,0:0|0:0,0:0:0:0:
359,85,164134,1,0,0:0:0:0:
447,101,164261,2,0,L|401:112,1,46.8750017881394,0|10,0:0|0:0,0:0:0:0:
286,183,164515,1,0,0:0:0:0:
270,125,164642,1,0,0:0:0:0:
277,256,164769,1,0,0:0:0:0:
273,195,164896,5,0,0:0:0:0:
100,205,166167,6,0,L|51:220,1,46.8750017881394,0|0,0:0|0:0,0:0:0:0:
104,209,166422,6,0,B|88:156|88:156|159:172|159:172|168:198,1,155.625002255917,0|0,0:0|0:0,0:0:0:0:
152,284,166930,6,0,P|236:217|276:317,1,250,4|2,1:0|0:3,0:0:0:0:
403,366,167312,1,0,1:0:0:0:
152,285,167439,2,0,P|262:231|374:277,1,250,10|0,0:2|1:0,0:0:0:0:
342,39,167947,2,0,P|391:149|509:177,1,250,2|0,0:2|1:3,0:0:0:0:
160,10,168456,2,0,P|216:34|250:86,1,125,10|0,0:2|0:0,0:0:0:0:
291,326,168710,2,0,P|340:362|402:365,1,125,0|0,1:3|0:0,0:0:0:0:
501,82,168964,5,0,1:0:0:0:
429,12,169345,5,0,1:1:0:0:
500,371,169473,2,0,L|465:207,1,125,10|0,0:2|0:0,0:0:0:0:
342,39,169727,1,0,1:0:0:0:
128,360,169981,2,0,L|373:308,1,250,2|0,0:2|1:3,0:0:0:0:
84,90,170489,2,0,B|99:81|99:81|331:131,1,250,10|0,1:2|1:0,0:0:0:0:
0,139,170998,5,0,1:0:0:0:
88,94,171379,5,0,1:0:0:0:
418,150,171506,1,10,0:2:0:0:
493,101,171761,5,0,1:0:0:0:
145,247,172015,2,0,P|135:309|163:377,1,125,2|0,0:2|0:0,0:0:0:0:
428,269,172269,2,0,P|438:207|410:139,1,125,2|0,1:2|0:0,0:0:0:0:
248,0,172523,1,8,0:2:0:0:
344,337,172778,2,0,B|310:362|310:362|224:308|248:122|327:66,1,375,2|0,1:2|0:0,0:0:0:0:
509,216,173286,1,2,0:3:0:0:
453,384,173413,2,0,L|426:262,1,125,0|8,1:0|0:2,0:0:0:0:
426,262,173795,6,0,P|271:358|100:299,1,375,2|2,1:2|3:2,0:0:0:0:
31,232,174303,1,0,1:0:0:0:
426,170,174557,6,0,L|209:141,1,218.750002086163,10|2,3:2|3:2,0:0:0:0:
16,32,174812,6,0,L|81:39,1,62.5,0|4,1:0|1:1,0:0:0:0:
78,38,175447,5,0,1:0:0:0:
123,347,175574,2,0,P|165:230|126:109,1,250,10|0,0:2|1:0,0:0:0:0:
299,363,176083,2,0,P|260:248|331:151,1,250,2|0,0:2|1:3,0:0:0:0:
511,24,176591,2,0,B|299:66|299:66|266:56,1,250,10|0,1:2|1:0,0:0:0:0:
445,88,176973,1,0,0:0:0:0:
182,29,177100,1,0,1:0:0:0:
90,70,177354,5,2,0:3:0:0:
271,61,177481,1,0,1:0:0:0:
411,176,177608,2,0,P|286:174|170:122,1,250,10|0,0:2|1:0,0:0:0:0:
445,88,178117,2,0,B|499:79|508:33|508:33|432:-18|358:35,1,250,2|0,0:2|1:3,0:0:0:0:
321,384,178625,2,0,P|335:324|312:267,1,125,10|0,0:2|0:0,0:0:0:0:
41,160,178879,2,0,P|18:102|32:43,1,125,0|0,1:0|0:0,0:0:0:0:
315,168,179134,5,0,1:0:0:0:
233,216,179388,5,2,3:3:0:0:
121,112,179515,1,0,1:0:0:0:
397,113,179642,1,10,0:2:0:0:
145,384,179896,2,0,P|130:324|153:267,1,125,0|0,1:0|0:0,0:0:0:0:
225,22,180150,1,2,0:2:0:0:
309,75,180278,1,0,0:0:0:0:
239,137,180405,2,0,P|177:138|120:111,1,125,0|0,1:3|0:0,0:0:0:0:
428,314,180659,5,8,0:1:0:0:
432,318,180913,2,0,P|370:316|313:343,1,125,0|0,1:0|0:0,0:0:0:0:
16,335,181167,1,0,1:0:0:0:
94,384,181422,5,2,0:3:0:0:
252,275,181549,1,0,1:0:0:0:
24,242,181676,1,10,0:2:0:0:
313,343,181930,2,0,P|344:290|350:227,1,125,0|0,1:0|0:0,0:0:0:0:
52,137,182184,1,2,0:2:0:0:
121,211,182312,1,0,0:0:0:0:
151,116,182439,2,0,B|136:25|136:25|115:1,1,125,0|0,1:3|0:0,0:0:0:0:
16,335,182693,1,10,0:2:0:0:
342,168,182947,6,0,B|266:130|266:130|209:192,1,168.75000064373,0|0,1:0|0:0,0:0:0:0:
416,114,183201,6,0,P|444:37|335:72,1,250,4|2,1:1|0:3,0:0:0:0:
288,250,183583,1,0,1:0:0:0:
405,298,183710,2,0,P|394:174|335:65,1,250,10|0,0:2|1:0,0:0:0:0:
90,373,184218,2,0,P|174:284|195:160,1,250,2|0,0:2|1:3,0:0:0:0:
44,4,184727,2,0,P|17:59|31:118,1,125,10|0,1:2|0:0,0:0:0:0:
288,250,184981,2,0,P|302:309|275:364,1,125,0|0,1:2|0:0,0:0:0:0:
335,65,185235,5,0,1:0:0:0:
410,7,185617,5,0,1:0:0:0:
184,288,185744,2,0,L|197:151,1,125,10|0,0:2|0:0,0:0:0:0:
266,0,185998,1,0,1:0:0:0:
512,365,186252,2,0,B|251:278,1,250,2|0,0:2|1:3,0:0:0:0:
506,93,186761,2,0,B|493:80|493:80|254:98,1,250,10|0,0:2|1:0,0:0:0:0:
438,26,187269,5,0,1:0:0:0:
510,97,187650,5,0,1:0:0:0:
182,46,187778,1,10,0:2:0:0:
83,37,188032,5,0,1:0:0:0:
164,327,188286,2,0,P|223:347|285:343,1,125,2|0,0:2|0:0,0:0:0:0:
389,31,188540,2,0,P|330:11|268:15,1,125,2|0,1:2|0:0,0:0:0:0:
81,243,188795,1,8,1:2:0:0:
389,31,189049,2,0,B|443:12|443:12|512:104|476:238|373:285,1,375,2|0,1:2|0:0,0:0:0:0:
159,157,189557,1,2,0:3:0:0:
252,93,189684,2,0,L|371:130,1,125,0|8,1:0|0:2,0:0:0:0:
371,130,190066,6,0,P|249:-2|70:27,1,375,2|2,1:2|3:2,0:0:0:0:
1,85,190574,1,0,1:0:0:0:
472,209,190828,6,0,L|251:227,1,218.750002086163,10|0,3:2|0:0,0:0:0:0:
13,340,191083,6,0,L|83:346,1,62.5,0|4,1:0|1:0,0:0:0:0:
75,345,191718,5,0,1:0:0:0:
27,49,191845,2,0,P|113:135|124:257,1,250,10|0,0:2|1:0,0:0:0:0:
324,0,192354,2,0,P|248:96|234:219,1,250,2|0,0:2|1:3,0:0:0:0:
464,367,192862,2,0,B|471:354|471:354|397:115,1,250,10|0,0:2|1:0,0:0:0:0:
333,271,193244,1,0,0:0:0:0:
454,35,193371,1,0,1:0:0:0:
501,124,193625,5,2,0:3:0:0:
320,178,193752,1,0,1:0:0:0:
153,88,193879,2,0,P|274:65|386:115,1,250,10|0,0:2|1:0,0:0:0:0:
82,151,194388,2,0,B|46:181|3:181|3:181|-21:120|8:70|62:48,1,250,2|0,0:2|1:3,0:0:0:0:
497,14,194896,2,0,P|505:75|478:130,1,125,10|0,0:2|0:0,0:0:0:0:
163,213,195150,2,0,P|154:274|181:329,1,125,0|0,1:0|0:0,0:0:0:0:
451,357,195405,5,0,1:0:0:0:
380,278,195659,5,2,3:3:0:0:
89,366,195786,1,0,1:0:0:0:
356,368,195913,1,10,0:2:0:0:
340,68,196167,2,0,P|299:114|292:175,1,125,0|0,1:0|0:0,0:0:0:0:
185,382,196422,1,2,0:2:0:0:
267,337,196549,1,0,0:0:0:0:
225,252,196676,2,0,P|204:193|155:157,1,125,0|0,1:3|0:0,0:0:0:0:
476,266,196930,5,8,0:2:0:0:
480,270,197184,2,0,L|356:250,1,125,0|0,1:0|0:0,0:0:0:0:
30,211,197439,1,0,1:0:0:0:
120,182,197693,5,2,0:3:0:0:
287,309,197820,1,0,1:0:0:0:
57,302,197947,1,10,0:2:0:0:
253,3,198201,2,0,P|271:63|277:125,1,125,0|0,1:0|0:0,0:0:0:0:
136,370,198456,1,2,0:2:0:0:
61,306,198583,1,0,0:0:0:0:
150,276,198710,2,0,B|257:283|257:283|267:297,1,125,0|0,1:3|0:0,0:0:0:0:
403,8,198964,6,0,B|388:23|388:23|373:169,1,168.75000064373,10|0,0:2|0:0,0:0:0:0:
455,384,199218,2,0,B|483:262|483:262|451:231,1,168.75000064373,2|0,2:3|0:0,0:0:0:0:
292,33,199473,5,4,1:0:0:0:
201,20,199854,5,0,1:0:0:0:
266,316,199981,1,10,0:2:0:0:
199,381,200235,5,0,1:0:0:0:
178,290,200617,5,0,1:0:0:0:
135,95,200744,1,0,0:3:0:0:
56,51,200998,6,0,B|28:91|28:91|52:128,1,93.7500035762788,10|0,1:2|0:0,0:0:0:0:
108,208,201252,2,0,L|80:297,1,93.7500035762788,2|0,1:2|0:0,0:0:0:0:
55,384,201506,5,0,1:0:0:0:
84,302,201888,5,0,1:0:0:0:
138,0,202015,1,10,0:2:0:0:
171,84,202269,5,0,1:0:0:0:
227,14,202650,5,0,1:0:0:0:
148,370,202778,1,0,0:0:0:0:
232,326,203032,6,0,L|196:173,1,156.25,10|0,1:2|0:0,0:0:0:0:
312,49,203286,2,0,B|371:22|371:22|426:94,1,156.25,2|0,1:2|0:0,0:0:0:0:
504,50,203540,5,0,1:0:0:0:
431,98,203922,5,0,1:0:0:0:
360,287,204049,1,10,0:2:0:0:
319,369,204303,5,0,1:0:0:0:
411,364,204684,5,0,1:0:0:0:
342,138,204812,1,0,0:0:0:0:
263,70,205066,6,0,L|250:162,1,93.7500035762788,10|0,1:2|0:0,0:0:0:0:
292,263,205320,2,0,B|272:263|272:263|200:304,1,93.7500035762788,2|0,1:2|0:0,0:0:0:0:
128,352,205574,5,0,1:0:0:0:
45,309,205956,5,0,1:0:0:0:
299,351,206083,1,10,0:2:0:0:
385,315,206337,5,0,1:0:0:0:
471,279,206591,5,2,3:2:0:0:
292,263,206718,1,2,3:2:0:0:
113,247,206845,1,0,1:0:0:0:
25,285,207100,5,10,3:2:0:0:
206,222,207227,1,2,3:2:0:0:
387,159,207354,1,0,1:0:0:0:
32,20,207608,5,0,1:0:0:0:
114,63,207989,5,0,1:0:0:0:
40,378,208117,1,8,0:2:0:0:
96,304,208371,5,0,1:0:0:0:
189,298,208752,5,0,1:0:0:0:
198,20,208879,1,0,0:0:0:0:
293,34,209134,6,0,L|263:123,1,93.7500035762788,10|0,1:2|0:0,0:0:0:0:
248,221,209388,2,0,B|264:234|264:234|290:302,1,93.7500035762788,2|0,1:2|0:0,0:0:0:0:
242,381,209642,5,0,1:0:0:0:
294,306,210023,5,0,1:0:0:0:
365,88,210150,1,8,0:2:0:0:
386,0,210405,5,0,1:0:0:0:
454,67,210786,5,0,1:0:0:0:
386,334,210913,1,0,1:0:0:0:
364,239,211040,1,2,0:2:0:0:
479,363,211167,1,10,1:2:0:0:
389,338,211422,5,2,1:2:0:0:
32,303,211676,5,0,1:0:0:0:
81,380,212057,5,0,1:0:0:0:
139,100,212184,1,8,0:2:0:0:
102,15,212439,5,0,1:0:0:0:
50,92,212820,5,0,1:0:0:0:
165,342,212947,1,0,0:0:0:0:
259,373,213201,6,0,B|265:362|265:362|210:195,1,156.25,10|0,1:2|0:0,0:0:0:0:
115,185,213456,2,0,L|198:53,1,156.25,2|0,1:2|0:0,0:0:0:0:
273,0,213710,5,0,1:0:0:0:
371,8,214091,5,0,1:0:0:0:
247,142,214218,1,8,0:2:0:0:
146,149,214473,5,0,1:0:0:0:
50,125,214727,5,2,3:2:0:0:
202,230,214854,1,2,3:2:0:0:
354,335,214981,1,0,1:0:0:0:
272,381,215235,5,10,3:2:0:0:
365,190,215362,1,2,3:2:0:0:
460,0,215489,1,0,1:0:0:0:
